osu file format v14

[General]
AudioFilename: 02. Ai no Prison (mp3cut.net).mp3
AudioLeadIn: 0
PreviewTime: 72089
Countdown: 0
SampleSet: Soft
StackLeniency: 0.7
Mode: 0
LetterboxInBreaks: 0
WidescreenStoryboard: 0

[Editor]
Bookmarks: 31914,52125
DistanceSpacing: 1.3
BeatDivisor: 2
GridSize: 4
TimelineZoom: 1

[Metadata]
Title:Ai no Prison
TitleUnicode:Ai no Prison
Artist:Kangoku Danshi
ArtistUnicode:Kangoku Danshi
Creator:agusch
Version:Normal
Source:Prison School
Tags:Nocturne [AR]
BeatmapID:797280
BeatmapSetID:362663

[Difficulty]
HPDrainRate:3
CircleSize:3.4
OverallDifficulty:1
ApproachRate:4
SliderMultiplier:0.7
SliderTickRate:1

[Events]
//Background and Video events
0,0,"2gvof8m.jpg",0,0
//Break Periods
2,27062,30594
//Storyboard Layer 0 (Background)
//Storyboard Layer 1 (Fail)
//Storyboard Layer 2 (Pass)
//Storyboard Layer 3 (Foreground)
//Storyboard Sound Samples

[TimingPoints]
2862,315.789473684211,4,2,1,100,1,0
31914,-100,4,2,1,100,0,1
52125,-100,4,2,1,100,0,0
72335,-74.0740740740741,4,2,1,100,0,1
87493,-100,4,2,1,100,0,0
97598,-100,4,2,1,100,0,0

[Colours]
Combo1 : 26,140,255
Combo2 : 0,255,64
Combo3 : 0,255,255
Combo4 : 255,128,0

[HitObjects]
256,44,2862,22,0,L|256:164,1,105
224,248,3651,2,0,P|260:256|296:248,1,70
256,40,4756,1,0,0:0:0:0:
412,192,5388,6,0,P|359:197|308:192,1,105
236,116,6177,2,0,P|208:144|200:180,1,70
256,332,7283,1,0,0:0:0:0:
100,192,7914,6,0,P|153:187|204:192,1,105
276,268,8704,2,0,P|304:240|312:204,1,70
256,52,9809,1,0,0:0:0:0:
256,336,10440,6,0,L|256:232,1,105
292,132,11230,2,0,P|257:122|220:132,1,70
256,336,12335,1,0,0:0:0:0:
172,88,12967,6,0,L|244:108,1,70
344,128,13598,2,0,L|264:176,1,70
188,212,14230,2,0,L|276:236,1,70
356,256,14862,2,0,L|276:300,1,70
256,192,15335,12,0,16440,0:0:0:0:
364,92,16756,6,0,P|328:105|280:96,1,70
192,84,17388,1,0,0:0:0:0:
200,188,17704,1,0,0:0:0:0:
272,264,18019,2,0,P|224:312|200:316,2,70
384,212,18967,1,0,0:0:0:0:
320,296,19283,6,0,P|256:288|180:248,1,140
308,80,20546,2,0,L|388:116,1,70
412,208,21177,1,0,0:0:0:0:
232,320,21809,6,0,B|204:300|204:300|208:244|156:184,1,140
100,124,22756,1,0,0:0:0:0:
196,80,23072,2,0,B|248:80|248:80|288:104|340:96|340:96|352:112,1,140
240,284,24335,6,0,P|209:266|189:238,1,70
232,140,24967,1,0,0:0:0:0:
140,92,25283,1,0,0:0:0:0:
92,184,25598,2,0,B|118:208|118:208|180:236|180:236|216:272,1,140
256,56,26862,1,0,0:0:0:0:
412,76,31914,6,0,P|376:100|276:120,1,140
196,60,32862,1,0,0:0:0:0:
128,140,33177,2,0,L|112:180,1,35
176,260,33651,2,0,L|160:300,1,35
392,168,34598,6,0,B|434:162|434:162|472:164,2,70
316,240,35546,1,0,0:0:0:0:
220,284,35862,1,0,0:0:0:0:
148,208,36177,2,0,P|196:132|196:76,1,140
296,52,37125,6,0,L|372:52,2,70
236,136,38072,2,0,P|212:164|176:180,1,70
76,172,38704,2,0,P|76:208|96:252,1,70
184,280,39335,1,0,0:0:0:0:
280,240,39651,5,0,0:0:0:0:
348,320,39967,2,0,P|384:300|400:272,1,70
424,176,40598,2,0,B|385:137|385:137|316:176|258:140|258:140|222:118|148:152,1,280
164,248,42177,6,0,B|156:220|156:220|88:200|92:132,2,140
268,264,43756,1,0,0:0:0:0:
304,164,44072,2,0,B|320:200|320:200|376:232|376:232|404:272,1,140
312,320,45019,5,0,0:0:0:0:
212,296,45335,1,0,0:0:0:0:
176,196,45651,1,0,0:0:0:0:
232,108,45967,1,0,0:0:0:0:
328,152,46283,2,0,P|264:176|176:176,1,140
96,220,47230,6,0,L|148:288,1,70
236,316,47862,2,0,L|324:316,1,70
404,276,48493,2,0,L|456:216,2,70
320,216,49440,1,0,0:0:0:0:
376,128,49756,5,0,0:0:0:0:
284,76,50072,1,0,0:0:0:0:
244,172,50388,2,0,P|209:228|140:280,1,140
108,248,51177,2,0,L|80:176,1,70
120,144,51651,2,0,B|148:108|148:108|200:80,1,105
356,64,52598,6,0,B|352:100|352:100|328:132,1,70
244,188,53230,2,0,P|260:216|300:244,1,70
360,316,53861,2,0,L|176:316,1,175
344,88,55440,6,0,L|424:68,2,70
336,192,56388,2,0,P|232:200|168:152,1,175
384,260,57967,5,0,0:0:0:0:
304,328,58283,1,0,0:0:0:0:
220,268,58598,1,0,0:0:0:0:
128,320,58914,2,0,B|108:260|136:200|136:200|120:144,1,175
124,304,60493,6,0,B|108:304|108:304|76:320|76:320|56:320,2,70
228,324,61440,2,0,P|308:320|384:268,1,175
220,60,63019,5,0,0:0:0:0:
220,165,63335,1,0,0:0:0:0:
220,270,63651,1,0,0:0:0:0:
304,332,63967,2,0,P|216:348|132:332,1,175
256,100,65546,6,0,L|256:24,2,70
330,174,66493,1,0,0:0:0:0:
184,328,67283,6,0,B|195:324|195:324|228:336|228:336|257:329|280:336|280:336|312:325|312:325|324:328,1,140
320,116,68546,2,0,B|313:117|313:117|280:107|280:107|258:113|228:107|228:107|196:118|196:118|184:115,1,140
256,192,69809,12,0,72019,0:0:0:0:
152,116,72335,6,0,P|192:136|272:140,1,94.5000003604889
352,88,72967,2,0,B|380:128|380:128|388:176,1,94.5000003604889
280,228,73598,1,0,0:0:0:0:
376,304,73914,1,0,0:0:0:0:
256,336,74230,2,0,B|220:300|220:300|136:264|136:264|131:242|112:212,1,189.000000720978
68,108,75177,5,0,0:0:0:0:
164,32,75493,1,0,0:0:0:0:
286,32,75809,1,0,0:0:0:0:
380,112,76125,1,0,0:0:0:0:
288,192,76440,1,0,0:0:0:0:
164,196,76756,2,0,P|184:252|300:316,1,189.000000720978
348,208,77704,6,0,B|368:188|368:188|405:193|436:184,2,94.5000003604889
252,284,78651,1,0,0:0:0:0:
136,240,78967,1,0,0:0:0:0:
72,136,79283,2,0,P|120:124|152:80,1,94.5000003604889
268,76,79914,2,0,B|292:100|292:100|408:76|356:180|356:180|408:284|292:264|292:264|268:288,1,378.000001441956
220,176,81493,2,0,P|168:128|108:136,1,94.5000003604889
72,224,82125,5,0,0:0:0:0:
172,296,82440,2,0,B|200:268|200:268|244:264|264:240|300:236|300:236|332:204,1,189.000000720978
280,92,83388,1,0,0:0:0:0:
220,200,83704,2,0,P|152:184|136:152,1,94.5000003604889
248,108,84335,2,0,P|336:148|316:264,1,189.000000720978
220,208,85283,5,0,0:0:0:0:
220,330,85598,1,0,0:0:0:0:
312,252,85914,2,0,L|408:216,1,94.5000003604889
313,131,86546,2,0,L|208:100,1,94.5000003604889
104,244,87493,6,0,B|126:242|126:242|172:288|244:284,1,140
416,272,88756,2,0,P|369:220|306:191,1,140
220,32,90019,6,0,B|196:60|196:60|184:136|184:136|152:176,1,140
264,312,91283,2,0,B|284:296|316:288|316:288|340:268,1,70
396,224,91914,2,0,P|366:203|330:201,1,70
256,128,92546,6,0,P|231:193|256:256,1,140
308,192,93809,6,0,P|332:126|308:64,1,140
188,300,95072,2,0,L|328:300,1,140
256,132,96335,1,0,0:0:0:0:
