osu file format v14

[General]
AudioFilename: 02. Ai no Prison (mp3cut.net).mp3
AudioLeadIn: 0
PreviewTime: 72089
Countdown: 0
SampleSet: Soft
StackLeniency: 0.7
Mode: 0
LetterboxInBreaks: 0
WidescreenStoryboard: 1

[Editor]
Bookmarks: 31914,52125
DistanceSpacing: 0.9
BeatDivisor: 2
GridSize: 4
TimelineZoom: 1

[Metadata]
Title:Ai no Prison
TitleUnicode:Ai no Prison
Artist:Kangoku Danshi
ArtistUnicode:Kangoku Danshi
Creator:agusch
Version:Easy
Source:Prison School
Tags:Nocturne [AR]
BeatmapID:808783
BeatmapSetID:362663

[Difficulty]
HPDrainRate:2
CircleSize:3
OverallDifficulty:1
ApproachRate:3
SliderMultiplier:0.7
SliderTickRate:1

[Events]
//Background and Video events
0,0,"2gvof8m.jpg",0,0
//Break Periods
2,27061,27948
//Storyboard Layer 0 (Background)
//Storyboard Layer 1 (Fail)
//Storyboard Layer 2 (Pass)
//Storyboard Layer 3 (Foreground)
//Storyboard Sound Samples

[TimingPoints]
2862,315.789473684211,4,2,1,100,1,0
31914,-100,4,2,1,100,0,1
52125,-100,4,2,1,100,0,0
72335,-74.0740740740741,4,2,1,100,0,1
87493,-100,4,2,1,100,0,0
97598,-100,4,2,1,100,0,0

[Colours]
Combo1 : 26,140,255
Combo2 : 0,255,64
Combo3 : 0,255,255
Combo4 : 255,128,0

[HitObjects]
136,88,2862,6,0,B|205:65|259:90|259:90|309:114|379:92,1,245
375,290,5388,2,0,B|309:269|259:293|259:293|205:318|136:296,1,245
96,80,7914,2,0,B|65:122|65:122|87:189|66:225|66:225|48:270|95:313,1,245
368,304,10440,2,0,B|398:261|398:261|376:194|397:158|397:158|415:113|368:70,1,245
152,252,12967,6,0,B|124:248|124:248|112:280|60:320|16:312,2,140
252,176,14862,1,0,0:0:0:0:
341,86,15493,2,0,P|377:186|341:278,1,210
340,278,16756,1,0,0:0:0:0:
232,124,17388,6,0,B|195:100|195:100|140:96|140:96|79:63,1,140
32,180,18651,1,0,0:0:0:0:
148,284,19283,2,0,B|212:324|284:308|284:308|300:252|364:240|364:240|380:208,2,280
228,188,22440,1,0,0:0:0:0:
312,92,23072,2,0,P|368:140|356:208,1,140
236,184,24335,2,0,B|243:269|296:304|296:304|390:299|448:332,2,280
212,244,29388,6,0,P|256:348|300:244,2,280
128,148,32546,2,0,B|156:148|156:148|200:60|296:128|355:66|355:66|392:80,1,280
316,220,34440,2,0,B|360:208|392:220|412:252|408:292|380:328|320:312|320:312|248:336|176:280,1,350
44,168,37125,6,0,P|64:100|128:48,3,140
168,168,39651,1,0,0:0:0:0:
60,324,40598,2,0,B|104:316|104:316|124:272|124:272|168:256|168:256|192:168|276:192|288:84,1,350
404,48,42809,2,0,P|436:109|440:192,2,140
324,148,44704,6,0,B|264:184|264:184|196:176|196:176|144:244|44:200,2,280
440,192,47862,2,0,B|390:197|388:252|320:264,1,140
228,344,49125,2,0,L|160:216,1,140
64,144,50388,2,0,P|228:88|428:148,1,385
408,320,52914,6,0,B|376:332|340:320|340:320|304:332|272:320|272:320|235:331|201:320|201:320|170:331|132:320|132:320|97:332|64:320|64:320|39:328|0:320,1,385
80,176,55440,2,0,B|127:121|127:121|192:145|192:145|230:90|230:90|296:118|296:118|339:61|339:61|377:79,1,385
456,208,57967,2,0,B|364:167|289:250|289:250|245:346|116:286,1,385
20,164,60493,2,0,B|88:124|88:124|144:152|189:113|189:113|284:48|372:164,1,385
232,240,63019,2,0,P|407:277|491:118,1,385
332,124,65546,2,0,P|164:112|108:308,1,385
220,248,67914,5,0,0:0:0:0:
340,208,68546,2,0,P|312:144|256:76,1,140
256,192,69809,12,0,72019,0:0:0:0:
380,176,72335,6,0,B|354:250|354:250|282:250|282:250|242:296|242:296|190:299|190:299|147:329|147:329|83:351,1,378.000001441956
196,220,74230,2,0,P|244:142|210:20,1,189.000000720978
88,144,75493,2,0,P|52:240|112:328,2,189.000000720978
180,284,77388,1,0,0:0:0:0:
348,284,78019,6,0,B|300:248|300:248|236:220|236:220|184:176,1,189.000000720978
280,36,79283,1,0,0:0:0:0:
420,132,79914,2,0,B|353:163|353:163|352:222|352:222|414:233|434:276|420:346|349:361|306:341|295:279|295:279|212:244|156:336|156:336|60:280|84:144,1,756.000002883911
232,100,83072,6,0,P|335:80|428:36,1,189.000000720978
468,208,84335,1,0,0:0:0:0:
332,308,84967,2,0,B|236:316|236:316|260:228|260:228|142:236|144:104|220:104,2,378.000001441956
368,188,88125,5,0,0:0:0:0:
336,68,88756,2,0,P|272:88|216:168,1,140
252,264,90019,2,0,P|124:272|101:146,1,280
228,140,91914,1,0,0:0:0:0:
340,80,92546,6,0,B|344:112|344:112|392:132|416:208,1,140
400,320,93809,2,0,P|320:304|276:252,1,140
380,184,95072,2,0,B|344:116|264:124|264:124|232:88|232:88|196:80|196:80|144:44,1,280
