osu file format v9

[General]
AudioFilename: kimi o shiru koto.mp3
AudioLeadIn: 1500
PreviewTime: 48351
Countdown: 0
SampleSet: Soft
StackLeniency: 0.7
Mode: 0
LetterboxInBreaks: 1

[Editor]
DistanceSpacing: 1.3
BeatDivisor: 4
GridSize: 8

[Metadata]
Title:Kimi wo Shirukoto (TV Size)
Artist:Kanemoto Hisako
Creator:wcx19911123
Version:Insane
Source:Shinryaku!? Ika Musume
Tags:Nymph JoJo Diomedea

[Difficulty]
HPDrainRate:7
CircleSize:5
OverallDifficulty:7
ApproachRate:8
SliderMultiplier:2.24
SliderTickRate:1

[Events]
//Background and Video events
0,0,"BG.jpg"
//Break Periods
//Storyboard Layer 0 (Background)
//Storyboard Layer 1 (Fail)
//Storyboard Layer 2 (Pass)
//Storyboard Layer 3 (Foreground)
//Storyboard Sound Samples
//Background Colour Transformations
3,100,163,162,255

[TimingPoints]
-883,705.882352941176,4,2,1,45,1,0
1939,-133.333333333333,4,2,1,45,0,0
2469,-100,4,2,1,45,0,0
13233,-100,4,2,1,35,0,0
13586,-100,4,2,1,45,0,0
20292,-100,4,2,1,35,0,0
20645,-100,4,2,1,45,0,0
23116,-100,4,2,1,35,0,0
23469,-100,4,2,1,30,0,0
23822,-100,4,2,1,35,0,0
24175,-100,4,2,1,40,0,0
24527,-100,4,2,1,45,0,0
34763,-100,4,2,1,30,0,0
35116,-100,4,2,1,35,0,0
35469,-100,4,2,1,40,0,0
35822,-100,4,2,1,45,0,0
39704,-133.333333333333,4,2,1,45,0,0
40763,-100,4,2,1,40,0,0
40939,-100,4,2,1,35,0,0
41116,-100,4,2,1,30,0,0
41469,-100,4,2,1,45,0,0
45351,-100,4,2,1,35,0,0
45704,-100,4,2,1,30,0,0
46057,-100,4,2,1,35,0,0
46410,-100,4,2,1,40,0,0
46763,-100,4,2,1,45,0,0
47116,-133.333333333333,4,2,1,45,0,0
47822,-100,4,2,1,30,0,0
48175,-100,4,2,1,25,0,0
48352,-100,4,2,1,20,0,0
48527,705.882352941176,4,2,1,50,1,1
58410,-100,4,2,1,30,0,1
58586,-100,4,2,1,50,0,1
58763,-100,4,2,1,35,0,1
58939,-100,4,2,1,50,0,1
59116,-100,4,2,1,45,0,1
59292,-100,4,2,1,50,0,1
59469,-100,4,2,1,35,0,1
59645,-100,4,2,1,50,0,1
69704,-100,4,2,1,30,0,1
70410,-100,4,2,1,35,0,1
70939,-100,4,2,1,35,0,0
71116,-100,4,2,1,50,0,1
76057,-100,4,2,1,30,0,1
76763,-100,4,2,1,50,0,1
78175,-100,4,2,1,45,0,1
78351,-100,4,2,1,50,0,1
78527,-100,4,2,1,40,0,1
78704,-100,4,2,1,50,0,1
79057,-100,4,2,1,35,0,1
79233,-100,4,2,1,40,0,1
79586,-100,4,2,1,50,0,0
80645,-100,4,2,1,45,0,0
83645,-100,4,2,1,40,0,0
83822,-100,4,2,1,45,0,0
84175,-100,4,2,1,40,0,0
84527,-100,4,2,1,35,0,0
84880,-100,4,2,1,45,0,0
86645,-100,4,2,1,35,0,0
87351,-100,4,2,1,25,0,0
88057,-100,4,2,1,15,0,0
88763,-100,4,2,1,5,0,0

[Colours]
Combo1 : 21,45,255
Combo2 : 147,239,255
Combo3 : 2,148,255
Sliderborder : 255,255,255

[HitObjects]
408,56,528,1,2
384,212,881,1,0
292,312,1234,1,0
188,352,1587,1,0
96,360,1940,6,0,B|8:360,1,83.999997496605,4|0
0,288,2469,1,0
16,216,2646,2,0,B|40:160|96:144,1,112,8|0
124,212,3175,2,0,B|148:268|212:276,1,112
236,208,3705,2,0,B|268:152|332:152,1,112,0|8
400,352,4411,1,0
452,300,4587,1,0
480,232,4764,6,0,B|496:176|488:120,1,112,2|0
456,56,5293,2,0,B|424:8,2,56,0|8|0
400,104,5822,2,0,B|352:136|288:128,1,112
136,72,6528,1,0
16,192,6881,1,8
88,344,7234,1,0
144,296,7411,1,0
216,280,7587,6,0,B|272:272|320:312,1,112,2|0
376,360,8116,1,0
388,288,8293,2,0,B|400:232|464:208,1,112,8|0
496,144,8822,1,0
480,72,8999,2,0,B|464:16,1,56
400,52,9352,2,0,B|344:68|288:28,1,112,0|8
120,160,10058,1,0
216,352,10411,5,2
408,304,10764,1,0
408,304,10940,2,0,B|432:360,2,56,0|8|0
380,236,11469,2,0,B|360:176|392:128,1,112
496,32,12175,1,0
296,48,12528,2,0,B|240:80|232:144,1,112,8|0
248,352,13234,5,4
480,272,13587,1,0
408,260,13764,1,0
352,212,13940,2,0,B|304:168|304:104,1,112,8|0
248,192,14469,2,0,B|208:240|144:232,1,112
16,216,14999,2,0,B|40:272|104:288,1,112,0|8
296,360,15705,1,0
312,288,15881,1,0
360,232,16058,6,0,B|408:192|472:200,1,112,2|0
480,128,16587,2,0,B|496:64,2,56,0|8|0
408,108,17116,2,0,B|352:92|296:108,1,112
112,192,17822,1,0
256,336,18175,1,8
400,192,18528,1,0
400,192,18705,1,0
400,192,18881,1,2
256,48,19234,5,0
228,75,19411,1,0
219,113,19587,1,8
230,150,19764,2,0,B|248:208|312:216,1,112
384,228,20293,2,0,B|448:240|464:304,1,112,4|0
432,364,20822,1,0
372,324,20999,2,0,B|320:296|264:312,1,112,8|2
88,352,21705,5,0
48,176,22058,1,0
48,176,22234,2,0,B|32:112,2,56,0|8|0
64,248,22764,2,0,B|128:240|152:184,1,112,2|4
184,56,23469,1,8
336,24,23822,1,8
468,144,24175,1,8
408,336,24528,6,0,B|352:360|296:344,1,112,4|0
200,144,25234,2,0,B|256:120|312:136,1,112,8|0
160,344,25940,2,0,B|112:304|104:240,1,112,0|2
96,176,26469,1,0
120,108,26646,2,0,B|144:52|200:32,1,112,8|0
368,24,27352,5,2
480,152,27705,1,0
432,312,28058,1,8
360,160,28411,1,0
360,160,28587,2,0,B|312:120|248:128,1,112
248,200,29116,2,0,B|240:256|192:296,1,112,0|8
24,352,29822,1,0
80,304,29999,1,0
152,288,30175,6,0,B|208:280|264:312,1,112,2|0
440,360,30881,2,0,B|472:312|464:248,1,112,8|0
440,184,31411,1,0
392,240,31587,2,0,B|344:272|280:256,1,112
224,216,32116,2,0,B|176:184,2,56,0|8|0
280,168,32646,2,0,B|328:136|392:152,1,112,0|2
472,32,33352,5,0
472,32,33528,2,0,B|512:72,2,56,0|8|0
416,80,34058,2,0,B|360:104|296:80,1,112
184,24,34764,1,8
48,104,35116,1,8
16,280,35469,1,8
200,360,35822,6,0,B|264:360|304:312,1,112,4|0
224,104,36528,2,0,B|160:104|120:152,1,112,8|0
368,224,37234,2,0,B|384:168|344:104,2,112,0|0|8
240,360,38293,1,0
168,344,38469,1,0
120,288,38646,6,0,B|88:240|96:176,1,112,2|0
168,24,39352,1,8
400,64,39705,2,0,B|392:152|304:200,1,167.99999499321
64,184,40764,1,8
92,252,40940,1,8
152,296,41116,2,0,B|200:328|264:328,1,112,8|4
480,200,41822,5,0
416,236,41999,1,0
344,248,42175,2,0,B|288:248|232:216,1,112,8|0
214,149,42705,2,0,B|242:100|297:68,1,112
364,85,43234,2,0,B|392:133|392:197,1,112,0|8
352,360,43940,1,0
336,288,44116,1,0
288,232,44293,6,0,B|240:192|176:200,1,112,2|0
112,216,44822,2,0,B|56:232,2,56,0|8|0
160,272,45352,2,0,B|208:312|272:304,1,112,4|8
432,240,46058,1,8
328,64,46411,1,8
120,152,46764,1,8
256,360,47116,6,0,B|256:320,3,41.9999987483025,2|0|0|0
256,295,47822,1,8
256,272,47999,1,8
256,249,48175,1,8
256,226,48352,1,8
256,203,48527,6,0,B|256:136|312:112,1,112,4|0
383,104,49056,1,0
408,172,49232,2,0,B|408:239|352:263,1,112,8|0
136,208,49938,1,0
40,344,50291,1,0
112,328,50468,1,0
172,284,50644,2,0,B|216:248|216:176,1,112,8|0
160,32,51350,5,2
16,116,51703,1,0
104,256,52056,1,8
160,304,52232,1,0
232,320,52409,2,0,B|288:328|344:304,1,112
456,112,53115,1,0
384,128,53291,1,0
336,184,53468,2,0,B|304:232|304:296,1,112,8|0
480,352,54174,5,4
432,184,54526,1,0
432,184,54703,1,0
384,128,54879,1,8
316,100,55056,2,0,B|256:80|200:96,1,112
136,120,55585,5,0
40,264,55938,1,0
40,264,56115,1,0
88,320,56291,1,8
160,336,56468,2,0,B|216:344|272:320,1,112
336,288,56997,5,2
200,176,57350,1,0
216,104,57526,1,0
288,96,57703,1,8
320,160,57879,1,0
264,208,58056,1,0
368,352,58409,6,0,B|424:352,1,56,8|0
336,288,58762,2,0,B|384:256,1,56,8|0
280,240,59115,2,0,B|312:184,1,56,8|0
208,216,59468,2,0,B|216:144,1,56,8|0
136,216,59821,6,0,B|80:224|48:280,1,112,4|0
40,352,60350,1,0
112,360,60526,2,0,B|168:352|200:296,1,112,8|0
184,120,61232,1,0
312,56,61585,1,0
384,40,61762,1,0
456,56,61938,2,0,B|504:88|504:160,1,112,8|0
456,344,62644,5,2
440,272,62821,1,0
392,216,62997,2,0,B|352:176|288:184,1,112,0|8
192,352,63703,1,0
120,360,63879,1,0
56,324,64056,2,0,B|16:280|16:208,1,112
40,152,64585,1,0
104,188,64762,2,0,B|144:232|144:304,1,112,8|0
320,360,65468,5,4
320,360,65644,1,0
392,344,65821,1,0
448,296,65997,2,0,B|472:240,1,56,0|8
496,136,66350,2,0,B|464:184|400:184,1,112
372,116,66879,6,0,B|340:68|276:60,1,112
208,80,67409,2,0,B|152:104,2,56,0|8|0
264,128,67938,1,0
280,200,68115,1,0
264,272,68291,6,0,B|240:328|184:344,1,112,2|0
40,216,68997,1,8
168,32,69350,1,0
408,32,69703,5,8
434,41,69879,1,8
457,56,70056,1,8
476,75,70232,1,8
489,99,70409,1,8
497,125,70585,1,8
497,153,70762,1,8
490,180,70938,1,8
474,203,71115,6,0,B|432:256|368:240,1,112,4|0
312,204,71644,2,0,B|264:172,2,56,0|8|0
256,272,72174,2,0,B|312:264|352:320,2,112,4|0|0
84,352,73232,1,8
24,172,73585,1,0
200,32,73938,6,0,B|264:16|312:56,1,112,4|0
348,112,74468,2,0,B|372:168,2,56,0|8|0
288,168,74997,2,0,B|256:216|264:280,1,112,4|0
284,348,75527,1,0
284,348,75703,1,0
480,264,76056,5,8
487,231,76232,1,8
487,197,76409,1,8
478,164,76585,1,8
463,133,76762,2,0,B|432:88|368:72,1,112,4|0
184,64,77468,1,8
336,160,77821,1,0
336,160,77997,1,0
372,224,78174,5,8
376,296,78350,2,0,B|408:312,2,28,0|0|8
320,344,78703,1,0
248,360,78879,1,0
176,344,79056,1,8
128,288,79232,2,0,B|96:232|120:176,1,112,8|4
256,32,80644,5,0
400,56,80997,2,0,B|456:80|472:144,1,112
476,212,81527,2,0,B|476:268,2,56,0|8|0
412,176,82056,2,0,B|364:144|300:160,1,112,0|4
160,224,82762,1,0
264,344,83115,1,8
408,272,83468,2,0,B|352:248,1,56,0|8
292,216,83821,6,0,B|244:176|244:120,1,112,0|8
384,32,84527,2,0,B|400:88,1,56,8|8
420,160,84879,1,4
256,192,85056,12,0,89468
