osu file format v14

[General]
AudioFilename: GAMERS!!.mp3
AudioLeadIn: 0
PreviewTime: 55691
Countdown: 0
SampleSet: Soft
StackLeniency: 0.7
Mode: 0
LetterboxInBreaks: 0
WidescreenStoryboard: 0

[Editor]
Bookmarks: 6400,6884,7529,35283,45594,50594,55755,58013,59142,68336,69465
DistanceSpacing: 1.1
BeatDivisor: 4
GridSize: 4
TimelineZoom: 2.5

[Metadata]
Title:GAMERS!
TitleUnicode:GAMERS!
Artist:Kanemoto Hisako & Iwami Manaka & Ookubo Rumi
ArtistUnicode:Kanemoto Hisako & Iwami Manaka & Ookubo Rumi
Creator:YukiZura-
Version:Level 1
Source:ゲーマーズ!
Tags:まふまふ 天道花憐 星ノ守千秋 亜玖璃 Tendou Karen Aguri Chiaki Hoshinomori Gamers TVsize Opening anime summer2017
BeatmapID:1402223
BeatmapSetID:661175

[Difficulty]
HPDrainRate:2
CircleSize:3
OverallDifficulty:2
ApproachRate:3
SliderMultiplier:1
SliderTickRate:1

[Events]
//Background and Video events
0,0,"867598.jpg",0,0
//Break Periods
2,45483,49166
//Storyboard Layer 0 (Background)
//Storyboard Layer 1 (Fail)
//Storyboard Layer 2 (Pass)
//Storyboard Layer 3 (Foreground)
//Storyboard Sound Samples

[TimingPoints]
445,322.58064516129,4,2,3,40,1,0
8025,-100,4,2,3,50,0,0
8993,-100,4,2,3,40,0,0
9315,-100,4,2,3,20,0,0
13186,-100,4,2,3,40,0,0
13509,-100,4,2,3,40,0,0
13832,-100,4,2,3,40,0,0
14477,-100,4,2,3,50,0,0
22864,-100,4,2,3,40,0,0
23186,-100,4,2,3,30,0,0
23509,-100,4,2,3,20,0,0
24961,-100,4,2,4,30,0,0
35283,-100,4,2,3,40,0,0
44961,-100,4,2,3,50,0,0
45606,-100,4,2,3,50,0,0
50606,-100,4,2,3,35,0,0
51896,-100,4,2,3,40,0,0
53186,-100,4,2,3,45,0,0
55767,-100,4,2,3,50,0,1
65122,-100,4,2,3,40,0,1
65606,-100,4,2,3,50,0,1
77703,-100,4,2,3,50,0,0
86090,-100,4,2,3,50,0,0

[Colours]
Combo1 : 128,0,64
Combo2 : 255,0,128
Combo3 : 255,0,255

[HitObjects]
80,224,445,6,0,P|84:176|144:116,1,100
168,204,1090,2,0,B|224:232|252:284|252:284|344:252,2,200
112,134,2703,1,0,0:0:0:0:
184,80,3025,2,0,P|238:76|289:57,1,100
368,44,3670,2,0,L|372:192,1,100,8|0,0:0|0:0,0:0:0:0:
364,188,4154,6,4,P|272:232|248:268,1,100
348,280,4799,2,0,P|305:313|252:328,1,100
172,320,5444,2,0,P|136:228|80:152,1,150
32,136,6251,2,0,P|76:100|140:104,1,100,8|0,0:0|0:0,0:0:0:0:
200,140,6896,2,0,P|256:136|298:102,1,100,8|0,0:0|0:0,0:0:0:0:
372,64,7541,2,0,L|392:204,1,100,8|0,0:0|0:0,0:0:0:0:
408,252,8186,2,0,P|448:288|476:352,2,100
296,224,9315,5,4,0:0:0:0:
104,208,13186,6,0,P|84:144|92:92,2,100
228,312,14477,6,0,P|268:224|248:136,1,150
252,84,15283,2,0,P|216:100|168:184,2,100
344,84,16251,1,8,0:0:0:0:
400,156,16574,1,8,0:0:0:0:
392,292,17057,6,0,P|300:296|216:332,1,150
156,324,17863,2,0,P|96:288|64:228,2,100
245,314,18831,1,8,0:0:0:0:
312,256,19154,1,8,0:0:0:0:
336,124,19638,6,0,P|252:104|168:52,1,150
112,48,20444,2,0,P|84:100|24:144,2,100
200,56,21412,1,8,0:0:0:0:
288,68,21735,2,0,P|356:92|388:116,1,100
408,192,22380,1,0,0:0:0:0:
424,328,22864,6,0,P|492:304|520:264,2,100
200,304,24961,6,0,P|120:308|24:356,2,150
280,344,26251,2,0,P|348:288|368:256,1,100
400,200,26896,1,2,0:0:0:0:
384,112,27219,1,2,0:0:0:0:
312,60,27541,6,0,P|240:32|124:24,2,150
304,148,28831,2,0,P|308:192|296:248,1,100
224,192,29477,2,0,P|180:188|124:200,1,100
128,288,30122,6,0,P|88:280|36:156,2,150
216,284,31412,2,0,P|284:284|340:312,1,100
396,332,32057,1,2,0:0:0:0:
456,264,32380,1,2,0:0:0:0:
480,176,32703,6,0,P|452:80|424:40,1,150
324,84,33509,2,0,L|260:80,1,50
172,36,33993,1,0,0:0:0:0:
72,80,34315,2,0,L|100:200,1,100
160,268,34961,1,0,0:0:0:0:
160,268,35283,6,0,P|108:324|32:348,2,150
240,208,36573,2,0,P|288:144|328:120,1,100
388,100,37218,1,8,0:0:0:0:
452,164,37541,1,8,0:0:0:0:
408,244,37864,6,0,P|448:276|504:368,2,150
328,284,39154,2,0,P|264:256|228:196,1,100
324,196,39799,2,0,P|357:159|373:112,1,100
284,92,40444,6,0,P|336:28|412:32,2,150
256,176,41734,2,0,P|232:216|168:256,1,100
100,232,42379,1,8,0:0:0:0:
60,152,42702,1,8,0:0:0:0:
96,68,43025,6,0,L|208:28,1,100
216,120,43670,2,0,L|320:80,1,100
400,76,44315,2,4,P|408:140|388:220,1,100
312,176,44961,2,0,P|307:225|315:274,1,100
128,160,50606,6,0,P|160:92|224:48,2,150
188,228,51896,2,0,P|156:296|92:340,2,150
252,164,53186,6,0,P|284:96|348:52,1,150
432,32,53993,2,0,L|408:192,1,150
408,272,54799,1,8,0:0:0:0:
320,292,55122,2,8,L|256:240,1,50
336,136,55767,6,4,P|232:64|180:60,1,150
132,108,56574,2,0,P|116:172|104:264,1,150
192,280,57380,2,0,P|144:336|108:348,2,100
256,216,58348,1,8,0:0:0:0:
319,279,58670,2,0,P|347:321|390:345,2,100
384,216,59638,2,0,L|404:56,1,150
316,96,60444,1,8,0:0:0:0:
184,64,60928,6,0,P|140:124|116:224,1,150
200,236,61735,2,0,P|180:272|112:312,2,100
243,160,62703,2,0,P|287:108|343:92,1,100
392,140,63348,2,0,L|376:292,1,150
308,348,64154,1,8,0:0:0:0:
220,332,64477,1,8,0:0:0:0:
184,248,64799,2,0,P|128:180|156:272,1,250
276,248,66090,6,4,P|260:164|176:96,1,150
132,92,66896,2,0,L|296:52,1,150
368,56,67703,2,0,P|424:40|488:4,2,100
320,132,68671,1,0,0:0:0:0:
264,204,68993,2,0,P|215:217|170:238,2,100
352,220,69961,2,0,P|400:256|440:340,1,150
348,336,70767,1,8,0:0:0:0:
216,316,71251,6,0,P|176:292|128:188,1,150
188,136,72058,2,0,P|172:52|148:20,2,100
228,216,73025,2,0,P|276:145|281:105,1,100
324,56,73670,1,0,0:0:0:0:
404,100,73993,2,0,L|416:260,1,150
432,336,74799,2,0,P|360:320|336:288,1,100
328,216,75444,2,0,P|289:185|240:182,1,100
260,272,76090,1,0,0:0:0:0:
140,336,76574,6,8,L|132:280,1,50
104,100,77703,6,0,P|192:140|280:120,1,150
332,124,78509,2,0,P|316:88|232:40,2,100
332,216,79477,1,8,0:0:0:0:
260,272,79800,1,8,0:0:0:0:
136,336,80283,6,0,P|132:244|96:160,1,150
104,100,81089,2,0,P|140:40|200:8,2,100
113,189,82057,1,8,0:0:0:0:
172,256,82380,1,8,0:0:0:0:
296,308,82864,6,4,P|316:224|368:140,1,150
372,84,83670,2,0,P|320:56|276:-4,2,100
452,128,84638,1,8,0:0:0:0:
432,216,84961,1,8,0:0:0:0:
356,268,85283,2,0,L|252:208,1,100
156,144,86090,6,0,P|128:96|60:52,2,100
112,224,87057,2,0,B|152:280|152:280|248:292,1,150
260,156,88025,6,0,B|336:156|376:212|376:212|388:76|488:28,1,350
