osu file format v14

[General]
AudioFilename: gamersop.mp3
AudioLeadIn: 0
PreviewTime: 55691
Countdown: 0
SampleSet: Soft
StackLeniency: 0.7
Mode: 0
LetterboxInBreaks: 0
WidescreenStoryboard: 0

[Editor]
DistanceSpacing: 1.3
BeatDivisor: 4
GridSize: 4
TimelineZoom: 3.399999

[Metadata]
Title:GAMERS!
TitleUnicode:GAMERS!
Artist:Kanemoto Hisako & Iwami Manaka & Ookubo Rumi
ArtistUnicode:金元寿子&石見舞菜香&大久保瑠美
Creator:Underforest
Version:Press RESET!
Source:ゲーマーズ!
Tags:雨野景太と青春コンティニュー Amano Keita to Seishun Continue Geemaazu Pine Jam TV Size Opening Mafumafu まふまふ 天道花憐 星ノ守千秋 亜玖璃 Tendou Karen Hoshinomori Chiaki Aguri Shortthu Rizen [_Rizen_] a_q_p_w Irohas MugiwaraSekai Pata-Mon Akitoshi Corinn LowComboFC SnowNiNo_ Kibbleru
BeatmapID:1361904
BeatmapSetID:642407

[Difficulty]
HPDrainRate:6.5
CircleSize:4.3
OverallDifficulty:9
ApproachRate:9.5
SliderMultiplier:1.8
SliderTickRate:1

[Events]
//Background and Video events
0,0,"bg.jpg",0,0
Video,0,"video.avi"
//Break Periods
2,9842,12666
//Storyboard Layer 0 (Background)
//Storyboard Layer 1 (Fail)
//Storyboard Layer 2 (Pass)
//Storyboard Layer 3 (Foreground)
//Storyboard Sound Samples

[TimingPoints]
450,322.58064516129,4,2,1,70,1,0
5449,-100,4,2,1,50,0,0
6901,-100,4,2,1,60,0,0
8191,-100,4,2,1,70,0,0
9320,-200,4,2,1,40,0,0
13191,-100,4,2,1,50,0,0
13837,-100,4,2,1,60,0,0
14482,-100,4,2,1,70,0,0
23514,-133.333333333333,4,2,1,50,0,0
23837,-133.333333333333,4,2,1,5,0,0
23998,-133.333333333333,4,2,1,50,0,0
24966,-111.111111111111,4,2,1,60,0,0
35288,-100,4,2,1,70,0,0
45530,-100,4,2,1,5,0,0
45611,-133.333333333333,4,2,1,50,0,0
50611,-100,4,2,1,70,0,0
55288,-133.333333333333,4,2,1,50,0,0
55772,-100,4,2,1,80,0,1
65933,-100,4,2,1,70,0,0
66095,-100,4,2,1,80,0,1
76579,-100,4,2,1,70,0,0
77224,-100,4,2,1,60,0,0
77708,-100,4,2,1,70,0,0
87062,-100,4,2,1,60,0,0
88030,-100,4,2,1,70,0,0
89159,-100,4,2,1,5,0,0

[Colours]
Combo1 : 255,15,21
Combo2 : 240,79,171
Combo3 : 21,148,251
Combo4 : 169,16,207
Combo5 : 208,238,43
Combo6 : 242,199,47
SliderTrackOverride : 30,30,30
SliderBorder : 255,255,250

[HitObjects]
258,343,450,5,8,0:0:0:0:
229,148,611,1,8,0:0:0:0:
413,302,1095,5,8,0:0:0:0:
134,243,1256,1,8,0:0:0:0:
380,168,1740,5,8,0:0:0:0:
144,365,1901,1,8,0:0:0:0:
215,63,2385,5,8,0:0:0:0:
361,363,2546,1,8,0:0:0:0:
455,110,3030,5,8,0:0:0:0:
109,228,3191,1,8,0:0:0:0:
420,251,3675,5,8,0:0:0:0:
50,180,3837,1,8,0:0:0:0:
50,180,4159,6,0,P|84:205|228:162,1,180,4|0,0:0|3:0,0:0:0:0:
328,39,4643,1,2,3:2:0:0:
324,72,4724,1,0,3:2:0:0:
321,106,4804,1,2,3:2:0:0:
318,139,4885,1,0,3:2:0:0:
314,174,4966,1,0,0:0:0:0:
378,271,5127,1,0,0:0:0:0:
429,165,5288,1,0,0:0:0:0:
239,259,5449,6,0,B|155:242|157:306|35:259,1,180,4|0,0:0|0:0,0:0:0:0:
112,160,5933,2,0,P|118:103|121:60,1,90,2|0,3:2|0:0,0:0:0:0:
286,37,6256,2,0,P|289:81|294:126,1,90,2|0,3:2|0:0,0:0:0:0:
403,318,6579,1,2,3:2:0:0:
469,168,6740,1,0,0:0:0:0:
277,245,6901,5,2,3:2:0:0:
234,259,6982,1,0,3:2:0:0:
189,261,7062,1,0,3:2:0:0:
145,251,7143,1,0,3:2:0:0:
106,229,7224,1,2,3:2:0:0:
74,197,7304,1,0,3:2:0:0:
53,158,7385,1,0,3:2:0:0:
42,115,7466,1,0,3:2:0:0:
55,72,7546,5,2,3:2:0:0:
99,66,7627,1,0,3:2:0:0:
141,80,7708,1,0,3:2:0:0:
177,105,7788,1,0,3:2:0:0:
219,121,7869,1,2,3:2:0:0:
263,117,7949,1,0,3:2:0:0:
306,103,8030,1,0,3:2:0:0:
345,81,8111,1,0,3:2:0:0:
384,59,8191,6,0,L|392:117,1,45,2|0,3:2|3:0,0:0:0:0:
354,276,8353,2,0,L|384:204,1,45,0|0,3:2|3:0,0:0:0:0:
502,130,8514,2,0,L|440:147,1,45,2|0,3:2|3:0,0:0:0:0:
292,149,8675,2,0,L|358:168,1,45,0|0,3:0|3:0,0:0:0:0:
475,259,8837,2,0,L|430:194,1,45,2|0,3:2|3:0,0:0:0:0:
384,59,8998,1,2,0:0:0:0:
258,289,9159,1,0,3:2:0:0:
258,289,9240,1,0,3:2:0:0:
258,289,9320,6,0,P|208:296|156:302,1,90,6|0,0:0|0:0,0:0:0:0:
43,31,13191,21,8,0:0:0:0:
498,137,13514,69,8,0:0:0:0:
140,268,13837,37,8,3:2:0:0:
158,278,13917,5,0,3:2:0:0:
177,288,13998,5,2,3:2:0:0:
208,292,14079,5,2,3:2:0:0:
247,285,14159,5,2,3:2:0:0:
286,254,14240,5,2,3:2:0:0:
307,199,14320,5,2,3:2:0:0:
287,133,14401,5,2,3:2:0:0:
210,96,14482,6,0,P|149:60|46:142,1,180,6|0,0:0|0:0,0:0:0:0:
143,233,14966,1,10,0:0:0:0:
284,35,15127,1,0,0:0:0:0:
342,231,15288,1,2,0:0:0:0:
138,153,15449,1,0,0:0:0:0:
377,86,15611,1,10,0:0:0:0:
218,281,15772,1,0,0:0:0:0:
152,36,15933,5,2,0:0:0:0:
397,186,16095,1,0,0:0:0:0:
138,242,16256,1,10,0:0:0:0:
272,98,16417,1,0,0:0:0:0:
278,359,16579,1,2,0:0:0:0:
188,151,16740,1,2,0:0:0:0:
278,359,16901,1,8,0:0:0:0:
188,151,17062,6,0,L|63:166,1,90,2|0,0:0|0:0,0:0:0:0:
238,36,17385,1,0,0:0:0:0:
267,236,17546,1,10,0:0:0:0:
375,51,17708,1,0,0:0:0:0:
127,75,17869,1,2,0:0:0:0:
389,171,18030,1,0,0:0:0:0:
159,232,18191,1,10,0:0:0:0:
307,45,18353,1,0,0:0:0:0:
391,263,18514,5,2,0:0:0:0:
229,96,18675,1,0,0:0:0:0:
230,301,18837,1,10,0:0:0:0:
336,128,18998,1,0,0:0:0:0:
462,314,19159,1,2,3:2:0:0:
462,314,19240,1,0,3:2:0:0:
462,314,19320,2,0,L|526:300,1,45,2|0,3:2|3:2,3:3:0:0:
368,228,19482,2,0,L|322:238,1,45,8|0,3:2|3:2,3:3:0:0:
182,255,19643,6,0,B|190:207|190:207|167:138|167:138|184:83,1,180,4|0,0:0|0:0,0:0:0:0:
269,288,20127,1,10,0:0:0:0:
77,219,20288,1,0,0:0:0:0:
240,133,20449,1,2,0:0:0:0:
70,231,20611,1,0,0:0:0:0:
342,175,20772,1,10,0:0:0:0:
75,57,20933,1,0,0:0:0:0:
182,255,21095,5,2,0:0:0:0:
237,35,21256,1,0,0:0:0:0:
342,175,21417,1,10,0:0:0:0:
130,139,21579,1,0,0:0:0:0:
389,85,21740,1,2,0:0:0:0:
121,37,21901,1,2,0:0:0:0:
307,260,22062,1,8,0:0:0:0:
329,261,22143,1,8,0:0:0:0:
351,263,22224,1,8,0:0:0:0:
374,265,22304,1,8,0:0:0:0:
397,265,22385,6,0,P|434:244|468:188,1,90,6|0,0:0|0:0,0:0:0:0:
295,79,22708,1,8,0:0:0:0:
228,257,22869,2,0,L|210:369,1,90,2|0,0:0|0:0,0:0:0:0:
384,179,23191,2,0,L|369:90,1,90,2|0,0:0|0:0,0:0:0:0:
348,329,23514,6,0,P|419:333|482:292,1,135.000005149842,10|0,0:0|0:0,0:0:0:0:
386,206,23998,1,0,0:0:0:0:
390,218,24159,1,0,0:0:0:0:
393,231,24320,1,0,0:0:0:0:
409,122,24804,5,2,0:0:0:0:
409,122,24885,1,2,0:0:0:0:
409,122,24966,2,0,L|325:142,1,80.9999975280763,4|0,0:0|0:0,0:0:0:0:
301,243,25288,1,2,0:0:0:0:
276,343,25449,2,0,P|235:346|197:334,1,80.9999975280763,2|0,0:0|0:0,0:0:0:0:
51,261,25772,2,0,P|89:249|130:252,1,80.9999975280763,2|0,0:0|0:0,0:0:0:0:
103,355,26095,1,2,0:0:0:0:
90,160,26256,6,0,B|125:132|125:132|251:114,1,161.999995056153,2|0,0:0|0:0,0:0:0:0:
328,174,26740,2,0,B|293:202|293:202|167:220,1,161.999995056153,2|0,0:0|0:0,0:0:0:0:
114,304,27224,2,0,L|201:319,1,80.9999975280763,0|0,0:0|0:0,0:0:0:0:
323,324,27546,6,0,P|384:347|417:334,1,80.9999975280763,2|0,0:0|0:0,0:0:0:0:
497,312,27869,1,2,0:0:0:0:
497,206,28030,2,0,P|421:183|390:191,1,80.9999975280763,2|0,0:0|0:0,0:0:0:0:
253,227,28353,2,0,P|291:241|332:240,1,80.9999975280763,2|0,0:0|0:0,0:0:0:0:
313,136,28675,1,2,0:0:0:0:
207,134,28837,6,0,L|127:120,1,80.9999975280763,2|0,0:0|0:0,0:0:0:0:
185,32,29159,1,2,0:0:0:0:
289,36,29320,2,0,L|387:22,1,80.9999975280763,2|0,0:0|0:0,0:0:0:0:
380,129,29643,1,2,0:0:0:0:
439,224,29804,1,2,0:0:0:0:
485,119,29966,1,2,0:0:0:0:
380,129,30127,6,0,P|352:158|334:223,1,80.9999975280763,2|0,0:0|0:0,0:0:0:0:
380,290,30449,1,2,0:0:0:0:
284,333,30611,2,0,P|244:335|198:341,1,80.9999975280763,2|0,0:0|0:0,0:0:0:0:
34,273,30933,2,0,P|74:275|115:281,1,80.9999975280763,2|0,0:0|0:0,0:0:0:0:
64,372,31256,1,2,0:0:0:0:
84,193,31417,6,0,P|93:145|203:76,1,161.999995056153,2|2,0:0|0:0,0:0:0:0:
283,85,31901,2,0,L|450:99,1,161.999995056153,2|0,0:0|0:0,0:0:0:0:
470,200,32385,1,0,0:0:0:0:
386,262,32546,1,0,0:0:0:0:
304,329,32708,6,0,L|204:337,1,80.9999975280763,2|0,0:0|0:0,0:0:0:0:
119,322,33030,1,0,0:0:0:0:
62,233,33191,2,0,P|58:178|56:138,1,80.9999975280763,2|0,0:0|0:0,0:0:0:0:
163,42,33514,2,0,P|161:82|158:123,1,80.9999975280763,2|0,0:0|0:0,0:0:0:0:
206,216,33837,1,2,0:0:0:0:
289,150,33998,5,2,0:0:0:0:
395,72,34159,1,2,0:0:0:0:
354,197,34320,1,2,0:0:0:0:
314,72,34481,1,2,0:0:0:0:
420,150,34643,2,0,P|433:176|416:247,1,80.9999975280763,2|0,0:0|0:0,0:0:0:0:
295,214,34966,1,0,0:0:0:0:
295,214,35046,1,0,0:0:0:0:
295,214,35127,2,0,L|289:161,1,40.4999987640381,0|0,3:0|3:0,0:0:0:0:
280,102,35288,5,6,0:0:0:0:
205,271,35449,1,0,0:0:0:0:
396,252,35611,1,10,0:0:0:0:
200,176,35772,2,0,P|140:164|83:179,1,90,2|0,0:0|0:0,0:0:0:0:
148,340,36095,1,2,0:0:0:0:
148,340,36175,1,0,0:0:0:0:
148,340,36256,2,0,P|208:352|264:337,1,90,8|2,0:0|0:0,0:0:0:0:
389,285,36579,6,0,L|483:273,1,90,2|0,0:0|0:0,0:0:0:0:
281,177,36901,2,0,L|190:188,1,90,10|2,0:0|0:0,0:0:0:0:
40,190,37224,1,0,0:0:0:0:
172,70,37385,1,0,0:0:0:0:
172,70,37466,1,0,0:0:0:0:
172,70,37546,1,8,0:0:0:0:
207,263,37708,1,0,0:0:0:0:
324,105,37869,6,0,P|377:99|425:115,1,90,2|0,0:0|0:0,0:0:0:0:
476,249,38191,1,10,0:0:0:0:
344,362,38353,2,0,L|333:271,1,90,2|0,0:0|0:0,0:0:0:0:
171,219,38675,1,2,0:0:0:0:
171,219,38756,1,0,0:0:0:0:
171,219,38837,2,0,L|159:310,1,90,8|0,0:0|0:0,0:0:0:0:
271,180,39159,5,2,0:0:0:0:
67,213,39320,1,0,0:0:0:0:
196,65,39482,1,10,0:0:0:0:
247,261,39643,2,0,P|283:265|345:230,1,90,2|0,0:0|0:0,0:0:0:0:
499,216,39966,1,2,0:0:0:0:
499,216,40046,1,0,0:0:0:0:
499,216,40127,1,10,0:0:0:0:
361,83,40288,1,0,3:0:0:0:
361,83,40369,1,0,3:0:0:0:
361,83,40449,5,6,0:0:0:0:
310,281,40611,1,0,0:0:0:0:
461,146,40772,1,10,0:0:0:0:
260,160,40933,2,0,B|215:150|215:150|155:159,1,90,2|0,0:0|0:0,0:0:0:0:
188,347,41256,1,2,0:0:0:0:
188,347,41337,1,0,0:0:0:0:
188,347,41417,2,0,B|234:356|234:356|293:348,1,90,8|2,0:0|0:0,0:0:0:0:
463,337,41740,6,0,L|484:236,1,90,2|0,0:0|0:0,0:0:0:0:
350,366,42062,1,10,0:0:0:0:
208,262,42224,2,0,L|227:351,1,90,2|0,0:0|0:0,0:0:0:0:
345,177,42546,1,0,0:0:0:0:
461,318,42708,6,0,L|391:327,1,45,8|8,3:0|3:0,0:0:0:0:
208,262,42869,2,0,L|253:268,1,45,8|8,3:0|3:0,0:0:0:0:
435,232,43030,5,6,0:0:0:0:
239,145,43191,1,0,0:0:0:0:
435,85,43353,1,2,0:0:0:0:
252,267,43514,1,0,0:0:0:0:
168,90,43675,5,6,0:0:0:0:
421,214,43837,1,2,0:0:0:0:
421,214,43917,1,0,0:0:0:0:
421,214,43998,1,2,0:0:0:0:
198,364,44159,1,2,0:0:0:0:
338,115,44320,5,6,0:0:0:0:
160,286,44482,1,2,0:0:0:0:
160,286,44562,1,0,0:0:0:0:
160,286,44643,1,2,0:0:0:0:
387,334,44804,1,2,0:0:0:0:
134,150,44966,1,2,0:0:0:0:
134,150,45288,6,0,P|119:184|101:123,1,135,4|0,3:0|0:0,0:0:0:0:
134,150,45611,6,0,L|141:77,1,67.5000025749208,6|0,0:0|0:0,0:0:0:0:
218,43,45933,1,0,0:0:0:0:
218,43,46095,1,2,0:0:0:0:
302,65,46256,2,0,L|387:70,1,67.5000025749208,2|0,0:0|0:0,0:0:0:0:
445,113,46579,1,0,0:0:0:0:
445,113,46740,1,2,0:0:0:0:
436,200,46901,5,2,0:0:0:0:
436,200,47062,1,0,0:0:0:0:
354,232,47224,2,0,P|321:225|287:229,1,67.5000025749208,2|0,0:0|0:0,0:0:0:0:
220,285,47546,1,2,0:0:0:0:
220,285,47708,1,0,0:0:0:0:
136,312,47869,2,0,P|133:278|139:245,1,67.5000025749208,2|0,0:0|0:0,0:0:0:0:
130,158,48191,5,2,0:0:0:0:
130,158,48353,1,0,0:0:0:0:
214,134,48514,2,0,P|212:167|211:201,1,67.5000025749208,2|0,0:0|0:0,0:0:0:0:
292,233,48837,1,2,0:0:0:0:
292,233,48998,1,0,0:0:0:0:
367,189,49159,2,0,P|400:183|433:189,1,67.5000025749208,2|0,0:0|0:0,0:0:0:0:
401,271,49482,5,2,0:0:0:0:
401,271,49643,1,0,0:0:0:0:
327,317,49804,2,0,P|282:320|244:315,1,67.5000025749208
124,282,50127,1,2,0:0:0:0:
224,225,50288,1,0,3:0:0:0:
123,373,50449,1,8,3:2:0:0:
13,211,50611,6,0,P|21:128|112:79,1,180,6|0,0:0|0:0,0:0:0:0:
244,181,51095,1,10,0:0:0:0:
184,15,51256,1,2,0:0:0:0:
147,208,51417,1,10,3:2:0:0:
172,244,51498,1,2,3:2:0:0:
209,268,51579,1,2,3:2:0:0:
254,276,51659,1,2,3:2:0:0:
297,265,51740,1,2,3:2:0:0:
469,333,51901,6,0,P|472:252|477:134,1,180,6|2,0:0|0:0,0:0:0:0:
329,198,52385,1,10,0:0:0:0:
235,27,52546,1,2,0:0:0:0:
70,116,52708,1,10,3:2:0:0:
92,154,52788,1,2,3:2:0:0:
128,180,52869,1,2,3:2:0:0:
172,187,52949,1,2,3:2:0:0:
215,174,53030,1,2,3:2:0:0:
260,323,53191,6,0,B|309:352|309:352|452:355,1,180,6|0,0:0|0:0,0:0:0:0:
476,233,53675,1,10,0:0:0:0:
313,147,53837,1,0,0:0:0:0:
512,104,53998,1,10,0:0:0:0:
374,9,54159,1,2,0:0:0:0:
476,233,54320,1,10,0:0:0:0:
225,185,54482,5,6,0:0:0:0:
225,185,54804,2,0,L|234:240,1,45,10|0,0:0|0:0,0:0:0:0:
322,345,54966,2,0,L|329:300,1,45,10|0,0:0|0:0,0:0:0:0:
413,182,55127,2,0,L|420:226,1,45,10|0,0:0|0:0,0:0:0:0:
322,345,55288,2,0,P|256:360|181:332,1,135.000005149842,8|0,3:0|0:0,0:0:0:0:
111,134,55772,6,0,B|171:121|171:121|229:136|229:136|298:120,1,180,6|0,0:0|0:0,0:0:0:0:
308,118,56175,1,0,0:0:0:0:
329,113,56256,1,10,0:0:0:0:
472,208,56417,1,0,0:0:0:0:
419,33,56579,1,2,0:0:0:0:
314,210,56740,1,2,0:0:0:0:
504,115,56901,1,10,0:0:0:0:
352,290,57062,6,0,P|307:287|262:285,1,90,2|0,0:0|0:0,0:0:0:0:
83,232,57385,1,2,0:0:0:0:
169,372,57546,1,10,0:0:0:0:
212,164,57708,2,0,P|257:166|303:169,1,90,2|0,0:0|0:0,0:0:0:0:
176,40,58030,1,2,0:0:0:0:
102,238,58191,1,10,0:0:0:0:
176,40,58353,6,0,P|123:38|66:83,1,90,2|0,0:0|0:0,0:0:0:0:
18,242,58675,1,2,0:0:0:0:
141,141,58837,1,10,0:0:0:0:
153,327,58998,2,0,L|253:341,1,90,2|0,0:0|0:0,0:0:0:0:
452,233,59320,1,2,0:0:0:0:
389,372,59482,1,10,0:0:0:0:
348,180,59643,6,0,P|288:185|234:192,1,90,2|0,0:0|0:0,0:0:0:0:
71,148,59966,1,2,0:0:0:0:
181,283,60127,1,10,0:0:0:0:
190,57,60288,1,2,0:0:0:0:
126,215,60449,1,0,0:0:0:0:
281,308,60611,1,2,3:2:0:0:
323,324,60691,1,0,3:2:0:0:
369,324,60772,1,10,3:2:0:0:
411,308,60853,1,0,3:2:0:0:
445,276,60933,6,0,B|461:167|461:167|435:81,1,180,4|0,0:0|0:0,0:0:0:0:
425,84,61337,1,0,0:0:0:0:
411,67,61417,1,10,0:0:0:0:
200,127,61579,1,0,0:0:0:0:
377,169,61740,1,2,0:0:0:0:
234,34,61901,1,2,0:0:0:0:
377,169,62062,1,10,0:0:0:0:
263,282,62224,6,0,P|208:269|154:256,1,90,2|0,0:0|0:0,0:0:0:0:
56,195,62546,1,2,0:0:0:0:
157,361,62708,1,10,0:0:0:0:
245,199,62869,2,0,L|290:192|334:184,1,90,2|0,0:0|0:0,0:0:0:0:
475,102,63191,1,2,0:0:0:0:
354,40,63353,1,8,0:0:0:0:
428,225,63514,6,0,L|451:333,1,90,2|0,0:0|0:0,0:0:0:0:
324,104,63837,1,2,0:0:0:0:
264,293,63998,1,10,0:0:0:0:
149,111,64159,2,0,P|98:102|36:95,1,90,2|0,0:0|0:0,0:0:0:0:
235,218,64482,2,0,P|286:209|348:202,1,90,2|8,0:0|0:0,0:0:0:0:
145,309,64804,6,0,P|100:301|56:295,1,90,6|0,0:0|0:0,0:0:0:0:
235,218,65127,1,0,3:2:0:0:
255,258,65208,1,0,3:2:0:0:
294,279,65288,1,0,3:2:0:0:
338,286,65369,1,8,3:2:0:0:
381,274,65449,1,0,3:2:0:0:
413,242,65530,1,0,3:2:0:0:
420,197,65611,6,0,L|347:184,1,45,2|2,0:0|0:0,0:0:0:0:
281,58,65772,2,0,L|325:65,1,45,2|2,0:0|0:0,0:0:0:0:
199,154,65933,2,0,L|154:146,1,45,10|2,0:0|0:0,0:0:0:0:
43,58,66095,6,0,P|16:127|46:237,1,180,4|0,0:0|0:0,0:0:0:0:
57,241,66498,1,0,0:0:0:0:
76,252,66579,1,10,0:0:0:0:
261,273,66740,1,0,0:0:0:0:
153,365,66901,1,2,0:0:0:0:
253,175,67062,1,2,0:0:0:0:
377,343,67224,1,10,0:0:0:0:
153,268,67385,6,0,L|55:277,1,90,2|0,0:0|0:0,0:0:0:0:
188,114,67708,1,2,0:0:0:0:
272,300,67869,1,10,0:0:0:0:
111,185,68030,2,0,L|21:193,1,90,2|0,0:0|0:0,0:0:0:0:
108,26,68353,1,2,0:0:0:0:
221,198,68514,1,10,0:0:0:0:
318,33,68675,6,0,B|421:52,1,90,2|0,0:0|0:0,0:0:0:0:
487,196,68998,1,2,0:0:0:0:
498,75,69159,1,10,0:0:0:0:
353,228,69320,2,0,B|243:240,1,90,2|0,0:0|0:0,0:0:0:0:
47,295,69643,1,2,0:0:0:0:
214,353,69804,1,10,0:0:0:0:
111,178,69966,6,0,P|154:168|211:159,1,90,2|0,0:0|0:0,0:0:0:0:
377,150,70288,1,2,0:0:0:0:
202,246,70449,1,10,0:0:0:0:
417,294,70611,1,2,0:0:0:0:
273,62,70772,2,0,L|200:52,1,45,0|0,3:0|3:0,0:0:0:0:
70,39,70933,1,2,3:2:0:0:
67,83,71014,1,0,3:2:0:0:
63,128,71095,1,8,3:2:0:0:
59,172,71175,1,0,3:2:0:0:
57,217,71256,6,0,P|104:236|261:196,1,180,6|0,0:0|0:0,0:0:0:0:
248,206,71659,1,0,0:0:0:0:
268,195,71740,1,10,0:0:0:0:
407,70,71901,1,0,0:0:0:0:
359,258,72062,1,2,0:0:0:0:
303,77,72224,1,2,0:0:0:0:
448,186,72385,1,10,0:0:0:0:
303,77,72546,6,0,L|189:95,1,90,2|0,0:0|0:0,0:0:0:0:
24,120,72869,1,2,0:0:0:0:
128,18,73030,1,10,0:0:0:0:
89,216,73191,2,0,L|77:305,1,90,2|0,0:0|0:0,0:0:0:0:
207,177,73514,1,2,0:0:0:0:
24,120,73675,1,10,0:0:0:0:
168,257,73837,6,0,L|287:246,1,90,2|0,0:0|0:0,0:0:0:0:
450,209,74159,1,2,0:0:0:0:
350,127,74320,1,10,0:0:0:0:
358,283,74482,2,0,P|351:314|360:375,1,90,2|0,0:0|0:0,0:0:0:0:
450,209,74804,2,0,P|457:178|448:117,1,90,2|8,0:0|0:0,0:0:0:0:
279,79,75127,6,0,L|234:82|189:85,1,90,6|0,0:0|0:0,0:0:0:0:
21,241,75449,1,2,0:0:0:0:
237,292,75610,1,8,0:0:0:0:
150,172,75772,1,0,0:0:0:0:
365,204,75933,1,8,0:0:0:0:
230,377,76095,1,2,0:0:0:0:
230,377,76175,1,0,0:0:0:0:
230,377,76256,1,10,0:0:0:0:
475,351,76417,1,2,0:0:0:0:
475,351,76498,1,0,0:0:0:0:
475,351,76579,5,8,3:0:0:0:
321,142,76740,1,8,3:0:0:0:
214,315,77224,5,0,3:2:0:0:
191,316,77304,1,0,3:2:0:0:
169,317,77385,1,0,3:2:0:0:
146,318,77465,1,0,3:2:0:0:
124,319,77546,1,0,3:2:0:0:
101,321,77627,1,0,3:2:0:0:
78,321,77708,6,0,P|51:250|81:153,1,180,6|0,0:0|0:0,0:0:0:0:
246,127,78191,1,10,0:0:0:0:
132,38,78353,1,0,0:0:0:0:
248,241,78514,1,2,0:0:0:0:
341,42,78675,1,0,0:0:0:0:
127,157,78837,1,10,0:0:0:0:
348,268,78998,1,0,0:0:0:0:
245,27,79159,5,2,0:0:0:0:
194,247,79320,1,0,0:0:0:0:
409,170,79482,1,10,0:0:0:0:
208,127,79643,1,0,0:0:0:0:
291,335,79804,1,2,0:0:0:0:
369,121,79966,1,2,0:0:0:0:
291,335,80127,1,8,0:0:0:0:
369,121,80288,6,0,L|493:135,1,90,2|0,0:0|0:0,0:0:0:0:
341,28,80611,1,0,0:0:0:0:
264,214,80772,1,10,0:0:0:0:
186,28,80933,1,0,0:0:0:0:
369,121,81095,1,2,0:0:0:0:
150,166,81256,1,0,0:0:0:0:
391,233,81417,1,10,0:0:0:0:
257,88,81579,1,0,0:0:0:0:
157,273,81740,5,2,0:0:0:0:
369,121,81901,1,0,0:0:0:0:
283,295,82062,1,10,0:0:0:0:
185,130,82224,1,0,0:0:0:0:
50,314,82385,1,2,3:2:0:0:
50,314,82466,1,0,3:2:0:0:
50,314,82546,2,0,L|-14:300,1,45,2|0,3:2|3:2,3:3:0:0:
144,228,82708,2,0,L|190:238,1,45,8|0,3:2|3:2,3:3:0:0:
330,255,82869,6,0,B|322:207|322:207|345:138|345:138|328:83,1,180,4|0,0:0|0:0,0:0:0:0:
243,279,83353,1,10,0:0:0:0:
455,219,83514,1,0,0:0:0:0:
270,133,83675,1,2,0:0:0:0:
462,231,83837,1,0,0:0:0:0:
169,175,83998,1,10,0:0:0:0:
433,59,84159,1,0,0:0:0:0:
330,255,84320,5,6,0:0:0:0:
372,19,84482,1,0,0:0:0:0:
147,98,84643,1,10,0:0:0:0:
147,98,84724,1,0,0:0:0:0:
150,103,84804,1,0,0:0:0:0:
416,141,84966,1,2,0:0:0:0:
416,141,85046,1,0,0:0:0:0:
416,141,85127,1,2,0:0:0:0:
188,294,85288,1,8,0:0:0:0:
165,295,85369,1,0,0:0:0:0:
143,297,85449,1,0,0:0:0:0:
120,299,85530,1,0,0:0:0:0:
97,300,85611,5,6,0:0:0:0:
214,134,85772,1,2,0:0:0:0:
283,367,85933,1,10,0:0:0:0:
377,215,86095,6,0,P|433:223|504:201,1,90,2|0,0:0|0:0,0:0:0:0:
301,135,86417,2,0,P|256:126|211:134,1,90,2|0,0:0|0:0,0:0:0:0:
387,67,86740,2,0,P|450:76|511:61,1,90,2|0,0:0|0:0,0:0:0:0:
377,215,87062,5,2,3:2:0:0:
355,253,87143,1,0,3:2:0:0:
323,283,87224,1,2,3:2:0:0:
283,303,87304,1,0,3:2:0:0:
238,309,87385,1,2,3:2:0:0:
194,300,87466,1,0,3:2:0:0:
157,275,87546,2,0,L|173:212,1,45,2|0,3:2|3:2,3:3:0:0:
33,138,87708,1,2,0:0:0:0:
33,138,87788,1,2,0:0:0:0:
33,138,87868,2,0,L|44:181,1,45,2|0,3:2|3:2,3:3:0:0:
72,369,88030,5,4,0:0:0:0:
256,192,88111,12,0,89159,0:0:0:0:
