osu file format v14

[General]
AudioFilename: gamersop.mp3
AudioLeadIn: 0
PreviewTime: 55691
Countdown: 0
SampleSet: Soft
StackLeniency: 0.7
Mode: 0
LetterboxInBreaks: 0
WidescreenStoryboard: 0

[Editor]
DistanceSpacing: 1.2
BeatDivisor: 4
GridSize: 32
TimelineZoom: 2.1

[Metadata]
Title:GAMERS!
TitleUnicode:GAMERS!
Artist:Kanemoto Hisako & Iwami Manaka & Ookubo Rumi
ArtistUnicode:金元寿子&石見舞菜香&大久保瑠美
Creator:Underforest
Version:Advanced
Source:ゲーマーズ!
Tags:雨野景太と青春コンティニュー Amano Keita to Seishun Continue Geemaazu Pine Jam TV Size Opening Mafumafu まふまふ 天道花憐 星ノ守千秋 亜玖璃 Tendou Karen Hoshinomori Chiaki Aguri Shortthu Rizen [_Rizen_] a_q_p_w Irohas MugiwaraSekai Pata-Mon Akitoshi Corinn LowComboFC SnowNiNo_ Kibbleru
BeatmapID:1362558
BeatmapSetID:642407

[Difficulty]
HPDrainRate:4
CircleSize:3.7
OverallDifficulty:5
ApproachRate:6.5
SliderMultiplier:1.35
SliderTickRate:1

[Events]
//Background and Video events
0,0,"bg.jpg",0,0
Video,0,"video.avi"
//Break Periods
2,9520,12216
//Storyboard Layer 0 (Background)
//Storyboard Layer 1 (Fail)
//Storyboard Layer 2 (Pass)
//Storyboard Layer 3 (Foreground)
//Storyboard Sound Samples

[TimingPoints]
450,322.58064516129,4,2,1,70,1,0
5449,-100,4,2,1,50,0,0
6901,-100,4,2,1,60,0,0
8191,-100,4,2,1,70,0,0
9320,-100,4,2,1,40,0,0
13191,-100,4,2,1,50,0,0
13837,-100,4,2,1,60,0,0
14482,-100,4,2,1,70,0,0
23514,-100,4,2,1,50,0,0
24966,-100,4,2,1,60,0,0
35288,-100,4,2,1,70,0,0
45611,-133.333333333333,4,2,1,50,0,0
50611,-100,4,2,1,70,0,0
55288,-100,4,2,1,50,0,0
55772,-100,4,2,1,80,0,1
65933,-100,4,2,1,70,0,0
66095,-100,4,2,1,80,0,1
76579,-100,4,2,1,70,0,0
77224,-100,4,2,1,60,0,0
77708,-100,4,2,1,70,0,0
87062,-100,4,2,1,60,0,0
88030,-100,4,2,1,70,0,0
89159,-100,4,2,1,5,0,0

[Colours]
Combo1 : 255,15,21
Combo2 : 240,79,171
Combo3 : 21,148,251
Combo4 : 169,16,207
Combo5 : 208,238,43
Combo6 : 242,199,47
SliderTrackOverride : 30,30,30
SliderBorder : 255,255,250

[HitObjects]
57,56,450,5,8,0:0:0:0:
57,56,611,1,8,0:0:0:0:
297,93,1095,1,8,0:0:0:0:
297,93,1256,1,8,0:0:0:0:
265,334,1740,1,8,0:0:0:0:
265,334,1901,1,8,0:0:0:0:
25,291,2385,1,8,0:0:0:0:
25,291,2546,1,8,0:0:0:0:
265,334,3030,5,8,0:0:0:0:
265,334,3191,1,8,0:0:0:0:
297,93,3675,1,8,0:0:0:0:
297,93,3837,1,8,0:0:0:0:
135,99,4159,6,0,P|99:122|78:227,1,135,4|0,0:0|3:0,0:0:0:0:
124,268,4642,1,2,3:2:0:0:
174,331,4804,1,2,3:2:0:0:
334,348,5127,2,0,L|351:282,1,67.5
421,244,5449,6,0,P|376:260|306:215,1,135,4|0,0:0|0:0,0:0:0:0:
252,155,5933,2,0,P|201:113|137:127,1,135,2|2,3:2|3:2,0:0:0:0:
77,180,6417,1,0,0:0:0:0:
54,258,6579,2,0,L|46:335,1,67.5,2|0,3:2|0:0,0:0:0:0:
124,347,6901,6,0,B|182:373|200:326|256:347,1,135,2|2,3:2|3:2,0:0:0:0:
324,303,7385,2,0,P|369:277|354:195,1,135,0|0,3:2|3:2,0:0:0:0:
298,151,7869,1,2,3:2:0:0:
219,132,8030,2,0,P|150:140|74:148,1,135,0|0,3:2|3:2,3:3:0:0:
31,85,8514,1,2,3:2:0:0:
107,59,8675,2,0,P|174:51|241:44,1,135,0|2,3:2|3:2,3:3:0:0:
393,99,9320,5,6,0:0:0:0:
225,165,13191,5,8,0:0:0:0:
376,223,13514,1,8,0:0:0:0:
251,326,13837,2,0,B|246:359,6,33.75,8|0|2|2|2|2|2,3:2|3:2|3:2|3:2|3:2|3:2|3:2,0:0:0:0:
172,304,14482,6,0,P|115:241|124:174,1,135,4|0,0:0|0:0,0:0:0:0:
136,116,14966,2,0,P|169:108|207:120,1,67.5,10|0,0:0|0:0,0:0:0:0:
278,143,15288,2,0,P|310:151|342:143,1,67.5,2|0,0:0|0:0,0:0:0:0:
396,82,15611,1,10,0:0:0:0:
454,137,15772,1,0,0:0:0:0:
408,203,15933,6,0,L|398:293,1,67.5,2|0,0:0|0:0,0:0:0:0:
326,304,16256,2,0,L|318:236,1,67.5,10|0,0:0|0:0,0:0:0:0:
237,229,16579,2,0,L|148:213,2,67.5,2|2|8,0:0|0:0|0:0,0:0:0:0:
191,295,17062,6,0,P|132:288|89:230,1,135,2|0,0:0|0:0,0:0:0:0:
59,154,17546,2,0,P|63:115|70:88,1,67.5,10|0,0:0|0:0,0:0:0:0:
144,53,17869,2,0,P|177:56|210:64,1,67.5,2|0,0:0|0:0,0:0:0:0:
280,104,18191,1,10,0:0:0:0:
357,79,18353,1,0,0:0:0:0:
433,104,18514,6,0,B|440:141|440:141|432:188,1,67.5,2|0,0:0|0:0,0:0:0:0:
371,221,18837,2,0,B|364:258|364:258|372:305,1,67.5,10|0,0:0|0:0,0:0:0:0:
303,335,19159,2,0,L|210:341,2,67.5,2|2|8,3:2|3:2|3:2,0:0:0:0:
279,257,19643,6,0,L|131:264,1,135,4|0,0:0|0:0,0:0:0:0:
71,300,20127,2,0,P|67:257|75:222,1,67.5,10|0,0:0|0:0,0:0:0:0:
115,165,20449,2,0,P|119:122|111:87,1,67.5,2|0,0:0|0:0,0:0:0:0:
174,43,20772,1,10,0:0:0:0:
246,79,20933,1,0,0:0:0:0:
326,68,21095,6,0,P|373:61|411:57,1,67.5,2|0,0:0|0:0,0:0:0:0:
407,138,21417,2,0,P|373:143|332:149,1,67.5,10|0,0:0|0:0,0:0:0:0:
347,228,21740,2,0,P|359:266|356:305,2,67.5,2|2|8,0:0|0:0|0:0,0:0:0:0:
278,272,22224,1,0,0:0:0:0:
200,296,22385,6,0,L|47:284,1,135,6|8,0:0|0:0,0:0:0:0:
73,204,22869,2,0,L|207:214,1,135,2|2,0:0|0:0,0:0:0:0:
369,220,23514,1,10,0:0:0:0:
369,220,24966,6,0,P|384:154|369:90,1,135,4|2,0:0|0:0,0:0:0:0:
287,89,25449,2,0,P|271:154|286:219,2,135,2|2|2,0:0|0:0|0:0,0:0:0:0:
212,56,26256,2,0,L|77:64,1,135,2|0,0:0|0:0,0:0:0:0:
38,135,26740,2,0,B|53:190|53:190|38:272,1,135,2|0,0:0|0:0,0:0:0:0:
35,348,27224,1,0,0:0:0:0:
197,337,27546,6,0,B|250:360|250:360|342:347,1,135,2|2,0:0|0:0,0:0:0:0:
375,284,28030,2,0,B|322:261|322:261|245:271,2,135,2|2|2,0:0|0:0|0:0,0:0:0:0:
452,258,28837,2,0,P|466:200|446:108,1,135,2|2,0:0|0:0,0:0:0:0:
393,74,29320,2,0,P|326:62|257:70,1,135,2|2,0:0|0:0,0:0:0:0:
189,110,29804,2,0,L|176:181,1,67.5,2|2,0:0|0:0,0:0:0:0:
110,223,30127,6,0,P|148:254|245:220,1,135,2|2,0:0|0:0,0:0:0:0:
304,214,30611,2,0,P|366:195|421:231,2,135,2|2|2,0:0|0:0|0:0,0:0:0:0:
227,240,31417,2,0,L|233:378,1,135,2|2,0:0|0:0,0:0:0:0:
151,370,31901,2,0,B|64:366|64:366|14:320,1,135,2|0,0:0|0:0,0:0:0:0:
27,252,32385,1,0,0:0:0:0:
69,95,32708,6,0,L|211:82,1,135,2|0,0:0|0:0,0:0:0:0:
277,115,33191,2,0,L|411:127,2,135,2|2|2,0:0|0:0|0:0,0:0:0:0:
203,82,33998,2,0,P|196:114|206:153,1,67.5,2|2,0:0|0:0,0:0:0:0:
246,215,34320,2,0,P|253:247|243:286,1,67.5,2|2,0:0|0:0,0:0:0:0:
172,315,34643,2,0,P|198:348|307:333,1,135,2|0,0:0|0:0,0:0:0:0:
404,242,35288,6,0,P|470:222|506:159,1,135,6|10,0:0|0:0,0:0:0:0:
433,127,35772,2,0,L|343:119,1,67.5,2|0,0:0|0:0,0:0:0:0:
284,125,36095,2,0,L|216:130,1,67.5,2|8,0:0|0:0,0:0:0:0:
136,122,36417,1,2,0:0:0:0:
59,148,36579,6,0,P|38:220|40:283,1,135,2|10,0:0|0:0,0:0:0:0:
96,336,37062,1,2,0:0:0:0:
176,327,37224,2,0,B|210:333|210:333|246:327,1,67.5,0|0,0:0|0:0,0:0:0:0:
316,295,37546,2,0,B|350:289|350:289|382:294,1,67.5,8|0,0:0|0:0,0:0:0:0:
448,246,37869,6,0,L|437:105,1,135,2|10,0:0|0:0,0:0:0:0:
378,55,38353,2,0,P|344:49|312:57,1,67.5,2|0,0:0|0:0,0:0:0:0:
241,97,38676,2,0,P|207:102|175:94,1,67.5,2|8,0:0|0:0,0:0:0:0:
94,81,38998,1,2,0:0:0:0:
56,152,39159,6,0,L|43:307,1,135,2|10,0:0|0:0,0:0:0:0:
118,321,39643,2,0,L|129:186,1,135,2|2,0:0|0:0,0:0:0:0:
210,174,40127,2,0,P|244:181|283:175,1,67.5,10|0,0:0|3:0,0:0:0:0:
338,125,40449,6,0,P|379:109|486:155,1,135,6|10,0:0|0:0,0:0:0:0:
487,209,40933,2,0,P|489:242|492:276,1,67.5,2|0,0:0|0:0,0:0:0:0:
429,326,41255,2,0,L|395:323|361:320,1,67.5,2|8,0:0|0:0,0:0:0:0:
280,329,41578,1,2,0:0:0:0:
200,309,41740,6,0,P|148:321|87:271,1,135,2|10,0:0|0:0,0:0:0:0:
110,195,42224,2,0,P|179:188|226:244,1,135,2|0,0:0|0:0,0:0:0:0:
299,204,42708,2,0,P|304:161|305:127,1,67.5,8|10,3:0|3:0,0:0:0:0:
372,92,43030,6,0,P|410:83|445:82,1,67.5,6|0,0:0|0:0,0:0:0:0:
465,158,43353,2,0,P|431:160|398:168,1,67.5,2|0,0:0|0:0,0:0:0:0:
374,244,43675,2,0,P|377:287|365:335,1,67.5,6|2,0:0|0:0,0:0:0:0:
297,339,43998,2,0,P|263:335|230:339,1,67.5,2|2,0:0|0:0,0:0:0:0:
152,315,44320,6,0,P|116:319|83:312,2,67.5,6|2|2,0:0|0:0|0:0,0:0:0:0:
214,261,44804,1,2,0:0:0:0:
270,202,44966,2,0,L|280:55,1,135,2|4,0:0|3:0,0:0:0:0:
440,55,45611,6,0,P|466:108|449:165,1,101.250003862381,6|0,0:0|0:0,0:0:0:0:
431,224,46095,1,2,0:0:0:0:
393,295,46256,2,0,L|276:308,1,101.250003862381,2|0,0:0|0:0,0:0:0:0:
211,314,46740,1,2,0:0:0:0:
142,270,46901,2,0,P|130:195|130:150,2,101.250003862381,2|2|2,0:0|0:0|0:0,0:0:0:0:
300,236,47869,1,2,0:0:0:0:
459,212,48191,6,0,B|467:159|467:159|449:98,1,101.250003862381,2|2,0:0|0:0,0:0:0:0:
296,69,48837,2,0,B|244:60|244:60|183:77,1,101.250003862381,2|2,0:0|0:0,0:0:0:0:
75,179,49482,2,0,L|62:292,1,101.250003862381,2|0,0:0|0:0,0:0:0:0:
215,334,50127,2,0,P|255:337|283:338,2,50.6250019311906,2|0|8,0:0|3:0|3:2,0:0:0:0:
239,256,50611,6,0,L|388:265,1,135,6|0,0:0|0:0,0:0:0:0:
443,222,51095,2,0,P|448:175|430:116,1,67.5,10|2,0:0|0:0,0:0:0:0:
420,78,51417,1,10,3:2:0:0:
258,87,51740,1,2,3:2:0:0:
178,70,51901,6,0,L|29:61,1,135,6|2,0:0|0:0,0:0:0:0:
41,143,52385,2,0,P|36:190|54:249,1,67.5,10|2,0:0|0:0,0:0:0:0:
53,289,52707,1,10,3:2:0:0:
211,321,53030,1,2,3:2:0:0:
286,349,53191,6,0,P|335:364|432:327,1,135,6|0,0:0|0:0,0:0:0:0:
487,307,53675,2,0,P|491:264|481:241,1,67.5,10|0,0:0|0:0,0:0:0:0:
433,176,53998,2,0,P|429:133|439:110,1,67.5,10|2,0:0|0:0,0:0:0:0:
467,35,54320,1,10,0:0:0:0:
386,48,54482,6,0,P|290:49|232:53,1,135,6|2,0:0|0:0,0:0:0:0:
181,92,54966,2,0,P|151:100|111:99,1,67.5,2|2,0:0|0:0,0:0:0:0:
40,131,55288,1,8,3:0:0:0:
40,131,55772,6,0,L|51:288,1,135,6|0,0:0|0:0,0:0:0:0:
119,306,56256,2,0,L|192:309,1,67.5,10|0,0:0|0:0,0:0:0:0:
261,278,56579,2,0,L|328:275,2,67.5,2|2|10,0:0|0:0|0:0,0:0:0:0:
197,227,57062,6,0,P|182:159|197:97,1,135,2|2,0:0|0:0,0:0:0:0:
256,40,57546,1,10,0:0:0:0:
334,60,57708,2,0,L|413:50,1,67.5,2|0,0:0|0:0,0:0:0:0:
438,123,58030,2,0,L|371:131,1,67.5,2|10,0:0|0:0,0:0:0:0:
342,207,58353,6,0,B|361:251|361:251|348:348,1,135,2|2,0:0|0:0,0:0:0:0:
272,364,58837,1,10,0:0:0:0:
191,357,58998,2,0,P|145:359|119:349,1,67.5,2|0,0:0|0:0,0:0:0:0:
89,279,59320,2,0,P|80:246|84:213,1,67.5,2|10,0:0|0:0,0:0:0:0:
19,163,59643,6,0,P|48:181|147:124,1,135,2|2,0:0|0:0,0:0:0:0:
188,88,60127,1,10,3:2:0:0:
263,118,60289,2,0,L|330:123,1,67.5,2|0,0:0|3:2,0:0:0:0:
408,102,60611,2,0,L|475:97,1,67.5,2|10,0:0|0:0,0:0:0:0:
486,177,60933,6,0,P|493:245|481:323,1,135,4|0,0:0|0:0,0:0:0:0:
410,344,61417,2,0,P|374:349|340:345,1,67.5,10|0,0:0|0:0,0:0:0:0:
267,316,61740,2,0,P|233:311|200:314,1,67.5,2|2,0:0|0:0,0:0:0:0:
128,354,62062,1,10,0:0:0:0:
123,272,62224,6,0,L|114:124,1,135,2|2,0:0|0:0,0:0:0:0:
156,67,62708,1,10,0:0:0:0:
236,71,62869,2,0,B|297:46|310:95|369:71,1,135,2|2,0:0|0:0,0:0:0:0:
444,46,63353,1,10,0:0:0:0:
431,125,63514,6,0,P|427:199|421:276,1,135,2|2,0:0|0:0,0:0:0:0:
390,334,63998,1,10,0:0:0:0:
310,346,64159,2,0,L|275:348|240:350,1,67.5,2|0,0:0|0:0,0:0:0:0:
170,311,64482,2,0,L|137:309|102:307,1,67.5,2|8,0:0|0:0,0:0:0:0:
39,357,64804,6,0,P|21:288|62:235,1,135,4|0,0:0|0:0,0:0:0:0:
115,184,65288,2,0,P|156:179|200:186,1,67.5,8|0,3:2|3:2,0:0:0:0:
255,146,65611,2,0,P|296:151|340:144,1,67.5,2|2,0:0|0:0,0:0:0:0:
393,110,65933,1,10,0:0:0:0:
472,131,66095,6,0,L|461:288,1,135,6|0,0:0|0:0,0:0:0:0:
393,306,66579,2,0,L|320:309,1,67.5,10|0,0:0|0:0,0:0:0:0:
251,278,66902,2,0,L|184:275,2,67.5,2|2|10,0:0|0:0|0:0,0:0:0:0:
315,227,67385,6,0,P|330:159|315:97,1,135,2|2,0:0|0:0,0:0:0:0:
256,40,67869,1,10,0:0:0:0:
178,60,68031,2,0,L|99:50,1,67.5,2|0,0:0|0:0,0:0:0:0:
74,123,68353,2,0,L|141:131,1,67.5,2|10,0:0|0:0,0:0:0:0:
170,207,68676,6,0,B|151:251|151:251|164:348,1,135,2|2,0:0|0:0,0:0:0:0:
240,364,69160,1,10,0:0:0:0:
321,357,69321,2,0,P|367:359|393:349,1,67.5,2|0,0:0|0:0,0:0:0:0:
423,279,69643,2,0,P|432:246|428:213,1,67.5,2|10,0:0|0:0,0:0:0:0:
493,163,69966,6,0,P|464:181|365:124,1,135,2|2,0:0|0:0,0:0:0:0:
324,88,70450,1,10,3:2:0:0:
249,118,70612,2,0,L|182:123,1,67.5,2|0,0:0|3:2,0:0:0:0:
104,102,70934,2,0,L|36:97,1,67.5,2|10,0:0|0:0,0:0:0:0:
26,177,71256,6,0,P|19:245|31:323,1,135,4|0,0:0|0:0,0:0:0:0:
102,344,71740,2,0,P|138:349|172:345,1,67.5,10|0,0:0|0:0,0:0:0:0:
245,316,72063,2,0,P|279:311|312:314,1,67.5,2|2,0:0|0:0,0:0:0:0:
384,354,72385,1,10,0:0:0:0:
389,272,72547,6,0,L|398:124,1,135,2|2,0:0|0:0,0:0:0:0:
356,67,73031,1,10,0:0:0:0:
276,71,73192,2,0,B|215:46|202:95|143:71,1,135,2|2,0:0|0:0,0:0:0:0:
68,46,73676,1,10,0:0:0:0:
81,125,73837,6,0,P|85:199|91:276,1,135,2|2,0:0|0:0,0:0:0:0:
122,334,74321,1,10,0:0:0:0:
202,346,74482,2,0,L|237:348|272:350,1,67.5,2|0,0:0|0:0,0:0:0:0:
342,311,74805,2,0,L|375:309|410:307,1,67.5,2|8,0:0|0:0,0:0:0:0:
473,357,75127,6,0,P|491:288|450:235,1,135,4|0,0:0|0:0,0:0:0:0:
410,172,75611,2,0,P|369:167|325:174,1,67.5,8|0,0:0|0:0,0:0:0:0:
264,190,75934,2,0,P|223:195|179:188,1,67.5,8|2,0:0|0:0,0:0:0:0:
136,138,76256,1,10,0:0:0:0:
79,195,76417,1,2,0:0:0:0:
138,251,76579,5,8,3:0:0:0:
138,251,76740,1,8,3:0:0:0:
356,357,77224,2,0,L|306:370,4,33.75,0|0|0|0|0,3:2|3:2|3:2|3:2|3:2,0:0:0:0:
433,333,77707,6,0,P|454:266|434:188,1,135,4|0,0:0|0:0,0:0:0:0:
394,137,78191,2,0,P|361:129|323:141,1,67.5,10|0,0:0|0:0,0:0:0:0:
248,145,78514,2,0,P|216:153|184:145,1,67.5,2|0,0:0|0:0,0:0:0:0:
129,84,78836,1,10,0:0:0:0:
67,137,78998,1,0,0:0:0:0:
118,199,79159,6,0,L|128:289,1,67.5,2|0,0:0|0:0,0:0:0:0:
198,300,79481,2,0,L|206:232,1,67.5,10|0,0:0|0:0,0:0:0:0:
286,224,79804,2,0,L|375:208,2,67.5,2|2|8,0:0|0:0|0:0,0:0:0:0:
332,290,80288,6,0,P|391:283|434:225,1,135,2|0,0:0|0:0,0:0:0:0:
456,147,80772,2,0,P|452:108|445:81,1,67.5,10|0,0:0|0:0,0:0:0:0:
368,53,81094,2,0,P|335:56|302:64,1,67.5,2|0,0:0|0:0,0:0:0:0:
232,104,81417,1,10,0:0:0:0:
155,79,81578,1,0,0:0:0:0:
79,104,81740,6,0,B|72:141|72:141|80:188,1,67.5,2|0,0:0|0:0,0:0:0:0:
141,221,82062,2,0,B|148:258|148:258|140:305,1,67.5,10|0,0:0|0:0,0:0:0:0:
209,335,82385,2,0,L|301:341,2,67.5,2|2|8,3:2|3:2|3:2,0:0:0:0:
233,257,82869,6,0,L|381:264,1,135,4|0,0:0|0:0,0:0:0:0:
441,300,83352,2,0,P|445:257|437:222,1,67.5,10|0,0:0|0:0,0:0:0:0:
397,165,83675,2,0,P|393:122|401:87,1,67.5,2|0,0:0|0:0,0:0:0:0:
338,43,83998,1,10,0:0:0:0:
266,79,84159,1,0,0:0:0:0:
186,68,84320,6,0,P|139:61|101:57,1,67.5,6|0,0:0|0:0,0:0:0:0:
105,138,84643,2,0,P|138:143|180:149,1,67.5,10|0,0:0|0:0,0:0:0:0:
252,163,84965,2,0,P|254:228|244:305,1,135,2|8,0:0|0:0,0:0:0:0:
279,371,85449,1,0,0:0:0:0:
326,305,85611,6,0,P|388:315|398:320,2,67.5,6|2|10,0:0|0:0|0:0,0:0:0:0:
245,297,86095,2,0,L|99:302,1,135,2|2,0:0|0:0,0:0:0:0:
46,152,86740,2,0,B|110:127|122:173|180:153,1,135,2|2,0:0|3:2,0:0:0:0:
240,102,87224,2,0,P|280:101|310:111,1,67.5,2|2,3:2|3:2,0:0:0:0:
372,155,87546,2,0,L|383:233,1,67.5,2|2,3:2|3:2,3:3:0:0:
362,300,87869,1,2,3:2:0:0:
296,346,88030,6,0,B|253:365|214:351|214:351|167:382|167:382|18:383|19:225|109:165|197:211,1,472.5,4|0,0:0|0:0,0:0:0:0:
