osu file format v14

[General]
AudioFilename: Kaneko Chiharu - Yukionna.mp3
AudioLeadIn: 0
PreviewTime: 21627
Countdown: 0
SampleSet: Soft
StackLeniency: 0.7
Mode: 3
LetterboxInBreaks: 0
SpecialStyle: 0
WidescreenStoryboard: 0

[Editor]
DistanceSpacing: 0.8
BeatDivisor: 6
GridSize: 16
TimelineZoom: 1.8

[Metadata]
Title:Yuki Onna
TitleUnicode:雪女
Artist:Kaneko Chiharu
ArtistUnicode:かねこちはる
Creator:[ A v a l o n ]
Version:EXHAUST
Source:SOUND VOLTEX II -infinite infection-
Tags:SDVX KONAMI BEMANI FLOOR 夏だ!休みだ!自由研究オリジナル楽曲コンテスト It's Summer! It's Holiday! Independent Research Original Song Contest Critical_Star
BeatmapID:825237
BeatmapSetID:377004

[Difficulty]
HPDrainRate:8
CircleSize:4
OverallDifficulty:8
ApproachRate:5
SliderMultiplier:1.4
SliderTickRate:1

[Events]
//Background and Video events
0,0,"Yukionna.jpg",0,0
//Break Periods
//Storyboard Layer 0 (Background)
//Storyboard Layer 1 (Fail)
//Storyboard Layer 2 (Pass)
//Storyboard Layer 3 (Foreground)
//Storyboard Sound Samples

[TimingPoints]
27,300,4,2,1,40,1,0
21627,-100,4,2,1,45,0,1
40827,-100,4,2,1,35,0,0
50427,-100,4,2,1,40,0,1
57627,-100,4,2,1,35,0,0
64827,-100,4,2,1,40,0,0
79227,-100,4,2,1,45,0,1
97227,-100,4,2,1,40,0,0
98427,-100,4,2,1,45,0,1
98502,-100,4,2,1,45,0,0

[HitObjects]
64,192,927,128,0,2427:0:0:0:0:
320,192,2427,1,2,0:0:0:0:
448,192,2427,1,4,0:0:0:0:
192,192,2427,1,0,0:0:0:0:
320,192,2577,1,0,0:0:0:0:
64,192,2727,1,0,0:0:0:0:
192,192,2877,1,0,0:0:0:0:
320,192,3177,1,0,0:0:0:0:
448,192,3327,1,0,0:0:0:0:
320,192,3477,1,0,0:0:0:0:
192,192,3627,1,0,0:0:0:0:
64,192,3777,1,0,0:0:0:0:
320,192,3927,1,0,0:0:0:0:
192,192,4077,1,0,0:0:0:0:
448,192,4227,1,0,0:0:0:0:
320,192,4527,1,0,0:0:0:0:
64,192,4827,1,0,0:0:0:0:
64,192,5127,1,0,0:0:0:0:
320,192,5277,1,0,0:0:0:0:
320,192,5577,1,0,0:0:0:0:
64,192,5727,1,0,0:0:0:0:
448,192,6027,1,0,0:0:0:0:
192,192,6177,1,0,0:0:0:0:
320,192,6477,1,0,0:0:0:0:
448,192,6627,1,0,0:0:0:0:
192,192,6777,1,0,0:0:0:0:
320,192,6927,1,0,0:0:0:0:
64,192,7077,1,0,0:0:0:0:
192,192,7227,1,0,0:0:0:0:
192,192,7527,1,0,0:0:0:0:
320,192,7677,1,0,0:0:0:0:
448,192,7977,1,0,0:0:0:0:
192,192,8127,1,0,0:0:0:0:
320,192,8277,1,0,0:0:0:0:
64,192,8427,1,0,0:0:0:0:
192,192,8577,1,0,0:0:0:0:
320,192,8727,1,0,0:0:0:0:
448,192,8877,1,0,0:0:0:0:
192,192,9027,1,0,0:0:0:0:
64,192,9327,1,0,0:0:0:0:
320,192,9627,1,0,0:0:0:0:
192,192,9927,1,0,0:0:0:0:
448,192,10077,1,0,0:0:0:0:
64,192,10377,1,0,0:0:0:0:
320,192,10527,1,0,0:0:0:0:
448,192,10827,1,0,0:0:0:0:
192,192,10977,1,0,0:0:0:0:
320,192,11277,1,0,0:0:0:0:
64,192,11427,1,0,0:0:0:0:
192,192,11727,1,0,0:0:0:0:
320,192,12027,1,4,0:0:0:0:
448,192,12027,1,0,0:0:0:0:
64,192,12177,1,0,0:0:0:0:
192,192,12327,1,8,0:0:0:0:
448,192,12327,1,0,0:0:0:0:
320,192,12477,1,0,0:0:0:0:
192,192,12777,1,0,0:0:0:0:
64,192,12927,1,8,0:0:0:0:
448,192,12927,1,0,0:0:0:0:
320,192,13077,1,0,0:0:0:0:
192,192,13227,1,0,0:0:0:0:
448,192,13377,1,0,0:0:0:0:
320,192,13527,1,8,0:0:0:0:
64,192,13527,1,0,0:0:0:0:
192,192,13677,1,0,0:0:0:0:
320,192,13827,1,0,0:0:0:0:
448,192,14127,1,8,0:0:0:0:
192,192,14127,1,0,0:0:0:0:
64,192,14427,1,0,0:0:0:0:
320,192,14727,1,8,0:0:0:0:
448,192,14727,1,0,0:0:0:0:
192,192,14877,1,0,0:0:0:0:
320,192,15177,1,0,0:0:0:0:
448,192,15327,1,8,0:0:0:0:
64,192,15327,1,0,0:0:0:0:
192,192,15477,1,0,0:0:0:0:
320,192,15627,1,0,0:0:0:0:
64,192,15777,1,0,0:0:0:0:
192,192,15927,1,8,0:0:0:0:
448,192,15927,1,0,0:0:0:0:
320,192,16077,1,0,0:0:0:0:
64,192,16227,1,0,0:0:0:0:
192,192,16377,1,0,0:0:0:0:
64,192,16527,1,8,0:0:0:0:
320,192,16527,1,0,0:0:0:0:
448,192,16677,1,0,0:0:0:0:
320,192,16827,1,0,0:0:0:0:
192,192,16977,1,0,0:0:0:0:
448,192,17127,1,8,0:0:0:0:
320,192,17127,1,0,0:0:0:0:
64,192,17277,1,0,0:0:0:0:
320,192,17577,1,0,0:0:0:0:
64,192,17727,1,8,0:0:0:0:
192,192,17727,1,0,0:0:0:0:
448,192,17877,1,0,0:0:0:0:
320,192,18027,1,0,0:0:0:0:
448,192,18177,1,0,0:0:0:0:
64,192,18327,1,8,0:0:0:0:
192,192,18327,1,0,0:0:0:0:
448,192,18477,1,0,0:0:0:0:
320,192,18627,1,0,0:0:0:0:
448,192,18927,1,8,0:0:0:0:
192,192,18927,1,0,0:0:0:0:
64,192,19227,1,0,0:0:0:0:
320,192,19527,1,8,0:0:0:0:
448,192,19527,1,0,0:0:0:0:
192,192,19677,1,0,0:0:0:0:
448,192,19977,1,0,0:0:0:0:
320,192,20127,1,8,0:0:0:0:
64,192,20127,1,0,0:0:0:0:
192,192,20277,1,0,0:0:0:0:
448,192,20427,1,0,0:0:0:0:
320,192,20577,1,0,0:0:0:0:
64,192,20877,1,0,0:0:0:0:
448,192,21027,1,0,0:0:0:0:
192,192,21177,1,0,0:0:0:0:
320,192,21327,1,0,0:0:0:0:
448,192,21627,1,4,0:0:0:0:
192,192,21627,1,2,0:0:0:0:
64,192,21627,1,0,0:0:0:0:
320,192,21927,1,8,0:0:0:0:
448,192,21927,1,0,0:0:0:0:
192,192,22077,1,0,0:0:0:0:
64,192,22077,1,0,0:0:0:0:
448,192,22227,1,2,0:0:0:0:
320,192,22377,1,0,0:0:0:0:
192,192,22377,1,0,0:0:0:0:
448,192,22527,1,8,0:0:0:0:
64,192,22527,1,0,0:0:0:0:
64,192,22827,1,2,0:0:0:0:
192,192,22827,1,0,0:0:0:0:
320,192,22977,1,0,0:0:0:0:
448,192,22977,1,0,0:0:0:0:
64,192,23127,1,8,0:0:0:0:
192,192,23277,1,0,0:0:0:0:
448,192,23277,1,0,0:0:0:0:
320,192,23427,1,2,0:0:0:0:
64,192,23427,1,0,0:0:0:0:
192,192,23727,1,8,0:0:0:0:
448,192,23727,1,0,0:0:0:0:
320,192,24027,1,2,0:0:0:0:
64,192,24027,1,0,0:0:0:0:
320,192,24327,1,8,0:0:0:0:
192,192,24327,1,0,0:0:0:0:
448,192,24477,1,0,0:0:0:0:
64,192,24477,1,0,0:0:0:0:
320,192,24627,1,2,0:0:0:0:
64,192,24777,1,0,0:0:0:0:
192,192,24777,1,0,0:0:0:0:
320,192,24927,1,8,0:0:0:0:
448,192,24927,1,0,0:0:0:0:
448,192,25227,1,2,0:0:0:0:
320,192,25227,1,0,0:0:0:0:
192,192,25377,1,0,0:0:0:0:
64,192,25377,1,0,0:0:0:0:
448,192,25527,1,8,0:0:0:0:
192,192,25677,1,0,0:0:0:0:
64,192,25677,1,0,0:0:0:0:
320,192,25827,1,2,0:0:0:0:
448,192,25827,1,0,0:0:0:0:
64,192,25977,1,0,0:0:0:0:
192,192,26127,1,8,0:0:0:0:
320,192,26127,1,0,0:0:0:0:
448,192,26427,1,2,0:0:0:0:
64,192,26427,1,0,0:0:0:0:
448,192,26727,1,8,0:0:0:0:
320,192,26727,1,0,0:0:0:0:
64,192,26877,128,0,27477:0:0:0:0:
192,192,26877,1,0,0:0:0:0:
448,192,27027,1,2,0:0:0:0:
320,192,27177,1,0,0:0:0:0:
448,192,27327,1,8,0:0:0:0:
192,192,27327,1,0,0:0:0:0:
320,192,27477,1,0,0:0:0:0:
192,192,27552,1,0,0:0:0:0:
448,192,27627,1,2,0:0:0:0:
64,192,27627,1,0,0:0:0:0:
320,192,27727,1,0,0:0:0:0:
192,192,27827,1,0,0:0:0:0:
448,192,27927,1,8,0:0:0:0:
64,192,27927,1,0,0:0:0:0:
320,192,28027,1,0,0:0:0:0:
192,192,28127,1,0,0:0:0:0:
64,192,28227,1,2,0:0:0:0:
448,192,28227,1,0,0:0:0:0:
320,192,28327,1,0,0:0:0:0:
192,192,28427,1,0,0:0:0:0:
448,192,28527,1,8,0:0:0:0:
320,192,28527,128,0,28827:0:0:0:0:
192,192,28827,128,2,29427:0:0:0:0:
64,192,28827,1,0,0:0:0:0:
64,192,29127,1,8,0:0:0:0:
448,192,29127,1,0,0:0:0:0:
320,192,29277,1,0,0:0:0:0:
448,192,29427,1,2,0:0:0:0:
64,192,29427,128,0,30027:0:0:0:0:
320,192,29727,1,8,0:0:0:0:
192,192,29727,1,0,0:0:0:0:
320,192,30027,1,2,0:0:0:0:
448,192,30027,1,0,0:0:0:0:
320,192,30177,1,2,0:0:0:0:
448,192,30177,1,0,0:0:0:0:
192,192,30327,1,2,0:0:0:0:
64,192,30327,1,8,0:0:0:0:
64,192,30477,1,2,0:0:0:0:
192,192,30477,1,0,0:0:0:0:
448,192,30627,1,2,0:0:0:0:
320,192,30627,1,0,0:0:0:0:
64,192,30702,1,2,0:0:0:0:
192,192,30777,1,2,0:0:0:0:
320,192,30777,1,0,0:0:0:0:
448,192,30852,1,2,0:0:0:0:
192,192,30927,1,2,0:0:0:0:
64,192,30927,1,0,0:0:0:0:
320,192,31002,1,2,0:0:0:0:
448,192,31077,1,2,0:0:0:0:
64,192,31077,1,0,0:0:0:0:
192,192,31152,1,2,0:0:0:0:
448,192,31227,1,2,0:0:0:0:
320,192,31227,1,4,0:0:0:0:
64,192,31227,1,0,0:0:0:0:
192,192,31527,1,8,0:0:0:0:
320,192,31527,1,0,0:0:0:0:
64,192,31677,1,0,0:0:0:0:
448,192,31677,1,0,0:0:0:0:
192,192,31827,1,2,0:0:0:0:
320,192,31977,1,0,0:0:0:0:
448,192,31977,1,0,0:0:0:0:
64,192,32127,1,8,0:0:0:0:
192,192,32127,1,0,0:0:0:0:
64,192,32427,1,2,0:0:0:0:
192,192,32427,1,0,0:0:0:0:
320,192,32577,1,0,0:0:0:0:
448,192,32577,1,0,0:0:0:0:
64,192,32727,1,8,0:0:0:0:
192,192,32877,1,0,0:0:0:0:
320,192,32877,1,0,0:0:0:0:
448,192,33027,1,2,0:0:0:0:
64,192,33027,1,0,0:0:0:0:
192,192,33327,1,8,0:0:0:0:
320,192,33327,1,0,0:0:0:0:
64,192,33627,1,2,0:0:0:0:
448,192,33627,1,0,0:0:0:0:
320,192,33927,1,8,0:0:0:0:
192,192,33927,1,0,0:0:0:0:
448,192,34077,1,0,0:0:0:0:
64,192,34077,1,0,0:0:0:0:
192,192,34227,1,2,0:0:0:0:
448,192,34377,1,0,0:0:0:0:
320,192,34377,1,0,0:0:0:0:
64,192,34527,1,8,0:0:0:0:
192,192,34527,1,0,0:0:0:0:
448,192,34827,1,2,0:0:0:0:
320,192,34827,1,0,0:0:0:0:
192,192,34977,1,0,0:0:0:0:
64,192,34977,1,0,0:0:0:0:
448,192,35127,1,8,0:0:0:0:
64,192,35277,1,0,0:0:0:0:
320,192,35277,1,0,0:0:0:0:
448,192,35427,1,2,0:0:0:0:
192,192,35427,1,0,0:0:0:0:
320,192,35652,1,0,0:0:0:0:
64,192,35652,1,0,0:0:0:0:
448,192,35877,1,0,0:0:0:0:
192,192,35877,1,0,0:0:0:0:
320,192,36027,1,2,0:0:0:0:
64,192,36027,1,0,0:0:0:0:
448,192,36027,1,0,0:0:0:0:
64,192,36327,1,8,0:0:0:0:
448,192,36327,1,0,0:0:0:0:
320,192,36427,1,0,0:0:0:0:
192,192,36527,1,0,0:0:0:0:
64,192,36627,1,2,0:0:0:0:
448,192,36627,1,0,0:0:0:0:
192,192,36727,1,0,0:0:0:0:
320,192,36827,1,0,0:0:0:0:
448,192,36927,1,8,0:0:0:0:
64,192,36927,1,0,0:0:0:0:
320,192,37027,1,0,0:0:0:0:
192,192,37127,1,0,0:0:0:0:
448,192,37227,1,2,0:0:0:0:
320,192,37227,1,0,0:0:0:0:
448,192,37377,1,0,0:0:0:0:
192,192,37527,1,8,0:0:0:0:
64,192,37527,1,0,0:0:0:0:
320,192,37602,1,0,0:0:0:0:
64,192,37752,1,0,0:0:0:0:
448,192,37827,128,2,38127:0:0:0:0:
192,192,37827,1,0,0:0:0:0:
320,192,38127,128,8,38427:0:0:0:0:
64,192,38127,1,0,0:0:0:0:
192,192,38427,128,2,39027:0:0:0:0:
448,192,38427,1,0,0:0:0:0:
448,192,38727,1,8,0:0:0:0:
64,192,38727,1,0,0:0:0:0:
320,192,38877,1,0,0:0:0:0:
64,192,39027,128,2,39627:0:0:0:0:
448,192,39027,1,0,0:0:0:0:
192,192,39327,1,8,0:0:0:0:
320,192,39327,1,0,0:0:0:0:
320,192,39627,1,2,0:0:0:0:
448,192,39627,1,0,0:0:0:0:
320,192,39777,1,2,0:0:0:0:
448,192,39777,1,0,0:0:0:0:
192,192,39927,1,2,0:0:0:0:
64,192,39927,1,8,0:0:0:0:
64,192,40077,1,2,0:0:0:0:
192,192,40077,1,0,0:0:0:0:
320,192,40227,1,2,0:0:0:0:
448,192,40227,1,0,0:0:0:0:
192,192,40302,1,2,0:0:0:0:
64,192,40302,1,0,0:0:0:0:
320,192,40377,1,2,0:0:0:0:
448,192,40377,1,0,0:0:0:0:
192,192,40452,1,2,0:0:0:0:
64,192,40452,1,0,0:0:0:0:
320,192,40527,1,2,0:0:0:0:
448,192,40527,1,0,0:0:0:0:
192,192,40602,1,2,0:0:0:0:
64,192,40602,1,0,0:0:0:0:
320,192,40677,1,2,0:0:0:0:
448,192,40677,1,0,0:0:0:0:
192,192,40752,1,2,0:0:0:0:
64,192,40752,1,0,0:0:0:0:
320,192,40827,1,2,0:0:0:0:
448,192,40827,128,0,44277:0:0:0:0:
64,192,40977,1,0,0:0:0:0:
320,192,41127,1,0,0:0:0:0:
192,192,41277,1,0,0:0:0:0:
320,192,41577,1,0,0:0:0:0:
64,192,41727,1,0,0:0:0:0:
192,192,41877,1,8,0:0:0:0:
320,192,42027,1,0,0:0:0:0:
64,192,42177,1,8,0:0:0:0:
320,192,42327,1,0,0:0:0:0:
64,192,42477,1,0,0:0:0:0:
192,192,42627,1,8,0:0:0:0:
320,192,42627,1,0,0:0:0:0:
64,192,42927,1,0,0:0:0:0:
320,192,43077,1,8,0:0:0:0:
192,192,43227,1,2,0:0:0:0:
64,192,43227,1,0,0:0:0:0:
320,192,43377,1,0,0:0:0:0:
64,192,43527,1,0,0:0:0:0:
192,192,43677,1,0,0:0:0:0:
320,192,43977,1,0,0:0:0:0:
64,192,44127,1,0,0:0:0:0:
192,192,44277,1,8,0:0:0:0:
320,192,44277,1,0,0:0:0:0:
64,192,44427,1,0,0:0:0:0:
320,192,44577,1,8,0:0:0:0:
448,192,44577,1,0,0:0:0:0:
192,192,44877,1,0,0:0:0:0:
64,192,45027,1,8,0:0:0:0:
448,192,45027,1,0,0:0:0:0:
320,192,45127,1,0,0:0:0:0:
192,192,45227,1,0,0:0:0:0:
448,192,45327,1,8,0:0:0:0:
64,192,45327,1,0,0:0:0:0:
320,192,45427,1,0,0:0:0:0:
192,192,45527,1,0,0:0:0:0:
320,192,45627,1,2,0:0:0:0:
448,192,45627,1,0,0:0:0:0:
64,192,45777,1,0,0:0:0:0:
320,192,45927,1,0,0:0:0:0:
64,192,46077,1,0,0:0:0:0:
448,192,46377,1,0,0:0:0:0:
192,192,46527,1,0,0:0:0:0:
320,192,46677,1,8,0:0:0:0:
64,192,46677,1,0,0:0:0:0:
192,192,46827,1,0,0:0:0:0:
64,192,46977,1,8,0:0:0:0:
448,192,46977,1,0,0:0:0:0:
320,192,47127,1,0,0:0:0:0:
192,192,47277,1,0,0:0:0:0:
448,192,47427,1,4,0:0:0:0:
320,192,47427,1,0,0:0:0:0:
64,192,47727,1,0,0:0:0:0:
320,192,47877,1,0,0:0:0:0:
192,192,48027,1,2,0:0:0:0:
64,192,48027,1,0,0:0:0:0:
448,192,48327,1,0,0:0:0:0:
320,192,48477,1,0,0:0:0:0:
192,192,48777,1,0,0:0:0:0:
64,192,48927,1,0,0:0:0:0:
320,192,49077,1,0,0:0:0:0:
192,192,49227,1,0,0:0:0:0:
448,192,49377,1,0,0:0:0:0:
320,192,49527,1,0,0:0:0:0:
192,192,49677,1,0,0:0:0:0:
448,192,49827,1,0,0:0:0:0:
64,192,49827,128,0,50427:0:0:0:0:
448,192,50127,1,0,0:0:0:0:
320,192,50427,1,2,0:0:0:0:
448,192,50427,1,4,0:0:0:0:
192,192,50427,1,0,0:0:0:0:
64,192,50577,1,0,0:0:0:0:
320,192,50727,1,2,0:0:0:0:
448,192,50727,1,0,0:0:0:0:
64,192,50877,1,0,0:0:0:0:
192,192,51027,1,2,0:0:0:0:
320,192,51027,1,0,0:0:0:0:
448,192,51177,1,0,0:0:0:0:
192,192,51327,1,2,0:0:0:0:
64,192,51327,1,0,0:0:0:0:
320,192,51477,1,0,0:0:0:0:
448,192,51627,1,2,0:0:0:0:
64,192,51627,1,0,0:0:0:0:
192,192,51777,1,0,0:0:0:0:
320,192,51927,1,2,0:0:0:0:
448,192,51927,1,0,0:0:0:0:
192,192,52077,1,0,0:0:0:0:
64,192,52227,1,2,0:0:0:0:
448,192,52227,1,0,0:0:0:0:
192,192,52377,1,0,0:0:0:0:
448,192,52527,1,2,0:0:0:0:
320,192,52527,1,0,0:0:0:0:
64,192,52677,1,0,0:0:0:0:
320,192,52827,1,2,0:0:0:0:
192,192,52827,1,0,0:0:0:0:
448,192,52977,1,0,0:0:0:0:
64,192,53127,1,2,0:0:0:0:
192,192,53127,1,0,0:0:0:0:
448,192,53277,1,0,0:0:0:0:
192,192,53427,1,2,0:0:0:0:
320,192,53427,1,0,0:0:0:0:
64,192,53577,1,0,0:0:0:0:
320,192,53727,1,2,0:0:0:0:
448,192,53727,1,0,0:0:0:0:
192,192,53877,1,0,0:0:0:0:
64,192,54027,1,2,0:0:0:0:
448,192,54027,1,0,0:0:0:0:
320,192,54177,1,0,0:0:0:0:
192,192,54327,1,2,0:0:0:0:
64,192,54327,1,0,0:0:0:0:
320,192,54477,1,0,0:0:0:0:
448,192,54627,1,2,0:0:0:0:
64,192,54627,1,0,0:0:0:0:
320,192,54777,1,0,0:0:0:0:
448,192,54927,1,2,0:0:0:0:
192,192,54927,1,0,0:0:0:0:
64,192,55077,1,0,0:0:0:0:
192,192,55227,1,4,0:0:0:0:
320,192,55227,1,2,0:0:0:0:
448,192,55227,1,0,0:0:0:0:
320,192,55377,1,2,0:0:0:0:
448,192,55377,1,0,0:0:0:0:
192,192,55527,1,2,0:0:0:0:
64,192,55527,1,0,0:0:0:0:
192,192,55677,1,2,0:0:0:0:
64,192,55677,1,0,0:0:0:0:
320,192,55827,1,2,0:0:0:0:
448,192,55827,1,0,0:0:0:0:
320,192,55977,1,2,0:0:0:0:
448,192,55977,1,0,0:0:0:0:
192,192,56127,1,2,0:0:0:0:
64,192,56127,1,0,0:0:0:0:
64,192,56277,1,2,0:0:0:0:
192,192,56277,1,0,0:0:0:0:
320,192,56427,1,2,0:0:0:0:
448,192,56427,1,0,0:0:0:0:
64,192,56502,1,2,0:0:0:0:
192,192,56577,1,2,0:0:0:0:
320,192,56577,1,0,0:0:0:0:
448,192,56652,1,2,0:0:0:0:
64,192,56727,1,2,0:0:0:0:
192,192,56727,1,0,0:0:0:0:
320,192,56802,1,2,0:0:0:0:
448,192,56877,1,2,0:0:0:0:
64,192,56877,1,0,0:0:0:0:
192,192,56952,1,2,0:0:0:0:
448,192,57027,1,2,0:0:0:0:
320,192,57027,1,0,0:0:0:0:
64,192,57102,1,2,0:0:0:0:
192,192,57102,1,0,0:0:0:0:
448,192,57177,1,2,0:0:0:0:
320,192,57177,1,0,0:0:0:0:
64,192,57252,1,2,0:0:0:0:
192,192,57252,1,0,0:0:0:0:
448,192,57327,1,2,0:0:0:0:
320,192,57327,1,0,0:0:0:0:
64,192,57402,1,2,0:0:0:0:
192,192,57402,1,0,0:0:0:0:
448,192,57477,1,2,0:0:0:0:
320,192,57477,1,0,0:0:0:0:
64,192,57552,1,2,0:0:0:0:
192,192,57552,1,0,0:0:0:0:
320,192,57627,1,2,0:0:0:0:
448,192,57627,1,0,0:0:0:0:
64,192,57777,1,0,0:0:0:0:
448,192,57927,1,0,0:0:0:0:
192,192,58077,1,0,0:0:0:0:
320,192,58227,1,0,0:0:0:0:
64,192,58377,1,0,0:0:0:0:
192,192,58527,1,0,0:0:0:0:
448,192,58677,1,0,0:0:0:0:
64,192,58827,1,0,0:0:0:0:
320,192,58977,1,0,0:0:0:0:
192,192,59127,1,0,0:0:0:0:
448,192,59277,1,0,0:0:0:0:
320,192,59427,1,0,0:0:0:0:
64,192,59577,1,0,0:0:0:0:
448,192,59727,1,0,0:0:0:0:
192,192,59877,1,0,0:0:0:0:
64,192,60027,1,2,0:0:0:0:
320,192,60027,128,4,60327:0:0:0:0:
448,192,60027,128,0,60327:0:0:0:0:
64,192,60327,1,0,0:0:0:0:
192,192,60377,1,0,0:0:0:0:
448,192,60427,1,0,0:0:0:0:
320,192,60477,1,0,0:0:0:0:
64,192,60527,1,0,0:0:0:0:
192,192,60577,1,0,0:0:0:0:
448,192,60627,128,0,60927:0:0:0:0:
320,192,60627,1,0,0:0:0:0:
64,192,60927,1,0,0:0:0:0:
192,192,60977,1,0,0:0:0:0:
448,192,61027,1,0,0:0:0:0:
320,192,61077,1,0,0:0:0:0:
64,192,61127,1,0,0:0:0:0:
192,192,61177,1,0,0:0:0:0:
320,192,61227,1,2,0:0:0:0:
448,192,61327,1,0,0:0:0:0:
192,192,61427,1,0,0:0:0:0:
320,192,61527,1,0,0:0:0:0:
64,192,61627,1,0,0:0:0:0:
192,192,61727,1,0,0:0:0:0:
320,192,61827,1,2,0:0:0:0:
448,192,61827,1,0,0:0:0:0:
64,192,61927,1,2,0:0:0:0:
192,192,61927,1,0,0:0:0:0:
320,192,62027,1,2,0:0:0:0:
448,192,62027,1,0,0:0:0:0:
192,192,62127,1,2,0:0:0:0:
64,192,62127,1,0,0:0:0:0:
320,192,62227,1,2,0:0:0:0:
448,192,62227,1,0,0:0:0:0:
192,192,62327,1,2,0:0:0:0:
64,192,62327,1,0,0:0:0:0:
320,192,62427,128,4,62727:0:0:0:0:
448,192,62427,128,2,62727:0:0:0:0:
64,192,62727,1,0,0:0:0:0:
192,192,62777,1,0,0:0:0:0:
448,192,62827,1,0,0:0:0:0:
320,192,62877,1,0,0:0:0:0:
64,192,62927,1,0,0:0:0:0:
192,192,62977,1,0,0:0:0:0:
320,192,63027,1,0,0:0:0:0:
448,192,63027,128,0,63327:0:0:0:0:
64,192,63327,1,0,0:0:0:0:
192,192,63377,1,0,0:0:0:0:
448,192,63427,1,0,0:0:0:0:
320,192,63477,1,0,0:0:0:0:
64,192,63527,1,0,0:0:0:0:
192,192,63577,1,0,0:0:0:0:
320,192,63627,1,2,0:0:0:0:
448,192,63727,1,0,0:0:0:0:
192,192,63827,1,0,0:0:0:0:
64,192,63927,1,0,0:0:0:0:
320,192,64027,1,0,0:0:0:0:
448,192,64127,1,0,0:0:0:0:
64,192,64227,1,2,0:0:0:0:
192,192,64227,128,0,64452:0:0:0:0:
320,192,64452,1,2,0:0:0:0:
448,192,64452,128,0,64677:0:0:0:0:
192,192,64677,1,2,0:0:0:0:
64,192,64677,128,0,64827:0:0:0:0:
320,192,64827,128,4,65127:0:0:0:0:
448,192,64827,128,2,65127:0:0:0:0:
64,192,65127,1,8,0:0:0:0:
192,192,65177,1,0,0:0:0:0:
448,192,65227,1,0,0:0:0:0:
320,192,65277,1,0,0:0:0:0:
64,192,65327,1,0,0:0:0:0:
192,192,65377,1,0,0:0:0:0:
320,192,65427,1,2,0:0:0:0:
448,192,65427,128,0,65727:0:0:0:0:
64,192,65727,1,8,0:0:0:0:
192,192,65777,1,0,0:0:0:0:
448,192,65827,1,0,0:0:0:0:
320,192,65877,1,0,0:0:0:0:
64,192,65927,1,0,0:0:0:0:
192,192,65977,1,0,0:0:0:0:
320,192,66027,1,2,0:0:0:0:
448,192,66127,1,0,0:0:0:0:
192,192,66227,1,0,0:0:0:0:
320,192,66327,1,8,0:0:0:0:
64,192,66427,1,0,0:0:0:0:
192,192,66527,1,0,0:0:0:0:
448,192,66627,1,2,0:0:0:0:
320,192,66727,1,0,0:0:0:0:
64,192,66827,1,0,0:0:0:0:
192,192,66927,1,8,0:0:0:0:
448,192,67027,1,0,0:0:0:0:
320,192,67127,1,0,0:0:0:0:
192,192,67227,128,4,67527:0:0:0:0:
64,192,67227,128,2,67527:0:0:0:0:
448,192,67527,1,8,0:0:0:0:
320,192,67577,1,0,0:0:0:0:
64,192,67627,1,0,0:0:0:0:
192,192,67677,1,0,0:0:0:0:
448,192,67727,1,0,0:0:0:0:
320,192,67777,1,0,0:0:0:0:
192,192,67827,1,2,0:0:0:0:
64,192,67827,128,0,68127:0:0:0:0:
448,192,68127,1,8,0:0:0:0:
320,192,68177,1,0,0:0:0:0:
64,192,68227,1,0,0:0:0:0:
192,192,68277,1,0,0:0:0:0:
448,192,68327,1,0,0:0:0:0:
320,192,68377,1,0,0:0:0:0:
192,192,68427,1,2,0:0:0:0:
64,192,68427,1,0,0:0:0:0:
448,192,68727,1,8,0:0:0:0:
320,192,68777,1,0,0:0:0:0:
64,192,68827,1,0,0:0:0:0:
192,192,68877,1,0,0:0:0:0:
448,192,68927,1,0,0:0:0:0:
320,192,68977,1,0,0:0:0:0:
192,192,69027,1,2,0:0:0:0:
64,192,69027,128,0,69327:0:0:0:0:
448,192,69327,1,8,0:0:0:0:
320,192,69377,1,0,0:0:0:0:
64,192,69427,1,0,0:0:0:0:
192,192,69477,1,0,0:0:0:0:
448,192,69527,1,0,0:0:0:0:
320,192,69577,1,0,0:0:0:0:
64,192,69627,1,2,0:0:0:0:
192,192,69627,1,0,0:0:0:0:
448,192,69777,1,0,0:0:0:0:
192,192,69927,1,8,0:0:0:0:
320,192,69927,1,0,0:0:0:0:
64,192,70077,1,0,0:0:0:0:
320,192,70227,1,2,0:0:0:0:
448,192,70227,1,0,0:0:0:0:
192,192,70377,1,0,0:0:0:0:
64,192,70527,1,8,0:0:0:0:
320,192,70527,1,0,0:0:0:0:
448,192,70677,1,0,0:0:0:0:
320,192,70827,1,2,0:0:0:0:
192,192,70827,1,0,0:0:0:0:
64,192,70977,1,0,0:0:0:0:
192,192,71127,1,8,0:0:0:0:
448,192,71127,1,0,0:0:0:0:
64,192,71277,1,0,0:0:0:0:
320,192,71427,1,2,0:0:0:0:
448,192,71427,1,0,0:0:0:0:
64,192,71577,1,0,0:0:0:0:
320,192,71727,1,8,0:0:0:0:
192,192,71727,1,0,0:0:0:0:
448,192,71877,1,0,0:0:0:0:
64,192,72027,1,2,0:0:0:0:
192,192,72027,1,0,0:0:0:0:
320,192,72177,1,0,0:0:0:0:
192,192,72327,1,8,0:0:0:0:
448,192,72327,1,0,0:0:0:0:
64,192,72477,1,0,0:0:0:0:
448,192,72627,1,2,0:0:0:0:
320,192,72627,1,0,0:0:0:0:
192,192,72777,1,0,0:0:0:0:
64,192,72927,1,8,0:0:0:0:
320,192,72927,1,0,0:0:0:0:
448,192,73077,1,0,0:0:0:0:
192,192,73227,1,2,0:0:0:0:
320,192,73227,1,0,0:0:0:0:
64,192,73377,1,0,0:0:0:0:
448,192,73527,1,8,0:0:0:0:
192,192,73527,1,0,0:0:0:0:
64,192,73677,1,0,0:0:0:0:
448,192,73827,1,2,0:0:0:0:
320,192,73827,1,0,0:0:0:0:
64,192,73977,1,0,0:0:0:0:
192,192,74127,1,8,0:0:0:0:
320,192,74127,1,0,0:0:0:0:
448,192,74277,1,0,0:0:0:0:
192,192,74427,1,0,0:0:0:0:
64,192,74427,1,0,0:0:0:0:
320,192,74577,1,0,0:0:0:0:
192,192,74727,1,8,0:0:0:0:
448,192,74727,128,0,75027:0:0:0:0:
64,192,74877,1,0,0:0:0:0:
320,192,75027,128,0,75327:0:0:0:0:
192,192,75177,1,0,0:0:0:0:
448,192,75327,1,8,0:0:0:0:
64,192,75327,128,0,75627:0:0:0:0:
320,192,75477,1,0,0:0:0:0:
192,192,75627,128,0,75927:0:0:0:0:
448,192,75777,1,0,0:0:0:0:
64,192,75927,128,8,76227:0:0:0:0:
320,192,75927,1,0,0:0:0:0:
448,192,76077,1,0,0:0:0:0:
192,192,76227,128,0,76527:0:0:0:0:
448,192,76377,1,0,0:0:0:0:
64,192,76527,1,8,0:0:0:0:
320,192,76527,128,0,76827:0:0:0:0:
192,192,76827,1,0,0:0:0:0:
448,192,76827,1,4,0:0:0:0:
64,192,76977,1,0,0:0:0:0:
192,192,77127,1,0,0:0:0:0:
320,192,77277,1,0,0:0:0:0:
448,192,77577,1,0,0:0:0:0:
192,192,77727,1,0,0:0:0:0:
320,192,77877,1,0,0:0:0:0:
192,192,78027,1,0,0:0:0:0:
64,192,78177,1,0,0:0:0:0:
64,192,78477,1,0,0:0:0:0:
320,192,78627,1,0,0:0:0:0:
64,192,78777,1,0,0:0:0:0:
448,192,78927,1,0,0:0:0:0:
320,192,79077,1,0,0:0:0:0:
448,192,79227,1,4,0:0:0:0:
192,192,79227,1,2,0:0:0:0:
64,192,79227,1,0,0:0:0:0:
448,192,79527,1,8,0:0:0:0:
320,192,79527,128,0,79677:0:0:0:0:
192,192,79677,1,0,0:0:0:0:
64,192,79677,128,0,79977:0:0:0:0:
448,192,79977,128,0,80127:0:0:0:0:
320,192,79977,1,0,0:0:0:0:
64,192,80127,1,8,0:0:0:0:
192,192,80127,128,0,80427:0:0:0:0:
448,192,80427,1,2,0:0:0:0:
320,192,80427,1,0,0:0:0:0:
192,192,80577,1,0,0:0:0:0:
64,192,80577,1,0,0:0:0:0:
448,192,80727,1,8,0:0:0:0:
192,192,80877,1,0,0:0:0:0:
64,192,80877,1,0,0:0:0:0:
448,192,81027,1,2,0:0:0:0:
320,192,81027,128,0,81327:0:0:0:0:
192,192,81327,128,8,81627:0:0:0:0:
64,192,81327,1,0,0:0:0:0:
64,192,81627,128,2,81927:0:0:0:0:
448,192,81627,1,0,0:0:0:0:
320,192,81927,128,8,82077:0:0:0:0:
192,192,81927,1,0,0:0:0:0:
64,192,82077,1,0,0:0:0:0:
448,192,82077,128,0,82377:0:0:0:0:
320,192,82377,1,0,0:0:0:0:
192,192,82377,128,0,82527:0:0:0:0:
448,192,82527,1,8,0:0:0:0:
64,192,82527,128,0,82827:0:0:0:0:
320,192,82827,1,2,0:0:0:0:
448,192,82827,1,0,0:0:0:0:
64,192,82977,1,0,0:0:0:0:
192,192,82977,1,0,0:0:0:0:
448,192,83127,1,8,0:0:0:0:
192,192,83277,1,0,0:0:0:0:
64,192,83277,1,0,0:0:0:0:
448,192,83427,1,2,0:0:0:0:
320,192,83427,128,0,83727:0:0:0:0:
192,192,83727,128,8,84027:0:0:0:0:
64,192,83727,1,0,0:0:0:0:
448,192,84027,1,2,0:0:0:0:
64,192,84027,128,0,84477:0:0:0:0:
320,192,84327,1,8,0:0:0:0:
192,192,84327,1,0,0:0:0:0:
448,192,84477,128,0,85077:0:0:0:0:
64,192,84627,1,2,0:0:0:0:
320,192,84777,1,0,0:0:0:0:
64,192,84927,1,8,0:0:0:0:
192,192,84927,1,0,0:0:0:0:
320,192,85077,1,0,0:0:0:0:
192,192,85152,1,0,0:0:0:0:
448,192,85227,1,2,0:0:0:0:
64,192,85227,1,0,0:0:0:0:
320,192,85327,1,0,0:0:0:0:
192,192,85427,1,0,0:0:0:0:
64,192,85527,1,8,0:0:0:0:
448,192,85527,1,0,0:0:0:0:
320,192,85627,1,0,0:0:0:0:
192,192,85727,1,0,0:0:0:0:
448,192,85827,1,2,0:0:0:0:
320,192,85827,1,0,0:0:0:0:
64,192,85927,1,0,0:0:0:0:
192,192,86027,1,0,0:0:0:0:
448,192,86127,1,8,0:0:0:0:
320,192,86127,128,0,86427:0:0:0:0:
192,192,86427,128,2,87027:0:0:0:0:
64,192,86427,1,0,0:0:0:0:
448,192,86727,1,8,0:0:0:0:
64,192,86727,1,0,0:0:0:0:
320,192,86877,1,0,0:0:0:0:
448,192,87027,1,2,0:0:0:0:
64,192,87027,128,0,87627:0:0:0:0:
320,192,87327,1,8,0:0:0:0:
192,192,87327,1,0,0:0:0:0:
448,192,87627,1,2,0:0:0:0:
320,192,87627,1,0,0:0:0:0:
320,192,87777,1,2,0:0:0:0:
448,192,87777,1,0,0:0:0:0:
64,192,87927,1,2,0:0:0:0:
192,192,87927,1,8,0:0:0:0:
192,192,88077,1,2,0:0:0:0:
64,192,88077,1,0,0:0:0:0:
320,192,88227,1,2,0:0:0:0:
448,192,88227,1,0,0:0:0:0:
64,192,88302,1,2,0:0:0:0:
320,192,88377,1,2,0:0:0:0:
192,192,88377,1,0,0:0:0:0:
448,192,88452,1,2,0:0:0:0:
64,192,88527,1,2,0:0:0:0:
192,192,88527,1,0,0:0:0:0:
320,192,88602,1,2,0:0:0:0:
448,192,88677,1,2,0:0:0:0:
64,192,88677,1,0,0:0:0:0:
192,192,88752,1,2,0:0:0:0:
320,192,88827,1,4,0:0:0:0:
448,192,88827,1,2,0:0:0:0:
64,192,88827,1,0,0:0:0:0:
192,192,89127,128,8,89277:0:0:0:0:
320,192,89127,1,0,0:0:0:0:
64,192,89277,128,0,89577:0:0:0:0:
448,192,89277,1,0,0:0:0:0:
320,192,89577,128,0,89727:0:0:0:0:
192,192,89577,1,0,0:0:0:0:
64,192,89727,1,8,0:0:0:0:
448,192,89727,128,0,90027:0:0:0:0:
192,192,90027,1,2,0:0:0:0:
320,192,90027,1,0,0:0:0:0:
448,192,90177,1,0,0:0:0:0:
64,192,90177,1,0,0:0:0:0:
320,192,90327,1,8,0:0:0:0:
64,192,90477,1,0,0:0:0:0:
192,192,90477,1,0,0:0:0:0:
448,192,90627,1,2,0:0:0:0:
320,192,90627,128,0,90927:0:0:0:0:
192,192,90927,128,8,91227:0:0:0:0:
64,192,90927,1,0,0:0:0:0:
448,192,91227,128,2,91527:0:0:0:0:
192,192,91527,1,8,0:0:0:0:
320,192,91527,128,0,91677:0:0:0:0:
448,192,91677,1,0,0:0:0:0:
64,192,91677,128,0,91977:0:0:0:0:
192,192,91977,1,0,0:0:0:0:
448,192,91977,128,0,92127:0:0:0:0:
64,192,92127,1,8,0:0:0:0:
320,192,92127,128,0,92427:0:0:0:0:
64,192,92427,1,2,0:0:0:0:
192,192,92427,128,0,92577:0:0:0:0:
320,192,92577,1,0,0:0:0:0:
448,192,92577,128,0,92877:0:0:0:0:
64,192,92877,1,0,0:0:0:0:
192,192,92877,1,0,0:0:0:0:
320,192,93027,1,2,0:0:0:0:
448,192,93027,1,0,0:0:0:0:
64,192,93252,1,0,0:0:0:0:
320,192,93252,1,0,0:0:0:0:
192,192,93477,1,0,0:0:0:0:
448,192,93477,1,0,0:0:0:0:
320,192,93627,1,2,0:0:0:0:
64,192,93627,1,0,0:0:0:0:
448,192,93627,1,0,0:0:0:0:
64,192,93927,1,8,0:0:0:0:
448,192,93927,1,0,0:0:0:0:
320,192,94027,1,0,0:0:0:0:
192,192,94127,1,0,0:0:0:0:
64,192,94227,1,2,0:0:0:0:
448,192,94227,1,0,0:0:0:0:
192,192,94327,1,0,0:0:0:0:
320,192,94427,1,0,0:0:0:0:
64,192,94527,1,8,0:0:0:0:
448,192,94527,1,0,0:0:0:0:
320,192,94627,1,0,0:0:0:0:
192,192,94727,1,0,0:0:0:0:
320,192,94827,1,2,0:0:0:0:
448,192,94827,1,0,0:0:0:0:
64,192,94977,1,0,0:0:0:0:
448,192,95127,1,8,0:0:0:0:
320,192,95127,1,0,0:0:0:0:
192,192,95202,1,0,0:0:0:0:
448,192,95352,1,0,0:0:0:0:
320,192,95427,1,2,0:0:0:0:
64,192,95427,128,0,95727:0:0:0:0:
192,192,95727,128,8,96027:0:0:0:0:
448,192,95727,1,0,0:0:0:0:
320,192,96027,128,2,96627:0:0:0:0:
64,192,96027,1,0,0:0:0:0:
192,192,96327,1,8,0:0:0:0:
448,192,96327,1,0,0:0:0:0:
64,192,96477,1,0,0:0:0:0:
448,192,96627,128,2,97227:0:0:0:0:
192,192,96627,1,0,0:0:0:0:
64,192,96927,1,8,0:0:0:0:
320,192,96927,1,0,0:0:0:0:
192,192,97227,1,0,0:0:0:0:
320,192,97377,1,0,0:0:0:0:
64,192,97527,1,0,0:0:0:0:
192,192,97677,1,0,0:0:0:0:
448,192,97827,1,0,0:0:0:0:
320,192,97902,1,0,0:0:0:0:
192,192,97977,1,0,0:0:0:0:
64,192,98052,1,0,0:0:0:0:
448,192,98127,1,0,0:0:0:0:
320,192,98202,1,0,0:0:0:0:
192,192,98277,1,0,0:0:0:0:
64,192,98352,1,0,0:0:0:0:
320,192,98427,1,2,0:0:0:0:
448,192,98427,1,4,0:0:0:0:
192,192,98577,1,0,0:0:0:0:
64,192,98727,1,8,0:0:0:0:
320,192,98727,1,0,0:0:0:0:
448,192,98877,1,0,0:0:0:0:
192,192,98952,1,0,0:0:0:0:
192,192,99102,1,0,0:0:0:0:
320,192,99177,1,0,0:0:0:0:
64,192,99327,1,8,0:0:0:0:
448,192,99327,1,0,0:0:0:0:
192,192,99477,1,0,0:0:0:0:
64,192,99627,1,2,0:0:0:0:
320,192,99627,1,0,0:0:0:0:
448,192,99777,1,0,0:0:0:0:
320,192,99927,1,8,0:0:0:0:
192,192,99927,1,0,0:0:0:0:
64,192,100077,1,0,0:0:0:0:
448,192,100152,1,0,0:0:0:0:
448,192,100302,1,0,0:0:0:0:
192,192,100452,1,0,0:0:0:0:
320,192,100527,1,8,0:0:0:0:
448,192,100527,1,0,0:0:0:0:
64,192,100677,1,0,0:0:0:0:
320,192,100827,1,2,0:0:0:0:
192,192,100827,1,0,0:0:0:0:
448,192,100977,1,0,0:0:0:0:
64,192,101127,1,8,0:0:0:0:
320,192,101127,1,0,0:0:0:0:
192,192,101277,1,0,0:0:0:0:
448,192,101352,1,0,0:0:0:0:
448,192,101502,1,0,0:0:0:0:
64,192,101577,1,0,0:0:0:0:
192,192,101727,1,8,0:0:0:0:
320,192,101727,1,0,0:0:0:0:
448,192,101877,1,0,0:0:0:0:
192,192,102027,1,2,0:0:0:0:
64,192,102027,1,0,0:0:0:0:
320,192,102177,1,0,0:0:0:0:
64,192,102327,1,8,0:0:0:0:
448,192,102327,1,0,0:0:0:0:
448,192,102477,1,2,0:0:0:0:
320,192,102477,1,0,0:0:0:0:
192,192,102552,1,2,0:0:0:0:
64,192,102552,1,0,0:0:0:0:
192,192,102702,1,2,0:0:0:0:
448,192,102702,1,0,0:0:0:0:
320,192,102852,1,2,0:0:0:0:
64,192,102852,1,0,0:0:0:0:
448,192,103002,1,2,0:0:0:0:
64,192,103002,1,0,0:0:0:0:
320,192,103152,1,2,0:0:0:0:
448,192,103152,1,0,0:0:0:0:
192,192,103227,1,2,0:0:0:0:
64,192,103227,1,4,0:0:0:0:
448,192,103377,1,0,0:0:0:0:
192,192,103527,1,8,0:0:0:0:
320,192,103527,1,0,0:0:0:0:
64,192,103677,1,0,0:0:0:0:
448,192,103752,1,0,0:0:0:0:
448,192,103902,1,0,0:0:0:0:
192,192,103977,1,0,0:0:0:0:
64,192,104127,1,8,0:0:0:0:
320,192,104127,1,0,0:0:0:0:
192,192,104277,1,0,0:0:0:0:
320,192,104427,1,2,0:0:0:0:
448,192,104427,1,0,0:0:0:0:
64,192,104577,1,0,0:0:0:0:
320,192,104727,1,8,0:0:0:0:
192,192,104727,1,0,0:0:0:0:
448,192,104877,1,0,0:0:0:0:
64,192,104952,1,0,0:0:0:0:
64,192,105102,1,0,0:0:0:0:
320,192,105252,1,0,0:0:0:0:
192,192,105327,1,8,0:0:0:0:
448,192,105327,1,0,0:0:0:0:
64,192,105477,1,0,0:0:0:0:
320,192,105627,1,2,0:0:0:0:
192,192,105627,1,0,0:0:0:0:
448,192,105777,1,0,0:0:0:0:
64,192,105927,1,8,0:0:0:0:
192,192,105927,1,0,0:0:0:0:
320,192,106077,1,0,0:0:0:0:
64,192,106152,1,0,0:0:0:0:
64,192,106302,1,0,0:0:0:0:
320,192,106377,1,0,0:0:0:0:
192,192,106527,1,8,0:0:0:0:
448,192,106527,1,0,0:0:0:0:
64,192,106677,1,0,0:0:0:0:
320,192,106827,1,2,0:0:0:0:
448,192,106827,1,0,0:0:0:0:
192,192,106977,1,0,0:0:0:0:
320,192,107127,1,8,0:0:0:0:
64,192,107127,1,0,0:0:0:0:
448,192,107277,1,0,0:0:0:0:
320,192,107352,1,0,0:0:0:0:
192,192,107427,1,2,0:0:0:0:
64,192,107427,1,0,0:0:0:0:
320,192,107727,1,8,0:0:0:0:
448,192,107727,1,0,0:0:0:0:
192,192,108027,128,2,108327:0:0:0:0:
64,192,108027,128,0,108327:0:0:0:0:
320,192,108327,1,8,0:0:0:0:
448,192,108327,1,0,0:0:0:0:
448,192,108627,1,2,0:0:0:0:
192,192,108627,1,0,0:0:0:0:
64,192,108852,1,2,0:0:0:0:
320,192,108852,1,0,0:0:0:0:
64,192,109077,1,2,0:0:0:0:
448,192,109077,1,0,0:0:0:0:
320,192,109227,1,8,0:0:0:0:
192,192,109377,1,2,0:0:0:0:
448,192,109377,1,0,0:0:0:0:
320,192,109527,1,2,0:0:0:0:
64,192,109527,1,0,0:0:0:0:
192,192,109677,1,8,0:0:0:0:
320,192,109827,1,2,0:0:0:0:
448,192,109827,1,0,0:0:0:0:
192,192,109977,1,2,0:0:0:0:
64,192,109977,1,0,0:0:0:0:
448,192,110127,1,8,0:0:0:0:
64,192,110277,1,2,0:0:0:0:
192,192,110277,1,0,0:0:0:0:
320,192,110427,1,2,0:0:0:0:
448,192,110427,1,0,0:0:0:0:
64,192,110577,1,8,0:0:0:0:
320,192,110727,1,2,0:0:0:0:
192,192,110727,1,0,0:0:0:0:
64,192,110877,1,2,0:0:0:0:
448,192,110877,1,0,0:0:0:0:
320,192,111027,1,8,0:0:0:0:
192,192,111177,1,2,0:0:0:0:
64,192,111177,1,0,0:0:0:0:
320,192,111327,1,2,0:0:0:0:
448,192,111327,1,0,0:0:0:0:
64,192,111477,1,4,0:0:0:0:
192,192,111477,1,8,0:0:0:0:
448,192,111627,1,0,0:0:0:0:
320,192,111702,1,0,0:0:0:0:
64,192,111777,1,0,0:0:0:0:
192,192,111852,1,0,0:0:0:0:
320,192,111927,1,0,0:0:0:0:
448,192,112002,1,0,0:0:0:0:
192,192,112077,1,0,0:0:0:0:
320,192,112152,1,0,0:0:0:0:
64,192,112227,1,0,0:0:0:0:
192,192,112302,1,0,0:0:0:0:
448,192,112377,1,0,0:0:0:0:
320,192,112452,1,0,0:0:0:0:
192,192,112527,1,0,0:0:0:0:
64,192,112602,1,0,0:0:0:0:
448,192,112677,1,0,0:0:0:0:
320,192,112752,1,0,0:0:0:0:
64,192,112827,1,0,0:0:0:0:
192,192,112902,1,0,0:0:0:0:
320,192,112977,1,0,0:0:0:0:
448,192,113052,1,0,0:0:0:0:
192,192,113127,1,0,0:0:0:0:
320,192,113202,1,0,0:0:0:0:
64,192,113277,1,0,0:0:0:0:
192,192,113352,1,0,0:0:0:0:
448,192,113427,1,0,0:0:0:0:
320,192,113502,1,0,0:0:0:0:
192,192,113577,1,0,0:0:0:0:
64,192,113652,1,0,0:0:0:0:
448,192,113727,1,0,0:0:0:0:
320,192,113802,1,0,0:0:0:0:
192,192,113877,1,0,0:0:0:0:
64,192,113952,1,0,0:0:0:0:
320,192,114027,1,0,0:0:0:0:
448,192,114027,128,0,117927:0:0:0:0:
64,192,115227,1,0,0:0:0:0:
192,192,115302,1,0,0:0:0:0:
320,192,115377,1,0,0:0:0:0:
