osu file format v5

[General]
AudioFilename: Kimi e to Tsunagu Kokoro (TV Size).mp3
AudioLeadIn: 2640
PreviewTime: 360
Countdown: 0
SampleSet: Normal
StackLeniency: 0.3
Mode: 0
LetterboxInBreaks: 0

[Editor]
Bookmarks: 360,6360,12360,18360,24360,30360,36360,42360,48360,54360,60360,66360,72360,78360,84360,90360
DistanceSpacing: 0.800000011920929
BeatDivisor: 4
GridSize: 32

[Metadata]
Title:Kimi e to Tsunagu Kokoro (TV Size)
Artist:Kanamemo
Creator:DJPop
Version:Insane
Source:Toyosaki Aki & Mizuhara Kaoru & Kugimiya Rie
Tags:anime toyosaki aki mizuhara kaoru kugimiya rie nakamachi kana amano saki kujiin mika

[Difficulty]
HPDrainRate:5
CircleSize:5
OverallDifficulty:8
SliderMultiplier:1.9
SliderTickRate:2

[Events]
//Background and Video events
0,0,"Kimi e to Tsunagu Kokoro (TV Size).png"
Video,-200,"Kimi e to Tsunagu Kokoro (TV Size).avi"
//Break Periods
//Storyboard Layer 0 (Background)
//Storyboard Layer 1 (Fail)
//Storyboard Layer 2 (Pass)
//Storyboard Layer 3 (Foreground)
//Storyboard Sound Samples
Sample,90922,0,"sb2.wav",85
//Background Colour Transformations
3,100,0,0,0

[TimingPoints]
350,375,4,1,0,80,1,0
60350,-100,4,1,0,80,0,1
84256,-100,4,1,0,80,0,0
86787,-100,4,1,0,40,0,0
87068,-100,4,1,0,50,0,0
87162,-100,4,1,0,60,0,0
87256,-100,4,1,0,70,0,0
87350,-100,4,1,0,80,0,0

[Colours]
Combo1 : 255,255,0
Combo2 : 0,255,0
Combo3 : 0,0,255
Combo4 : 255,0,0

[HitObjects]
448,352,350,5,4
256,352,725,1,0
64,352,1100,1,0
64,32,1662,1,4
160,192,2037,1,0
160,192,2225,1,0
256,352,2600,1,0
352,192,2975,1,0
448,32,3350,5,4
256,32,3725,1,0
64,32,4100,1,0
256,352,4662,1,4
256,224,5037,1,0
256,160,5225,1,0
256,224,5412,1,0
256,160,5600,1,0
128,160,5975,1,0
64,192,6162,1,0
32,256,6350,6,0,B|32:374|160:352,2,190,0|8|0
64,192,7287,1,0
128,160,7475,2,0,B|246:160|224:288,1,190,8|0
224,352,8037,1,0
288,352,8225,1,8
352,352,8412,1,0
416,352,8600,2,0,B|448:352|448:288|480:288,1,95
480,224,8975,2,0,B|448:224|448:160|416:160,1,95,8|0
352,192,9350,5,2
352,192,9537,1,2
256,288,9912,1,2
256,288,10100,1,2
160,192,10475,1,2
160,192,10662,1,2
256,96,11037,1,2
256,96,11225,1,2
256,192,11975,5,0
96,224,12350,2,0,B|43:210|32:160,1,95,4|0
96,128,12725,1,8
32,96,12912,2,0,B|45:44|96:32,2,95
96,128,13475,1,8
32,288,13850,6,0,B|45:340|96:352,1,95
128,288,14225,1,8
160,352,14412,2,0,B|210:341|224:288,2,95
128,288,14975,1,8
288,352,15350,6,0,B|384:352,1,95
448,320,15725,1,8
384,288,15912,2,0,B|288:288,1,95
288,224,16287,2,0,B|384:224,1,95,0|8
448,256,16662,1,0
480,96,17037,5,0
416,64,17225,1,8
480,32,17412,1,0
320,32,17787,2,0,B|224:32,1,95,0|8
160,32,18162,1,8
128,32,18256,1,8
96,32,18350,1,4
32,192,18725,5,8
96,352,19100,2,0,B|148:339|160:288,1,95
160,224,19475,1,8
160,160,19662,2,0,B|168:96|224:90|280:96|288:160,1,190
288,224,20225,1,8
288,288,20412,2,0,B|301:340|352:352,1,95
416,352,20787,1,0
480,320,20975,1,8
416,288,21162,2,0,B|404:237|352:224,1,95
480,128,21725,5,8
352,32,22100,2,0,B|256:32,2,95,0|0|8
416,32,22662,2,0,B|416:104|385:130|320:128|288:96,1,190
224,96,23225,1,8
192,32,23412,2,0,B|96:32,1,95
64,96,23787,1,0
32,32,23975,1,8
64,96,24162,2,0,B|160:96,1,95
32,224,24725,5,8
160,352,25100,2,0,B|64:352,2,95,0|0|8
224,352,25662,2,0,B|416:352,1,190
480,352,26225,1,8
480,288,26412,2,0,B|480:256|416:256|416:224,1,95
480,192,26787,1,0
416,160,26975,1,8
480,128,27162,1,0
416,96,27350,6,0,B|400:64|336:22|272:64|256:96,1,190,0|8
256,288,28100,1,0
256,224,28287,1,0
256,160,28475,2,0,B|160:160,1,95,8|0
32,32,29037,1,10
32,96,29225,1,10
32,160,29412,1,10
32,352,29787,1,10
32,288,29975,1,10
32,224,30162,1,8
64,208,30256,1,8
96,192,30350,1,4
288,192,30725,5,8
480,192,31100,2,0,B|480:224|448:224|416:224|416:192,1,95
416,128,31475,1,8
480,128,31662,1,0
480,288,32037,2,0,B|467:340|416:352,1,95,0|8
384,288,32412,2,0,B|330:303|320:352,1,95
256,320,32787,1,0
192,288,32975,1,8
128,320,33162,2,0,B|32:320,1,95
160,192,33725,5,8
32,64,34100,2,0,B|128:64,1,95
192,96,34475,1,8
192,32,34662,1,0
352,96,35037,2,0,B|384:96|384:32|416:32,1,95,0|8
416,32,35412,2,0,B|448:32|448:96|480:96,1,95
480,96,35787,1,0
448,160,35975,1,8
384,160,36162,1,0
352,96,36350,2,0,B|234:96|256:224,1,190,0|8
96,256,37100,5,0
32,288,37287,1,0
96,320,37475,1,8
160,288,37662,2,0,B|256:256|224:384|320:352,1,190
384,320,38225,1,8
480,160,38600,1,0
448,96,38787,1,0
384,96,38975,1,8
352,160,39162,1,0
416,160,39350,5,0
256,160,39725,1,8
96,160,40100,1,0
96,160,40287,1,8
256,160,40662,1,12
224,352,41037,1,0
160,320,41225,1,8
96,288,41412,1,0
80,256,41506,1,0
64,224,41600,1,0
32,160,41787,1,8
64,96,41975,1,8
80,64,42068,1,8
96,32,42162,1,0
160,64,42350,5,12
192,64,42443,1,0
224,64,42537,1,0
224,128,42725,1,8
256,128,42818,1,0
288,128,42912,1,0
288,192,43100,1,8
320,192,43193,1,0
352,192,43287,1,0
384,192,43381,1,0
416,192,43475,1,8
416,256,43662,5,0
480,272,43850,1,8
480,336,44037,1,0
416,352,44225,2,0,B|320:352,1,95,8|0
288,288,44600,2,0,B|192:256|224:384|128:352,1,190,8|8
32,224,45350,5,8
64,224,45443,1,0
96,224,45537,1,0
96,160,45725,1,8
128,160,45818,1,0
160,160,45912,1,0
192,160,46006,1,0
224,160,46100,1,8
256,160,46193,1,0
288,160,46287,1,0
288,96,46475,1,8
352,96,46662,1,0
352,32,46850,6,0,B|480:10|480:128,1,190,8|8
480,192,47412,1,0
416,192,47600,1,8
416,256,47787,1,8
384,256,47881,1,8
352,256,47975,1,8
352,320,48162,1,8
320,320,48256,1,8
288,320,48350,6,0,B|96:320,1,190,4|8
32,160,49100,2,0,B|32:256,2,95,0|0|8
64,96,49662,1,0
128,64,49850,1,0
192,96,50037,1,0
224,160,50225,2,0,B|224:256,1,95,8|0
384,352,50787,5,0
416,288,50975,1,8
448,224,51162,1,0
480,160,51350,2,0,B|480:64,1,95
480,64,51725,1,8
320,64,52100,2,0,B|320:160,2,95,0|0|8
256,32,52662,1,0
192,64,52850,1,0
128,32,53037,1,0
64,64,53225,1,8
128,96,53412,2,0,B|128:192,2,95
128,32,53975,1,8
32,192,54350,5,2
32,256,54537,2,0,B|32:288|96:288|96:320,1,95,2|8
160,352,54912,2,2,B|256:384|224:256|320:288,1,190,6|0
320,352,55475,1,10
480,224,55850,1,2
416,192,56037,1,2
480,160,56225,1,10
414,128,56412,2,2,B|320:160|352:31|256:63,1,190,6|0
256,64,56975,1,10
32,32,57350,6,0,B|86:47|96:96,1,95,8|0
32,128,57725,2,0,B|44:179|96:192,1,95,8|0
96,256,58100,2,0,B|43:270|32:320,1,95,8|0
96,352,58475,1,8
96,352,58662,1,4
256,352,59037,1,2
320,320,59225,1,10
256,288,59412,2,2,B|208:256|201:208|208:160|256:128,1,190,6|2
320,96,59975,1,10
256,64,60162,1,8
288,48,60256,1,8
320,32,60350,6,0,B|416:0|384:128|480:96,2,190,4|8|0
320,96,61287,1,0
320,160,61475,1,8
320,224,61662,2,0,B|416:256|384:128|480:160,1,190
480,224,62225,2,0,B|480:256|416:256|416:288,1,95,8|0
384,352,62600,2,0,B|352:352|352:288|320:288,1,95
256,256,62975,2,0,B|248:232|224:203|200:232|192:256,1,95,8|0
128,288,63350,6,0,B|162:382|288:352,2,190,0|8|0
96,224,64287,1,0
64,160,64475,1,8
32,96,64662,1,4
192,32,65037,1,0
256,32,65225,1,8
320,32,65412,1,0
384,32,65600,2,0,B|480:32,1,95
480,96,65975,1,8
480,160,66162,1,0
416,192,66350,6,0,B|416:288,1,95
480,320,66725,2,0,B|464:352|432:368|400:363|368:368|336:352|320:320,1,190,8|0
256,288,67287,1,0
192,320,67475,1,8
128,352,67662,1,0
64,320,67850,2,0,B|16:320|8:271|32:256,1,95
96,256,68225,1,8
64,96,68600,2,0,B|112:96|120:47|96:32,1,95
32,32,68975,1,8
208,32,69350,6,0,C|280:96,1,95
312,32,69725,1,8
344,95,69912,2,0,C|416:32,1,95
448,96,70287,1,0
480,32,70475,1,12
480,224,70850,1,0
448,288,71037,1,2
384,320,71225,1,10
320,352,71412,2,0,B|224:352,1,95,2|0
160,320,71787,1,2
96,288,71975,1,10
64,224,72162,1,8
48,192,72256,1,8
32,160,72350,5,4
64,96,72537,1,0
96,32,72725,1,8
288,96,73100,1,0
256,160,73287,1,0
224,96,73475,1,8
256,32,73662,1,0
448,32,74037,1,0
480,96,74225,2,0,B|480:128|416:128|416:160,1,95,8|0
448,224,74600,1,0
480,288,74787,1,0
448,352,74975,2,0,B|416:352|416:288|384:288,1,95,8|0
320,320,75350,5,0
256,352,75537,1,0
192,320,75725,1,8
256,160,76100,1,0
288,96,76287,1,0
256,32,76475,1,8
224,96,76662,2,0,B|32:96,1,190
32,160,77225,1,8
96,160,77412,1,0
96,224,77600,2,0,B|96:256|32:256|32:288,1,95
32,352,77975,1,8
96,352,78162,1,0
160,352,78350,6,0,B|160:256,1,95
224,256,78725,2,0,B|320:224|288:352|384:320,1,190,8|0
448,288,79287,1,0
480,224,79475,2,0,B|512:128|384:160|416:64,1,190,8|0
352,32,80037,1,0
288,64,80225,1,8
224,96,80412,1,0
192,32,80600,2,0,B|96:32,1,95
32,64,80975,2,0,B|32:160,1,95,8|0
96,192,81350,5,2
96,192,81537,1,2
256,352,81912,1,2
256,352,82100,1,2
416,192,82475,1,2
416,192,82662,1,2
256,32,83037,1,2
256,32,83225,1,2
256,192,83600,1,8
256,192,83787,1,8
256,216,83881,1,8
256,240,83975,1,8
256,264,84068,1,8
256,288,84162,1,0
256,352,84350,5,4
320,352,84537,2,0,B|369:342|384:288,1,95,0|8
448,288,84912,1,0
480,352,85100,1,0
480,176,85475,5,8
480,176,85662,2,0,B|480:80,1,95
432,32,86037,1,0
384,80,86225,2,0,B|384:176,1,95,8|0
384,176,86600,1,0
256,32,86975,6,8,B|256:0,7,23.75
256,32,87350,5,0
192,32,87537,2,0,B|140:44|128:96,1,95,0|8
64,96,87912,1,0
32,32,88100,1,0
32,208,88475,5,8
48,272,88662,2,0,B|75:310|128:320,1,95
192,336,89037,1,8
256,320,89225,5,8
288,304,89318,1,8
304,272,89412,1,8
288,240,89506,1,0
256,224,89600,1,8
256,160,89787,5,8
224,144,89881,1,8
208,112,89975,1,8
224,80,90068,1,8
256,64,90162,1,0
320,48,90350,5,2
256,192,90396,12,10,91475
