osu file format v9

[General]
AudioFilename: Tsuki hana no inori full (Ayumi song).mp3
AudioLeadIn: 3000
PreviewTime: -1
Countdown: 0
SampleSet: Soft
StackLeniency: 0.7
Mode: 0
LetterboxInBreaks: 0

[Editor]
DistanceSpacing: 0.8
BeatDivisor: 2
GridSize: 8

[Metadata]
Title:Tsuki Hana no Inori
Artist:Kanako Sakai
Creator:Chimuts
Version:Snowstorm
Source:Kaze no Stigma
Tags:

[Difficulty]
HPDrainRate:7
CircleSize:6
OverallDifficulty:5
ApproachRate:5
SliderMultiplier:0.7
SliderTickRate:1

[Events]
//Background and Video events
0,0,"RenAyumi01-2.jpg"
Video,40339,"tsuki2.avi"
//Break Periods
2,39459,39704
2,86309,89430
2,115898,116964
2,136680,137700
//Storyboard Layer 0 (Background)
//Storyboard Layer 1 (Fail)
//Storyboard Layer 2 (Pass)
//Storyboard Layer 3 (Foreground)
//Storyboard Sound Samples
//Background Colour Transformations
3,100,163,162,255

[TimingPoints]
720,405.405405405405,3,2,0,60,1,0
17341,-200,3,2,0,60,0,0
19174,-200,3,2,0,30,0,0
19667,-200,3,2,0,21,0,0
20179,-200,3,2,0,0,0,0
20584,-100,3,2,0,60,0,0
22000,410.958904109589,3,2,0,60,1,0
85493,-100,3,2,0,44,0,0
85904,-100,3,2,0,31,0,0
90219,-100,3,2,0,60,0,1
106246,-100,3,2,0,60,0,0
129260,434.782608695652,3,2,0,60,1,0
130564,476.190476190476,3,2,0,60,1,0
130564,-200,3,2,0,60,0,0
136480,483.870967741935,3,2,0,60,1,0
138900,406.091370558376,3,2,0,60,1,0
142790,-100,3,2,0,57,0,0
143200,-100,3,2,0,41,0,0
144019,-200,3,2,0,25,0,0
144901,-200,3,2,0,13,0,0

[Colours]
Combo1 : 89,89,89
Combo2 : 164,164,255
Combo3 : 7,94,222
Combo4 : 17,130,130

[HitObjects]
88,192,720,2,0,B|112:224|160:224,1,70
200,224,1530,1,2
424,192,3152,2,0,B|400:224|352:224,1,70
312,224,3963,1,2
256,224,4368,1,2
136,80,5584,5,0
136,80,5990,1,2
200,80,6395,1,0
200,80,6801,1,2
264,80,7206,1,0
264,80,7611,1,2
264,144,8017,2,0,B|272:136|272:136|280:144|280:144|288:136|288:136|296:144|296:144|304:136|304:136|312:144|312:144|320:136|320:136|328:144|328:144|336:136|336:136|344:144|344:144|352:136|352:136|360:144|360:144|368:136,1,140
416,184,9233,1,2
416,184,9638,1,2
256,48,10449,6,0,B|216:56|192:96,1,70
168,136,11260,1,2
256,336,12882,6,0,B|296:328|320:288,1,70
344,256,13692,1,2
360,200,14098,1,2
64,56,15314,5,2
448,56,16125,5,0
448,328,16936,5,0
64,328,17747,2,0,B|128:304|160:208|72:224|64:336,1,210
256,192,22000,5,0
256,136,22410,1,0
224,80,22821,2,0,B|304:80,1,70
296,192,23643,6,0,B|224:192,1,70
256,272,24465,5,0
320,304,24876,2,0,B|360:312|384:272,2,70
328,232,26109,2,2,B|328:160,1,70
248,152,26931,5,0
200,208,27342,2,0,B|200:280,1,70
144,320,28164,1,2
80,352,28575,2,0,B|40:336|40:296,2,70
136,304,29808,1,0
136,240,30219,1,2
48,48,31041,6,0,B|64:40|64:40|80:48|80:48|96:40|96:40|112:48,1,70
80,96,31863,2,0,B|80:176,1,70
48,216,32684,1,0
112,216,33095,1,2
104,320,33506,6,0,B|160:320|184:312|168:272|152:320|184:320|152:288|184:288|152:312|176:320|248:320,1,140
256,216,34739,2,2,B|256:144,2,70
408,64,35972,6,0,B|352:64|328:72|344:112|360:64|328:64|360:96|328:96|360:72|336:64|264:64,1,140
256,168,37205,2,2,B|256:240,2,70
192,280,38438,6,2,B|248:280|272:288|256:328|240:280|272:280|240:312|272:312|240:288|264:280|336:280,1,140
360,320,40904,6,0,B|448:320|448:232,1,140
328,216,42136,2,0,B|392:264,2,70
344,152,43369,2,0,B|320:152|288:152|264:168|256:184|256:216|264:232|272:248|288:256,1,140
208,216,44602,1,0
184,192,44808,1,0
160,168,45013,1,0
208,120,45424,1,0
152,80,45835,6,0,B|64:80|64:168,1,140
184,184,47068,2,0,B|120:136,2,70
168,248,48301,2,0,B|192:248|224:248|248:232|256:216|256:184|248:168|240:152|224:144,1,140
352,192,49945,1,2
224,72,50767,6,0,B|264:48|312:88,2,70
256,120,52000,1,2
256,152,52205,1,2
256,184,52410,1,2
256,248,52821,1,0
200,280,53232,2,0,B|248:328|264:328|320:280,1,140
40,192,54876,5,2
256,192,55698,1,2
472,192,56520,1,6
144,72,58164,5,0
368,72,58575,5,0
256,296,58986,6,0,B|256:80,1,210
336,152,60630,6,0,B|336:224|408:280,1,140
416,200,61863,1,0
416,168,62068,1,0
416,136,62273,1,0
368,88,62684,2,0,B|336:72|288:104,3,70
264,96,64123,5,2
232,96,64328,1,0
200,96,64534,1,2
168,96,64739,1,0
80,160,65150,1,2
88,272,65561,5,0
88,272,65972,2,0,B|184:272,1,70
216,272,66794,1,0
248,272,67000,1,0
280,272,67205,1,0
344,272,67616,2,0,B|384:240|344:208,3,70
304,160,69260,1,0
272,160,69465,1,0
240,160,69671,1,0
128,112,70082,1,0
72,200,70493,6,0,B|48:152|64:112,2,70
168,200,71726,1,0
168,200,71931,1,0
168,200,72136,1,0
192,288,72547,2,0,B|248:288|272:240,1,70
328,216,73780,2,0,B|328:184|360:144|360:144|328:120|328:80,2,140
344,288,76246,1,6
216,288,76657,5,2
184,288,76863,1,2
152,288,77068,1,2
80,216,77479,6,0,B|80:192|56:192|56:192|80:160|80:144,2,70
144,216,78712,1,0
176,208,78917,1,2
192,176,79123,1,0
200,144,79328,1,2
200,112,79534,1,0
256,48,79945,1,2
408,112,80767,5,0
408,184,81178,1,0
408,184,81589,1,2
360,232,81999,1,0
360,232,82410,1,2
312,280,82821,1,0
312,280,83232,1,2
256,320,83643,2,6,B|176:320|128:248,1,140
80,152,85287,5,0
256,48,85698,5,0
432,152,86109,5,2
336,192,90630,5,0
416,192,91041,2,0,B|416:264|368:272,1,70
396,257,91657,1,2
396,257,91863,1,2
320,288,92273,1,0
248,288,92684,2,2,B|176:288|128:224,2,140
224,224,94739,1,0
248,160,95150,6,0,B|224:120|256:88,2,70
272,160,96178,1,0
296,160,96383,1,0
368,160,96794,2,0,B|368:232|272:288,1,140
240,312,98027,1,2
176,288,98438,2,2,B|136:224|144:152,1,140
168,80,99671,5,0
256,80,100082,5,0
288,80,100287,5,0
320,80,100493,5,0
256,144,100904,5,0
312,192,101315,1,2
288,248,101726,1,0
224,248,102136,1,2
200,192,102547,1,0
256,192,102958,1,2
160,232,103369,2,0,B|184:272|224:296,1,70
352,232,104191,2,0,B|328:272|288:296,1,70
256,280,105013,2,4,B|256:136,1,140
256,192,106657,12,4,108301
256,192,109123,5,4
176,112,109945,5,0
256,72,110356,1,2
336,112,110767,1,0
256,136,111178,5,2
256,168,111383,1,0
256,200,111589,1,2
224,240,111999,2,0,B|248:256|280:256|312:224,1,70
352,240,112821,1,2
384,192,113232,2,0,B|408:160|360:128,2,70
256,184,114465,1,0
96,256,114876,5,2
256,320,115287,5,0
416,256,115698,5,4
256,80,118164,5,2
200,120,118575,1,2
224,184,118986,1,0
288,184,119397,1,0
312,120,119808,1,2
256,80,120219,1,2
256,144,120630,2,0,B|256:232,3,70
192,264,122273,5,2
192,264,122684,1,2
240,304,123095,1,0
304,304,123506,1,2
328,288,123712,1,2
344,256,123917,1,2
256,192,124328,1,2
224,136,124739,2,0,B|240:128|272:128|296:136,1,70
292,134,125561,1,6
256,192,126794,12,4,128027
216,192,128438,6,0,B|288:192,2,70
88,328,129694,5,0
136,328,130129,1,0
184,328,130564,2,0,B|224:328|224:280|272:280,1,105
320,256,132468,5,0
392,256,133421,2,0,B|392:208|352:208|352:160,1,105
304,120,135325,5,0
32,72,136480,5,2
128,136,138900,5,0
192,96,139306,1,2
256,64,139712,1,0
320,96,140118,1,2
368,144,140524,1,0
256,184,140930,2,2,B|256:112,2,70
256,184,142148,5,0
328,232,142554,1,2
296,304,142960,1,0
216,304,143367,1,2
184,232,143773,1,0
256,248,144179,2,2,B|256:296,2,35
