osu file format v5

[General]
AudioFilename: Soyokaze Life.mp3
AudioLeadIn: 0
PreviewTime: -1
Countdown: 0
SampleSet: Normal
StackLeniency: 0.5
Mode: 0
LetterboxInBreaks: 1
EditorBookmarks: 19348,65190,71778
EditorDistanceSpacing: 0.400000005960464

[Metadata]
Title:Soyokaze Life
Artist:Kanako Sakai
Creator:Mystearica
Version:Charming
Source:
Tags:Anime J-Pop

[Difficulty]
HPDrainRate:8
CircleSize:5
OverallDifficulty:6
SliderMultiplier:1.4
SliderTickRate:0.5

[Events]
//Background and Video events
0,0,"Summer.jpg"
//Break Periods
2,63287,72991
2,117119,126963
//Storyboard Layer 0 (Background)
//Storyboard Layer 1 (Fail)
//Storyboard Layer 2 (Pass)
//Storyboard Layer 3 (Foreground)
//Storyboard Sound Samples
//Background Colour Transformations
3,100,208,208,208

[TimingPoints]
10369,560.747663551402,4,1,0,50,1,0
36311,-100,4,1,0,0,0,0
37713,-100,4,1,0,50,0,0
89862,-100,4,1,0,0,0,0
91825,-100,4,1,0,50,0,0
104162,-100,4,1,0,0,0,0
105143,-100,4,1,0,50,0,0

[Colours]
Combo1 : 135,130,198
Combo2 : 222,12,28
Combo3 : 49,187,73
Combo4 : 3,147,252
Combo5 : 239,203,80

[HitObjects]
120,56,10369,2,0,B|124:88|80:152|136:216,1,140
119,192,11210,1,0
119,192,11350,1,0
119,192,11490,1,0
120,192,11770,6,0,B|171:178|210:234|272:184,1,140
316,192,12611,1,0
316,192,12892,1,0
316,192,13172,6,0,B|311:243|345:273|387:253|304:322,1,140
318,309,14013,1,0
318,309,14294,1,0
318,309,14434,1,0
318,309,14574,1,0
318,309,14854,1,0
96,72,15415,5,0
96,320,15976,1,0
408,320,16537,1,0
408,72,17097,1,0
256,192,17658,5,0
256,192,17939,1,0
256,192,18079,1,0
256,192,18219,1,0
256,192,18499,1,0
256,112,18780,6,0,B|200:112,2,35
392,320,19901,6,0,B|416:264|336:240|344:192,1,140
343,196,20742,1,0
352,144,21023,2,0,B|302:147|250:105|196:177,1,140
217,153,21864,1,0
216,208,22144,1,0
216,208,22284,1,0
216,264,22565,5,0
216,264,22705,2,0,B|159:272|151:194|76:206,1,140
94,204,23546,1,0
94,204,23686,1,0
94,204,23826,1,0
96,64,24387,6,0,B|141:69|155:139|248:128,1,140
217,128,25228,1,0
217,128,25509,2,0,B|229:188|309:152|328:236,1,140
337,281,26350,1,0
392,232,26630,1,0
392,232,26770,1,0
456,192,27051,5,0
456,192,27191,2,0,B|496:128|418:103|433:46,1,140
431,62,28032,1,0
431,62,28172,1,0
431,62,28312,1,0
96,312,28873,6,0,B|93:258|24:238|56:176,1,140
51,185,29714,1,0
53,185,29995,2,0,B|109:145|80:96|160:72,1,140
140,79,30836,1,0
192,56,31116,1,0
192,56,31256,1,0
192,56,31397,1,0
248,40,31677,2,0,B|296:60|342:9|414:49,1,140
448,72,32518,5,0
417,100,32658,1,0
384,125,32798,1,0
384,125,33079,1,0
256,312,33359,5,0
120,88,33920,1,0
384,88,34481,1,0
256,272,35041,5,0
176,168,35322,1,0
336,168,35602,1,0
256,192,35883,5,0
256,192,36023,1,0
256,192,36163,1,0
256,192,36443,12,0,37565
376,320,37845,6,0,B|341:264|405:223|374:231|368:196|352:168,1,140
361,186,38686,1,0
361,184,38967,2,0,B|317:157|240:208|216:128,1,140
228,154,39808,1,0
176,160,40088,1,0
176,160,40228,1,0
176,104,40509,5,0
176,104,40649,2,0,B|122:115|106:59|34:99,1,140
41,95,41490,1,0
41,95,41630,1,0
41,95,41770,1,0
94,169,42331,5,4
116,202,42611,6,0,B|137:223|162:237|162:237|140:270|164:266|213:257|246:268,1,140
213,263,43453,1,0
215,263,43733,2,0,B|259:226|296:280|285:217|352:200,1,140
337,204,44574,1,0
337,204,44714,1,0
337,204,44854,1,0
336,160,45135,6,0,B|336:112,4,35
336,160,45976,1,0
336,160,46116,1,0
336,160,46256,1,0
336,160,46537,1,12
336,160,46817,6,0,B|288:128|240:144,1,70
270,138,47378,2,0,B|208:120|176:144,1,70
200,132,47939,2,0,B|153:136|160:173,4,35
160,176,48780,5,0
160,176,49060,2,0,B|112:200|64:200,1,70
93,197,49621,1,0
93,197,49901,1,0
93,197,50041,1,0
93,197,50182,1,0
376,64,51303,6,0,B|410:106|330:148|360:224,1,140
353,196,52144,1,0
353,197,52425,2,0,B|316:210|305:295|213:262,1,140
240,268,53266,1,0
240,268,53546,1,0
240,268,53686,1,0
240,268,53826,1,0
152,272,54107,6,0,B|105:227|78:262|5:228|35:181,1,140
32,152,54948,1,0
32,152,55088,1,0
32,152,55228,1,0
61,92,55509,1,0
116,54,55789,6,0,B|163:120|214:51|276:94,1,140
244,80,56630,1,0
246,80,56911,2,0,B|257:118|199:175|240:232,1,140
230,216,57752,1,0
288,216,58032,1,0
288,216,58172,1,0
344,216,58453,5,0
344,216,58593,2,0,B|388:192|416:248|475:211|454:139,1,140
457,173,59434,1,0
457,173,59574,1,0
457,173,59714,1,0
424,120,59995,1,0
368,112,60275,5,0
320,144,60555,1,0
272,176,60836,1,0
224,208,61116,1,0
176,232,61397,1,0
128,264,61677,1,0
128,265,61957,2,0,B|147:208|126:188|67:168|104:129,1,140
96,138,62798,1,0
96,138,62939,1,0
96,138,63079,1,0
88,64,74013,6,0,B|64:96|80:136,1,70
77,130,74574,1,0
77,130,74854,2,0,B|136:154|32:212|113:284,1,140
124,321,75696,1,0
157,252,75976,1,0
157,252,76116,1,0
232,256,76397,5,0
232,256,76537,2,0,B|258:242|277:274|313:260|330:277|360:245|388:253,1,140
369,253,77378,1,0
369,253,77518,1,0
369,253,77658,1,0
312,56,78219,6,0,B|337:94|409:67|345:145|412:120|424:160,1,140
415,146,79060,1,0
416,146,79340,2,0,B|448:210|375:228|384:298,1,140
384,274,80182,1,0
340,324,80462,1,0
340,324,80602,1,0
288,280,80883,5,0
288,280,81023,2,0,B|244:273|219:332|149:292,1,140
154,295,81864,1,0
154,295,82004,1,0
154,295,82144,1,0
96,240,82425,6,0,B|56:264,2,35
176,216,82985,1,0
104,168,83266,1,0
176,136,83546,1,0
176,136,83686,1,0
104,88,83967,1,0
104,88,84107,2,0,B|160:40|211:88|250:40,1,140
320,88,84948,1,0
392,128,85228,2,0,B|403:173|464:168|448:272,1,140
424,328,86069,1,0
352,280,86350,1,0
312,352,86630,1,0
256,288,86911,1,0
176,312,87191,6,0,B|139:286|65:301|36:223,1,140
51,252,88032,1,0
51,251,88312,2,0,B|68:192|-4:143|44:88,1,140
28,115,89154,1,0
28,115,89434,1,0
256,192,89995,12,0,91677
119,98,91957,6,0,B|155:107|175:139|151:154|119:178|109:212|177:220,1,140
143,210,92798,1,0
145,210,93079,2,0,B|147:248|178:276|225:237|264:296,1,140
312,296,93920,1,0
368,280,94200,1,0
368,280,94340,1,0
368,280,94481,1,0
408,240,94761,6,0,B|411:173|472:165|480:104,1,140
476,120,95602,1,0
476,120,95742,1,0
476,120,95883,1,0
384,136,96443,5,0
256,56,96724,1,0
248,200,97004,1,0
248,200,97284,6,0,B|197:183|153:262|89:181,1,140
114,205,98126,1,0
112,152,98406,5,0
112,123,98546,1,0
112,91,98686,1,0
112,59,98826,1,0
112,27,98967,1,0
376,192,99527,6,0,B|320:192,4,35
112,88,100649,5,0
112,88,100929,1,0
112,144,101210,1,0
112,144,101490,1,0
112,200,101770,2,0,B|104:264|158:266|174:324,1,140
173,320,102611,1,0
173,318,102892,2,0,B|240:277|268:339|312:288,1,140
305,294,103733,1,0
305,294,103873,1,0
305,294,104013,1,0
256,192,104154,12,0,104995
384,88,105135,6,0,B|345:88|308:41|244:57,1,140
250,55,105976,1,0
249,56,106256,2,0,B|203:81|164:46|107:83,1,140
113,79,107097,1,0
104,296,107378,5,0
256,192,107939,1,0
416,72,108499,1,0
256,192,109060,1,0
385,334,109621,6,0,B|439:289|392:247|449:183,1,140
432,206,110462,5,0
432,206,110742,2,0,B|449:135|373:121|352:72,1,140
365,92,111583,1,0
301,146,111864,1,0
301,146,112004,1,0
264,72,112284,5,0
264,72,112425,2,0,B|221:36|174:85|110:39,1,140
128,50,113266,1,0
128,50,113406,1,0
128,50,113546,1,0
96,192,114107,5,0
192,248,114387,1,0
320,248,114668,1,0
416,192,114948,1,0
336,144,115228,5,0
256,104,115509,1,0
176,144,115789,1,0
256,104,116069,1,0
256,192,116350,5,0
256,208,116490,1,0
256,224,116630,1,0
256,240,116770,1,0
256,256,116911,1,0
248,80,127845,6,0,B|192:80|152:96,1,70
178,87,128406,1,0
178,87,128686,2,0,B|144:104|112:152,1,70
125,132,129247,1,0
125,132,129387,1,0
125,132,129527,1,0
424,312,130088,6,0,B|384:336|344:328,1,70
357,329,130649,1,0
357,329,130929,2,0,B|296:344|264:328,1,70
287,335,131490,1,0
287,335,131630,1,0
287,335,131770,1,0
271,208,132051,6,0,B|231:184|175:176,2,70
256,192,132892,12,0,136537
