osu file format v8

[General]
AudioFilename: way of life.mp3
AudioLeadIn: 0
PreviewTime: 71106
Countdown: 0
SampleSet: Soft
StackLeniency: 0.7
Mode: 0
LetterboxInBreaks: 1

[Editor]
Bookmarks: 31343,37092,42840,48589,65834,83080,106068
DistanceSpacing: 0.8
BeatDivisor: 4
GridSize: 8

[Metadata]
Title:Way of Life
Artist:Kanako Kotera
Creator:f0012979
Version:Normal
Source:The Legend of Heroes VII: Zero no Kiseki
Tags:falcom video game ignorethis Licnect

[Difficulty]
HPDrainRate:2
CircleSize:4
OverallDifficulty:3
ApproachRate:4
SliderMultiplier:1.2
SliderTickRate:0.5

[Events]
//Background and Video events
0,0,"BG.jpg"
Video,158,"video.avi"
//Break Periods
2,17324,18678
2,48940,59457
2,97803,99157
//Storyboard Layer 0 (Background)
//Storyboard Layer 1 (Fail)
//Storyboard Layer 2 (Pass)
//Storyboard Layer 3 (Foreground)
//Storyboard Sound Samples
//Background Colour Transformations
3,100,163,162,255

[TimingPoints]
2754,718.562874251497,4,2,1,65,1,0
12813,359.281437125748,4,2,1,100,1,0
13352,-100,4,1,1,65,0,0
14250,-100,4,2,1,80,0,1
17124,-100,4,2,1,0,0,1
19908,-100,4,2,1,80,0,1
20357,-100,4,1,1,80,0,1
20537,-100,4,2,1,80,0,1
21435,-100,4,2,1,80,0,1
21705,-100,4,1,1,80,0,1
21884,-100,4,2,1,80,0,1
22423,-100,4,1,1,80,0,1
22693,-100,4,2,1,80,0,1
24310,-100,4,2,1,80,0,1
24579,-100,4,1,1,80,0,1
24848,-100,4,2,1,80,0,1
25298,-100,4,1,1,80,0,1
25477,-100,4,2,1,80,0,1
25747,-100,4,2,1,80,0,0
26106,-100,4,1,1,80,0,0
26465,-100,4,2,1,80,0,0
26824,-100,4,1,1,80,0,0
27184,-100,4,2,1,80,0,0
27453,-100,4,1,1,80,0,0
27633,-100,4,2,1,80,0,0
28262,-100,4,1,1,80,0,0
28441,-100,4,2,1,80,0,0
28890,-100,4,1,1,80,0,0
29160,-100,4,2,1,80,0,0
29609,-100,4,1,1,80,0,0
29878,-100,4,2,1,80,0,0
30417,-100,4,1,1,80,0,0
30777,-100,4,2,1,80,0,0
31046,-100,4,1,1,80,0,0
31226,-100,4,2,1,80,0,0
31854,-100,4,1,1,80,0,0
32214,-100,4,2,1,80,0,0
32573,-100,4,1,1,80,0,0
32932,-100,4,2,1,80,0,0
33202,-100,4,1,1,80,0,0
33381,-100,4,2,1,80,0,0
34010,-100,4,1,1,80,0,0
34190,-100,4,2,1,80,0,0
34639,-100,4,1,1,80,0,0
34908,-100,4,2,1,80,0,0
35357,-100,4,1,1,80,0,0
35627,-100,4,2,1,80,0,0
36166,-100,4,1,1,80,0,0
36525,-100,4,2,1,80,0,0
36795,-100,4,1,1,80,0,0
36974,-100,4,2,1,80,0,0
37603,-100,4,1,1,80,0,0
37693,-100,4,2,1,80,0,0
38321,-100,4,1,1,80,0,0
38411,-100,4,2,1,80,0,0
39040,-100,4,1,1,80,0,0
39130,-100,4,2,1,80,0,0
39759,-100,4,1,1,80,0,0
39848,-100,4,2,1,80,0,0
40387,-100,4,1,1,80,0,0
40657,-100,4,2,1,80,0,0
41106,-100,4,1,1,80,0,0
41375,-100,4,2,1,80,0,0
41824,-100,4,1,1,80,0,0
42274,-100,4,2,1,80,0,0
42543,-100,4,1,1,80,0,0
42723,-100,4,2,1,80,0,0
43351,-100,4,1,1,80,0,0
43711,-100,4,2,1,80,0,0
43980,-100,4,1,1,80,0,0
44160,-100,4,2,1,80,0,0
44789,-100,4,1,1,80,0,0
44878,-100,4,2,1,80,0,0
45417,-100,4,1,1,80,0,0
45866,-100,4,2,1,80,0,0
46136,-100,4,1,1,80,0,0
46405,-100,4,2,1,80,0,0
46854,-100,4,1,1,80,0,0
47124,-100,4,2,1,80,0,0
47573,-100,4,1,1,80,0,0
48022,-100,4,1,1,70,0,0
48651,-100,4,2,1,90,0,0
48830,-100,4,2,1,80,0,0
61495,-100,4,1,1,80,0,0
61585,-100,4,2,1,80,0,0
64369,-100,4,1,1,80,0,0
64459,-100,4,2,1,80,0,0
71735,-100,4,2,1,85,0,1
72094,-100,4,1,1,85,0,1
72453,-100,4,2,1,85,0,1
72723,-100,4,1,1,85,0,1
72902,-100,4,2,1,85,0,1
73531,-100,4,1,1,85,0,1
73890,-100,4,2,1,85,0,1
74250,-100,4,1,1,85,0,1
74609,-100,4,2,1,85,0,1
74878,-100,4,1,1,85,0,1
75058,-100,4,2,1,85,0,1
76405,-100,4,1,1,85,0,1
76585,-100,4,2,1,85,0,1
77124,-100,4,1,1,85,0,1
77483,-100,4,2,1,85,0,1
77842,-100,4,1,1,85,0,1
78022,-100,4,2,1,85,0,1
78471,-100,4,1,1,85,0,1
78651,-100,4,2,1,85,0,1
79280,-100,4,1,1,85,0,1
79369,-100,4,2,1,85,0,1
79998,-100,4,1,1,85,0,1
80088,-100,4,2,1,85,0,1
80717,-100,4,1,1,85,0,1
80896,-100,4,2,1,85,0,1
81435,-100,4,1,1,85,0,1
81525,-100,4,2,1,85,0,1
82154,-100,4,1,1,85,0,1
82513,-100,4,2,1,85,0,1
82872,-100,4,1,1,85,0,1
83142,-100,4,1,1,85,0,0
83232,-100,4,2,1,85,0,1
83591,-100,4,1,1,85,0,1
83681,-100,4,2,1,85,0,1
84310,-100,4,1,1,85,0,1
84489,-100,4,2,1,85,0,1
84938,-100,4,1,1,85,0,1
85118,-100,4,2,1,85,0,1
85657,-100,4,1,1,85,0,1
85836,-100,4,2,1,85,0,1
86465,-100,4,1,1,85,0,1
86555,-100,4,2,1,85,0,1
87902,-100,4,1,1,85,0,1
88261,-100,4,2,1,85,0,1
88531,-100,4,1,1,85,0,1
88980,-100,4,2,1,85,0,1
89339,-100,4,1,1,85,0,1
89429,-100,4,2,1,85,0,1
89968,-100,4,1,1,85,0,1
90148,-100,4,2,1,85,0,1
90777,-100,4,1,1,85,0,1
90866,-100,4,2,1,85,0,1
91495,-100,4,1,1,85,0,1
91585,-100,4,2,1,85,0,1
92214,-100,4,1,1,85,0,1
92393,-100,4,2,1,85,0,1
92932,-100,4,1,1,85,0,1
93112,-100,4,2,1,85,0,1
93651,-100,4,1,1,85,0,1
94010,-100,4,2,1,85,0,1
94369,-100,4,1,1,100,0,1
94639,-100,4,2,1,85,0,0
94729,-100,4,2,1,85,0,1
94818,-100,4,2,1,85,0,0
97603,-100,4,2,1,0,0,0
100118,-100,4,2,1,80,0,0
101914,-100,4,2,1,85,0,0
102184,-100,4,1,1,85,0,0
102363,-100,4,2,1,85,0,0
102902,-100,4,1,1,85,0,0
103172,-100,4,2,1,85,0,0
104968,-100,4,1,1,85,0,0
106226,-100,4,2,1,85,0,0
108022,-100,4,1,1,85,0,0
108381,-100,4,2,1,85,0,0
108741,-100,4,1,1,85,0,0
109100,-100,4,2,1,85,0,0
109459,-100,4,1,1,85,0,0
110447,-100,4,2,1,85,0,0
112244,-100,4,1,1,85,0,0
112333,-100,4,1,1,85,0,1
112423,-100,4,1,1,85,0,0

[Colours]
Combo1 : 255,150,0
Combo2 : 0,217,217
Combo3 : 5,5,240
Combo4 : 240,5,5

[HitObjects]
80,96,2754,6,0,B|96:24|192:24,1,120,2|0
248,112,4191,2,0,B|296:72|368:104,1,120,2|0
384,216,5628,6,0,B|432:216|456:264,1,90,2|2
448,320,6526,1,2
400,360,6885,1,2
320,320,7424,5,0
264,344,7783,1,0
208,336,8143,1,2
152,320,8502,2,0,B|104:304|104:232,1,90,2|0
40,184,9580,5,0
40,184,9759,2,0,B|56:128|104:104,1,90,2|0
128,64,10658,2,0,B|184:64,1,30,0|2
216,40,11197,2,0,B|256:56,1,30,0|2
304,32,11736,2,0,B|368:40|400:104,1,120,0|0
320,192,12813,6,0,B|328:256|288:312,1,120
192,240,13531,2,0,B|168:192,8,30,0|0|0|0|0|0|0|0|4
256,192,14339,12,0,17124
112,328,19998,6,0,B|64:264,1,60,4|0
32,192,20537,2,0,B|16:120|88:80,2,120,2|2|2
128,168,21615,2,0,B|208:144,1,60
264,208,22154,1,2
344,256,22513,1,0
432,288,22872,6,0,B|448:216,1,60,0|2
464,136,23411,2,0,B|464:72|408:16,2,120,2|2|2
368,160,24489,2,0,B|328:104,1,60
240,96,25028,1,2
144,80,25387,1,0
48,64,25747,6,0,B|8:112|0:192,1,120,4|0
72,232,26465,2,0,B|72:296|96:352,2,120
144,176,27543,1,0
224,120,27902,6,0,B|288:112|352:128,1,120
376,216,28621,1,0
416,304,28980,2,0,B|480:272,1,60
480,232,29339,2,0,B|491:167|472:96,1,120
400,48,30058,2,0,B|328:24,1,60
296,16,30417,2,0,B|232:22|168:56,1,120
192,144,31136,1,0
96,168,31495,6,0,B|72:224|72:304,1,120
168,264,32214,2,0,B|168:328|176:392,2,120
264,256,33292,1,0
272,160,33651,6,0,B|328:144|400:144,1,120
448,224,34369,1,0
504,144,34729,2,0,B|488:64,1,60
456,56,35088,2,0,B|402:34|320:32,1,120
248,8,35807,2,0,B|200:72,1,60
184,96,36166,2,0,B|128:120|56:120,1,120
16,200,36884,1,0
48,288,37244,6,0,B|112:288|176:272,1,120,4|0
248,320,37962,2,0,B|310:300|384:296,1,120
400,328,38501,1,0
480,280,38860,2,0,B|456:200,1,60,0|0
440,128,39399,6,0,B|377:135|320:176,1,120
256,232,40118,1,0
168,192,40477,2,0,B|152:112,1,60
112,120,40836,2,0,B|144:48,2,60
24,152,41555,2,0,B|16:216,1,60
56,240,41914,2,0,B|72:296|128:360,1,120
208,320,42633,1,0
296,352,42992,6,0,B|354:342|432:320,2,120
320,256,44070,1,0
336,208,44250,2,0,B|262:157|160:120,1,180
112,56,45148,1,0
24,96,45507,2,0,B|16:160|40:216,1,120
112,280,46226,2,0,B|192:264,1,60
208,240,46585,2,0,B|280:248,1,60
312,272,46944,1,0
344,304,47124,2,0,B|408:304|464:256,1,120,4|0
472,216,47663,2,0,B|440:96,3,120,0|0|0|4
440,168,60777,6,0,B|408:104,1,60
432,72,61136,2,0,B|384:48|296:48,1,120
248,120,61854,2,0,B|176:112|120:144,1,120,2|2
80,216,62573,1,2
80,216,62753,1,2
280,352,63651,6,0,B|304:280,1,60
344,288,64010,2,0,B|352:224|312:168,1,120
224,160,64729,2,0,B|208:96|136:56,1,120,2|2
80,128,65447,1,0
80,128,65627,1,2
120,216,65986,6,0,B|88:280|80:336,1,120,4|0
176,336,66705,1,2
272,312,67064,1,0
368,336,67423,1,2
368,336,67783,1,0
456,288,68142,6,0,B|464:208|464:152,1,120,2|0
256,192,68860,12,4,70836
280,128,71735,6,0,B|293:69|312:8,2,120,4|0|0
200,176,72812,1,0
168,216,72992,1,0
136,256,73172,2,0,B|168:312|216:368,2,120
64,192,74249,2,0,B|80:72,1,120,0|4
168,40,74968,5,0
168,40,75148,1,4
264,16,75507,1,4
352,48,75866,2,0,B|456:64|472:184,1,180,4|0
392,224,76764,2,0,B|352:352,2,120,0|0|4
320,160,77842,5,0
320,160,78022,1,0
232,48,78561,1,0
232,48,78740,2,0,B|134:59|56:88,1,180
56,184,79639,2,0,B|0:160,2,60
104,200,80178,2,0,B|208:224|224:344,1,180,4|0
312,352,81076,2,0,B|384:360|416:280,1,120
480,232,81794,2,0,B|480:112,3,120
424,32,83232,6,0,B|360:24|288:24,1,120,4|0
224,80,83950,2,0,B|158:79|80:88,1,120
48,168,84669,1,0
48,264,85028,1,0
120,328,85387,1,0
216,352,85747,2,0,B|288:360|328:296,1,120,0|4
416,304,86465,6,0,B|432:224,1,60,0|4
512,200,87004,2,0,B|504:136|456:80,1,120,4|4
320,120,87902,2,0,B|280:72|224:48,1,120
160,120,88621,2,0,B|192:184|168:256,2,120,0|4|0
72,56,89699,5,0
8,128,90058,1,0
8,128,90237,2,0,B|0:224|24:312,1,180
120,304,91136,2,0,B|112:376,2,60
128,256,91675,2,0,B|160:168|280:168,1,180,4|0
360,208,92573,2,0,B|424:192|448:112,1,120
392,48,93291,6,0,B|344:8|264:8,3,120,2|0|2|0
184,24,94729,1,4
256,192,94818,12,0,97603
88,352,100477,6,0,B|160:328,1,60,4|2
232,296,101016,2,0,B|296:296|352:352,2,120,2|2|2
168,224,102094,2,0,B|96:208,1,60
32,152,102633,1,2
48,56,102992,1,0
136,16,103351,6,0,B|200:24,1,60,0|2
288,56,103890,2,0,B|344:24|424:24,2,120,2|2|2
256,144,104968,2,0,B|184:160,1,60
152,240,105507,1,0
184,328,105866,1,0
272,368,106226,6,0,B|344:344,1,60,4|4
424,368,106764,2,0,B|448:304,1,60,4|4
512,248,107303,2,0,B|496:176,1,60,4|4
504,96,107842,1,0
472,64,108022,2,0,B|392:48|360:120,1,120,4|0
280,136,108740,2,0,B|305:193|304:280,2,120
200,88,109818,2,0,B|136:80|80:104,1,120
40,192,110537,6,0,B|24:272,1,60,4|4
120,280,111076,2,0,B|136:360,1,60,4|4
224,328,111615,2,0,B|304:336,1,60,4|4
352,272,112154,2,0,B|408:224,1,60,4|4
