osu file format v12

[General]
AudioFilename: 01 The Moment You Made Your Decision (Movie Size).mp3
AudioLeadIn: 0
PreviewTime: 53321
Countdown: 1
SampleSet: Soft
StackLeniency: 0.7
Mode: 0
LetterboxInBreaks: 1
WidescreenStoryboard: 1

[Editor]
DistanceSpacing: 1.7
BeatDivisor: 2
GridSize: 4

[Metadata]
Title:The Moment You Made Your Decision
TitleUnicode:The Moment You Made Your Decision
Artist:Kanako Itou
ArtistUnicode:Kanako Itō
Creator:monomosc
Version:Normal
Source:Steins;Gate
Tags:Steins;Gate Deja Vu
BeatmapID:348568
BeatmapSetID:138877

[Difficulty]
HPDrainRate:5
CircleSize:3
OverallDifficulty:4
ApproachRate:6
SliderMultiplier:0.8
SliderTickRate:1

[Events]
//Background and Video events
//Break Periods
//Storyboard Layer 0 (Background)
//Storyboard Layer 1 (Fail)
//Storyboard Layer 2 (Pass)
//Storyboard Layer 3 (Foreground)
//Storyboard Sound Samples
//Background Colour Transformations
3,100,163,162,255

[TimingPoints]
910.109179678287,352.941176470588,4,2,0,100,1,0

[HitObjects]
244,320,910,2,0,P|316:304|340:280,1,80
364,236,1615,1,0,0:0:0:0:
388,160,1968,1,0,0:0:0:0:
400,80,2321,2,0,P|304:44|148:72,1,240
112,116,3733,5,0,0:0:0:0:
152,188,4086,1,0,0:0:0:0:
232,184,4439,1,0,0:0:0:0:
288,128,4792,1,0,0:0:0:0:
280,48,5145,2,0,P|184:44|92:84,1,160
100,140,6204,6,0,L|104:96,2,40
96,220,6910,1,0,0:0:0:0:
92,300,7263,1,0,0:0:0:0:
172,300,7615,1,0,0:0:0:0:
252,300,7968,1,0,0:0:0:0:
252,300,8321,1,0,0:0:0:0:
252,300,8674,2,0,L|252:204,1,80
252,220,9380,1,0,0:0:0:0:
256,340,10086,5,0,0:0:0:0:
252,220,10439,1,0,0:0:0:0:
256,192,10792,12,0,12910,0:0:0:0:
104,68,13615,5,0,0:0:0:0:
104,68,13968,1,0,0:0:0:0:
224,68,14321,1,0,0:0:0:0:
224,68,14674,1,0,0:0:0:0:
344,68,15027,1,0,0:0:0:0:
344,68,15380,1,0,0:0:0:0:
92,316,16439,6,0,L|148:308,7,40
184,300,18027,1,0,0:0:0:0:
240,280,18204,1,0,0:0:0:0:
296,260,18380,2,0,P|368:216|408:104,1,200
244,40,19792,6,0,P|140:44|104:72,1,120
104,104,20498,1,0,0:0:0:0:
72,220,20851,1,0,0:0:0:0:
320,344,21380,6,0,L|364:344,1,40
456,344,21910,1,0,0:0:0:0:
456,296,22086,2,0,L|456:244,2,40
456,256,22615,2,0,L|456:160,1,80
456,48,23321,5,0,0:0:0:0:
336,52,23674,1,0,0:0:0:0:
276,52,23851,2,0,L|216:52,1,40
176,52,24204,2,0,P|88:80|88:148,1,160
188,312,25439,6,0,P|324:304|352:240,1,200
356,56,26851,2,0,P|232:56|216:64,1,120
148,156,27733,5,0,0:0:0:0:
448,316,28615,6,0,L|448:264,2,40
380,320,29145,2,0,L|380:264,2,40
312,320,29674,2,0,L|312:272,2,40
212,140,30557,5,0,0:0:0:0:
212,140,30733,1,0,0:0:0:0:
76,144,31086,2,0,P|52:216|56:240,1,80
168,292,31792,2,0,P|252:308|296:288,1,120
448,308,33204,5,0,0:0:0:0:
448,308,33380,2,0,P|456:228|452:200,1,80
428,168,33910,2,0,L|428:80,2,80
256,320,35498,6,0,P|284:280|276:248,2,80
120,328,36557,1,0,0:0:0:0:
80,196,36910,2,0,P|68:164|72:152,1,40
148,68,37439,2,0,P|220:40|280:48,1,120
356,116,38321,1,0,0:0:0:0:
356,116,38498,6,0,P|312:172|280:192,1,80
128,148,39380,1,0,0:0:0:0:
104,328,39910,1,0,0:0:0:0:
164,340,40086,1,0,0:0:0:0:
220,324,40263,6,0,P|288:316|312:288,2,80
440,316,41321,5,0,0:0:0:0:
432,196,41674,2,0,L|428:176,3,13.3333333333333
264,60,42380,2,0,L|152:60,2,80
392,108,43439,1,0,0:0:0:0:
376,172,43615,1,0,0:0:0:0:
312,192,43792,1,0,0:0:0:0:
68,308,44498,6,0,L|68:252,1,40
72,132,45027,1,0,0:0:0:0:
72,132,45204,2,0,L|72:36,2,80
404,60,46792,6,0,L|308:60,1,80
188,52,47498,2,0,P|80:80|48:148,1,160
