osu file format v9

[General]
AudioFilename: STEINS;GATEOP.mp3
AudioLeadIn: 0
PreviewTime: -1
Countdown: 0
SampleSet: Normal
StackLeniency: 0.7
Mode: 0
LetterboxInBreaks: 1

[Editor]
DistanceSpacing: 0.9
BeatDivisor: 4
GridSize: 8

[Metadata]
Title:Hacking to the Gate
Artist:Kanako Itou
Creator:taka1235
Version:Insane
Source:
Tags:azuki

[Difficulty]
HPDrainRate:8
CircleSize:5
OverallDifficulty:8
ApproachRate:8
SliderMultiplier:1.9
SliderTickRate:1

[Events]
//Background and Video events
0,0,"11_0404steins_gate0048.jpg"
Video,0,"S.G Op.avi"
//Break Periods
//Storyboard Layer 0 (Background)
//Storyboard Layer 1 (Fail)
//Storyboard Layer 2 (Pass)
//Storyboard Layer 3 (Foreground)
//Storyboard Sound Samples
//Background Colour Transformations
3,100,163,162,255

[TimingPoints]
160,372.670807453416,4,1,0,100,1,0
1743,-100,4,1,0,45,0,0
1930,-100,4,1,0,69,0,0
2116,-100,4,2,0,75,0,0
3420,-100,4,1,0,100,0,0
3607,-100,4,2,0,75,0,0
4911,-100,4,1,0,100,0,0
5097,-100,4,2,0,75,0,0
6402,-100,4,1,0,100,0,0
6588,-100,4,1,0,65,0,0
8079,-100,4,2,0,75,0,0
9383,-100,4,1,0,100,0,0
9569,-100,4,2,0,75,0,0
10874,-100,4,1,0,65,0,0
11060,-100,4,2,0,75,0,0
11619,-100,4,1,0,80,0,0
11805,-100,4,2,0,75,0,0
12364,-100,4,1,0,91,0,0
12551,-100,4,2,0,75,0,0
13110,-100,4,1,0,100,0,0
13296,-100,4,2,0,75,0,0
13855,-100,4,1,0,49,0,0
22799,-100,4,1,0,100,0,0
23731,-100,4,1,0,72,0,0
24104,-200,4,1,0,72,0,0
24849,-100,4,1,0,72,0,0
25781,-100,4,1,0,49,0,0
34725,-100,4,1,0,64,0,0
36029,-100,4,1,0,77,0,0
36961,-133.333333333333,4,1,0,68,0,0
37520,-111.111111111111,4,2,0,60,0,0
42923,-111.111111111111,4,1,0,60,0,0
43482,-100,4,1,0,49,0,0
48141,-100,4,1,0,53,0,0
49073,-133.333333333333,4,1,0,53,0,0
49445,-111.111111111111,4,1,0,51,0,0
54104,-111.111111111111,4,1,0,52,0,0
55408,-100,4,1,0,52,0,0
58203,-100,4,1,0,55,0,0
58389,-100,4,1,0,55,0,0
58948,-100,4,1,0,80,0,0
59135,-83.3333333333333,4,1,0,80,0,0
59694,-100,4,1,0,90,0,0
60625,-66.6666666666667,4,1,0,90,0,0
61930,-100,4,1,0,100,0,0
62116,-100,4,2,0,73,0,0
62302,-100,4,1,0,53,0,0
63048,-100,4,1,0,87,0,0
64538,-100,4,1,0,79,0,0
69010,-100,4,1,0,88,0,0
69104,-100,4,1,0,88,0,1
69569,-100,4,1,0,100,0,1
70594,-100,4,1,0,100,0,0
70874,-100,4,1,0,80,0,0
74228,-100,4,1,0,90,0,0
74600,-100,4,1,0,100,0,0
76464,-100,4,1,0,79,0,0
86899,-100,4,1,0,5,0,0

[Colours]
Combo1 : 0,189,189
Combo2 : 166,0,0
Combo3 : 255,128,255
Combo4 : 192,192,192

[HitObjects]
80,96,2023,1,4
184,56,2209,1,0
264,136,2396,1,0
192,256,2582,6,2,B|192:320|128:352|56:328|32:256,2,190
52,293,3514,5,4
16,184,3700,1,0
104,104,3886,1,0
240,160,4073,6,2,B|304:160|336:224|312:296|240:320,2,190
280,304,5004,5,4
384,336,5191,1,0
448,248,5377,1,0
328,160,5563,6,2,B|264:160|232:96|256:24|328:0,2,190
322,12,6495,5,4
216,56,6681,1,0
112,16,6868,1,0
16,80,7054,5,0
120,120,7240,1,0
176,224,7427,1,0
120,328,7613,1,0
24,272,7799,1,0
24,272,7892,1,0
24,272,7986,6,0,B|80:256|56:192,1,95,4|0
8,88,8358,2,0,B|24:144|88:120,1,95,2|0
208,208,8731,2,0,B|192:152|128:176,3,95,0|2|0|2
328,40,9476,6,0,B|272:56|296:120,1,95,4|0
344,224,9848,2,0,B|328:168|264:192,1,95,2|0
144,104,10221,2,0,B|160:160|224:136,3,95,0|2|0|2
392,72,10967,6,0,B|456:88|440:152,1,95,4|0
328,120,11340,2,0,B|344:56|408:72,1,95,4|0
264,168,11712,6,0,B|200:152|216:88,1,95,4|0
328,120,12085,2,0,B|312:184|248:168,1,95,4|0
280,48,12458,6,0,B|344:64|328:128,1,95,4|0
216,96,12831,2,0,B|232:32|296:48,1,95,4|0
216,96,13203,5,0
216,96,13296,1,0
216,96,13389,2,0,B|160:72,5,47.5
144,120,13948,5,4
72,144,14135,1,0
64,160,14228,1,0
56,176,14321,1,8
96,240,14507,1,0
96,240,14694,2,0,B|112:344,2,95,0|0|8
152,184,15253,2,0,B|200:152|264:160|304:216|296:280,1,190,0|0
296,256,15719,1,0
296,264,15812,1,8
336,328,15998,1,0
336,328,16184,2,0,B|400:360|408:288,1,95,0|0
472,256,16557,2,0,B|464:184|400:224,1,95,8|0
320,176,16930,5,0
392,136,17116,1,0
400,128,17209,1,0
408,120,17302,1,8
488,112,17489,1,0
448,48,17675,2,0,B|400:8|360:56,1,95
296,24,18048,2,0,B|240:56|280:112,1,95,8|0
224,184,18420,5,0
296,208,18607,1,0
304,232,18700,1,0
312,256,18793,1,8
288,328,18979,1,0
160,288,19166,6,0,B|104:336|56:328|16:288|16:240,2,190,0|8|0
120,224,20097,1,0
128,208,20191,1,0
136,192,20284,1,8
200,152,20470,1,0
136,120,20656,2,0,B|72:96|64:168,1,95
136,120,21029,1,8
176,56,21215,1,0
248,88,21402,5,0
272,160,21588,1,0
288,168,21681,1,0
304,176,21774,1,8
320,264,21961,2,0,B|304:320|240:320,1,95,0|0
416,304,22333,2,0,B|432:360|496:352,2,95,0|8|0
424,120,22892,5,4
264,48,23079,5,4
424,120,23265,5,4
264,48,23451,5,4
424,120,23824,5,4
424,120,24010,1,0
424,120,24197,2,0,B|336:80|304:176,1,142.5
240,264,24942,6,4,B|172:253|148:205|164:149|204:117,2,190
432,112,25874,5,0
472,176,26060,1,0
480,184,26153,1,0
488,192,26246,2,0,B|480:296,1,95,8|0
440,352,26619,2,0,B|336:304,1,95
312,248,26992,1,8
360,192,27178,2,0,B|344:136|288:104|224:120|176:160,1,190
192,152,27644,1,0
184,160,27737,1,8
104,200,27923,1,0
176,240,28110,2,0,B|136:336,1,95
64,288,28482,2,0,B|-8:192,1,95,8|0
48,120,28855,5,0
120,56,29041,1,0
120,56,29135,1,0
120,56,29228,1,8
208,104,29414,2,0,B|248:144|224:208,1,95
272,256,29787,2,0,B|232:216|160:240,2,95,0|8|0
336,320,30346,1,0
368,240,30532,1,0
312,176,30719,1,8
392,160,30905,1,0
456,216,31091,6,0,B|536:136|464:24,2,190,0|8|0
368,200,32023,1,0
368,200,32116,1,0
368,200,32209,1,8
392,280,32396,1,0
312,264,32582,2,0,B|264:272|224:304,1,95
152,344,32955,2,0,B|104:328|56:288,1,95,8|0
24,208,33327,5,0
112,240,33514,2,0,B|120:264|104:288,2,47.5,0|0|8
152,168,33886,1,0
88,112,34073,2,0,B|80:64|80:16,1,95
160,40,34445,2,0,B|192:72|208:136,1,95,8|0
288,120,34818,5,4
416,96,35004,1,4
288,120,35191,1,0
416,96,35377,1,4
352,24,35563,6,4,B|304:64|288:128|352:232,1,190
408,240,36122,5,4
96,280,36495,1,4
96,280,36681,1,4
240,120,37054,5,0
240,120,37240,2,0,B|280:256,1,142.499995753169,0|4
440,312,38172,5,0
440,312,38545,1,0
472,248,38731,1,0
440,176,38917,1,0
360,184,39104,2,0,B|280:120|344:24,1,170.999991846085
338,32,39663,2,0,B|240:32,1,85.4999959230425
280,104,40035,2,0,B|464:104,1,170.999991846085
424,32,40594,5,0
504,32,40781,1,4
440,168,41153,1,0
360,168,41340,1,4
400,320,41712,1,0
328,304,41899,1,0
256,320,42085,1,0
208,264,42271,2,0,B|112:224|24:304,2,170.999991846085,0|0|4
280,232,43203,5,0
280,232,43296,1,0
280,232,43389,1,0
368,248,43576,6,0,B|480:280|528:176,1,190,4|0
512,96,44135,1,8
448,40,44321,1,0
360,24,44507,2,0,B|304:24|272:72,1,95
256,144,44880,1,8
368,152,45066,6,0,B|400:272|304:352,1,190,4|0
224,264,45625,2,0,B|176:240|112:240,1,95,8|0
48,256,45998,1,0
88,328,46184,1,0
88,328,46278,1,0
88,328,46371,1,8
176,336,46557,1,0
256,312,46743,6,0,B|328:232|448:296,1,190,0|8
488,152,47302,2,0,B|408:224|304:176,1,190
208,80,47861,2,0,B|248:40|312:72,1,95,8|0
400,96,48234,5,4
336,216,48420,5,4
448,320,48607,5,4
280,128,48979,5,0
280,128,49166,2,0,B|232:288,1,142.499995753169,0|4
96,328,50097,5,0
96,328,50470,1,0
32,280,50656,1,0
48,208,50842,1,0
120,192,51029,2,0,B|192:120|152:32,1,170.999991846085
152,32,51588,2,0,B|248:32,1,85.4999959230425
208,104,51961,2,0,B|32:104,1,170.999991846085
72,32,52520,5,0
0,32,52706,1,0
32,184,53079,1,0
112,184,53265,1,0
88,336,53638,1,0
160,304,53824,1,0
232,320,54010,1,0
296,280,54197,2,0,B|376:224|496:272,2,170.999991846085
224,248,55128,5,0
224,248,55222,1,0
224,248,55315,1,0
152,288,55501,6,0,B|56:240|96:112,1,190,4|0
136,56,56060,1,8
224,48,56246,1,0
280,112,56433,1,0
368,112,56619,2,0,B|408:64,2,47.5,0|0|8
240,192,56992,6,0,B|272:304|424:296,1,190,4|0
464,280,57551,1,8
488,200,57737,1,0
432,136,57923,1,0
352,168,58110,2,0,B|360:224,2,47.5,0|0|8
312,88,58482,6,0,B|312:72|312:72|296:80|296:80|296:64|296:64|280:72|280:72|280:56|280:56|264:64|264:64|264:40|264:40|248:56|248:56|200:8|112:56,1,284.999991506338,4|0
144,144,59228,6,4,B|128:136|128:136|128:152|128:152|112:136|112:136|112:160|112:160|96:144|96:144|96:160|96:160|80:144|80:144|80:168|80:168|64:152|64:152|-8:160|-24:296,1,342.000008153916,4|0
80,256,59973,6,0,B|72:272|72:272|88:280|88:280|72:296|72:296|88:296|88:296|72:320|72:320|96:320|96:320|88:344|88:344|168:384|224:336,1,285,4|0
216,256,60719,6,0,B|224:248|224:248|232:256|232:256|256:232|256:232|256:248|256:248|280:224|280:224|328:304|328:304|440:216|520:360,1,427.499987259508,4|0
512,350,61650,5,4
408,80,62396,5,0
408,80,62489,1,0
408,80,62582,1,0
408,80,62675,1,0
408,80,62768,1,0
408,80,62861,1,0
408,80,62955,1,0
408,80,63048,1,0
408,80,63141,5,4
336,120,63327,2,0,B|288:144|216:80,1,95,4|0
64,40,63700,2,0,B|0:144|96:240,1,190,4|4
152,280,64259,1,4
280,224,64445,6,4,B|384:184|488:288,1,190
336,320,65004,2,0,B|232:280|144:360,1,190,8|0
80,312,65563,1,0
120,240,65750,1,8
48,192,65936,2,0,B|64:88,1,95
120,40,66309,1,0
224,144,66495,2,0,B|344:120,1,95,8|0
424,32,66868,2,0,B|304:56,1,95
248,64,67240,1,8
128,144,67427,6,0,B|184:192|248:88|312:184,1,190,4|0
376,240,67986,1,8
312,296,68172,1,0
296,304,68265,1,0
280,312,68358,1,0
208,272,68545,1,0
192,280,68638,1,0
176,288,68731,1,8
160,296,68824,1,0
144,304,68917,1,0
128,312,69010,1,0
112,320,69104,6,4,B|72:280|96:224,2,95
32,136,69663,2,0,B|96:224|208:176,1,190,4|0
272,120,70222,1,4
328,248,70408,6,0,B|400:168|512:216,1,190,4|0
376,320,70967,2,0,B|312:240|176:296,1,190,8|0
120,328,71526,1,0
120,328,71619,1,0
120,328,71712,1,8
64,256,71899,2,0,B|48:160,1,95
128,40,72271,1,0
128,40,72364,1,0
128,40,72458,1,8
184,96,72644,6,0,B|208:192,1,95,2|0
336,88,73017,2,0,B|312:-16,1,95,2|8
264,136,73389,2,0,B|232:248|336:320,1,190,4|0
376,248,73948,6,0,B|472:224,1,95,10|2
296,320,74321,2,0,B|184:344,1,95,0|2
56,288,74694,2,0,B|168:264,1,95,10|0
184,184,75066,5,4
328,136,75253,1,4
328,136,75625,1,0
328,136,75998,1,0
208,32,76184,1,0
64,88,76371,6,0,B|-16:160|40:280,1,190,4|0
128,224,76930,2,0,B|248:200|320:328,1,190,8|0
376,344,77489,1,0
376,344,77582,1,0
376,344,77675,1,8
456,288,77861,2,0,B|408:176|520:112,1,190
472,40,78420,1,8
400,96,78607,6,0,B|360:136|296:104,1,95,2|0
120,136,78979,2,0,B|144:184|208:176,1,95,2|8
392,232,79352,2,2,B|336:328|216:296,1,190
168,240,79911,1,8
168,240,80004,1,0
168,240,80097,1,0
96,288,80284,1,0
48,216,80470,1,0
40,192,80563,1,0
40,160,80656,1,8
48,136,80750,1,0
64,112,80843,1,0
88,96,80936,1,0
120,96,81029,5,4
208,24,81215,1,0
320,72,81402,1,12
448,32,81588,2,0,B|512:136|432:248,1,190,4|0
384,256,82147,1,8
304,224,82333,6,2,B|176:224|160:352,1,190
32,352,82892,2,2,B|112:280|72:168,1,190,8|2
32,104,83451,1,0
32,104,83545,1,0
32,104,83638,1,8
136,48,83824,6,0,B|168:88|152:144,2,95
136,48,84383,1,8
240,144,84569,2,0,B|280:112|352:136,1,95
232,256,84942,2,0,B|192:288|144:272,1,95,0|8
48,160,85315,6,2,B|-8:248|64:344,1,190
136,304,85874,1,0
176,176,86060,2,2,B|280:136|360:232,1,190
384,296,86619,1,0
384,296,86712,1,0
384,296,86805,1,0
448,240,86992,5,4
448,240,87178,1,4
392,80,87551,1,4
224,120,87923,1,4
256,192,88296,12,0,89941
