osu file format v9

[General]
AudioFilename: STEINS;GATEOP.mp3
AudioLeadIn: 0
PreviewTime: -1
Countdown: 0
SampleSet: Soft
StackLeniency: 0.7
Mode: 0
LetterboxInBreaks: 1

[Editor]
DistanceSpacing: 0.6
BeatDivisor: 4
GridSize: 8

[Metadata]
Title:Hacking to the Gate
Artist:Kanako Itou
Creator:taka1235
Version:Easy
Source:
Tags:azuki

[Difficulty]
HPDrainRate:3
CircleSize:3
OverallDifficulty:3
ApproachRate:3
SliderMultiplier:1.1
SliderTickRate:1

[Events]
//Background and Video events
0,0,"11_0404steins_gate0048.jpg"
Video,0,"S.G Op.avi"
//Break Periods
2,37813,42322
2,49738,54061
//Storyboard Layer 0 (Background)
//Storyboard Layer 1 (Fail)
//Storyboard Layer 2 (Pass)
//Storyboard Layer 3 (Foreground)
//Storyboard Sound Samples
//Background Colour Transformations
3,100,163,162,255

[TimingPoints]
160,372.670807453416,4,1,0,100,1,0
2116,-100,4,2,0,75,0,0
3420,-100,4,1,0,100,0,0
3607,-100,4,2,0,75,0,0
4911,-100,4,1,0,100,0,0
5097,-100,4,2,0,75,0,0
6402,-100,4,1,0,100,0,0
6588,-100,4,1,0,65,0,0
8079,-100,4,2,0,75,0,0
9383,-100,4,1,0,100,0,0
9569,-100,4,2,0,75,0,0
10874,-100,4,1,0,65,0,0
11060,-100,4,2,0,75,0,0
11619,-100,4,1,0,80,0,0
11805,-100,4,2,0,75,0,0
12364,-100,4,1,0,91,0,0
12551,-100,4,2,0,75,0,0
13110,-100,4,1,0,100,0,0
13296,-100,4,2,0,75,0,0
13855,-100,4,2,0,60,0,0
22799,-100,4,1,0,100,0,0
23731,-100,4,2,0,72,0,0
25781,-100,4,2,0,60,0,0
34725,-100,4,2,0,80,0,0
36029,-100,4,2,0,100,0,0
36961,-100,4,2,0,81,0,0
37520,-111.111111111111,4,2,0,60,0,0
43482,-100,4,2,0,71,0,0
48141,-100,4,2,0,80,0,0
49445,-111.111111111111,4,2,0,60,0,0
54104,-111.111111111111,4,2,0,72,0,0
55408,-100,4,2,0,77,0,0
58203,-100,4,2,0,69,0,0
58948,-100,4,2,0,80,0,0
59694,-100,4,2,0,90,0,0
60532,-100,4,2,0,100,0,1
61930,-100,4,1,0,100,0,0
62116,-100,4,2,0,73,0,0
63048,-100,4,1,0,71,0,0
64538,-100,4,1,0,67,0,0
69010,-100,4,1,0,59,0,0
69569,-100,4,1,0,65,0,0
70874,-100,4,1,0,58,0,0
74228,-100,4,1,0,73,0,0
74600,-100,4,1,0,70,0,0
76464,-100,4,2,0,79,0,0
86899,-100,4,2,0,5,0,0

[Colours]
Combo1 : 0,189,189
Combo2 : 166,0,0
Combo3 : 255,128,255
Combo4 : 192,192,192

[HitObjects]
144,192,2023,2,0,B|144:184|144:184|136:184|136:184|136:192|136:192|136:200|136:200|144:200|144:200|152:200|152:200|152:192|152:192|152:184|152:184|152:176|152:176|144:176|144:176|136:176|136:176|128:176|128:176|128:184|128:184|128:192|128:192|128:200|128:200|128:208|128:208|136:208|136:208|144:208|144:208|152:208|152:208|160:208|160:208|160:192|160:192|160:200|160:200|160:184|160:184|160:176|160:176|160:168|160:168|152:168|152:168|144:168|144:168|136:168|136:168|128:168|128:168|120:168|120:168|120:176|120:176|120:184|120:184|120:192|120:192|120:200|120:200|120:208|120:208|120:216|120:216|128:216|128:216|136:216|136:216|144:216|144:216|152:216|152:216|160:216|160:216|160:216,1,330,4|2
256,80,3514,6,0,B|256:72|256:72|248:72|248:72|248:80|248:80|248:88|248:88|256:88|256:88|264:88|264:88|264:80|264:80|264:72|264:72|264:64|264:64|256:64|256:64|248:64|248:64|240:64|240:64|240:72|240:72|240:80|240:80|240:88|240:88|240:96|240:96|248:96|248:96|256:96|256:96|264:96|264:96|272:96|272:96|272:80|272:80|272:88|272:88|272:72|272:72|272:64|272:64|272:56|272:56|264:56|264:56|256:56|256:56|248:56|248:56|240:56|240:56|232:56|232:56|232:64|232:64|232:72|232:72|232:80|232:80|232:88|232:88|232:96|232:96|232:104|232:104|240:104|240:104|248:104|248:104|256:104|256:104|264:104|264:104|272:104|272:104|272:104,1,330,4|2
368,192,5004,6,0,B|368:200|368:200|376:200|376:200|376:192|376:192|376:184|376:184|368:184|368:184|360:184|360:184|360:192|360:192|360:200|360:200|360:208|360:208|368:208|368:208|376:208|376:208|384:208|384:208|384:200|384:200|384:192|384:192|384:184|384:184|384:176|384:176|376:176|376:176|368:176|368:176|360:176|360:176|352:176|352:176|352:192|352:192|352:184|352:184|352:200|352:200|352:208|352:208|352:216|352:216|360:216|360:216|368:216|368:216|376:216|376:216|384:216|384:216|392:216|392:216|392:208|392:208|392:200|392:200|392:192|392:192|392:184|392:184|392:176|392:176|392:168|392:168|384:168|384:168|376:168|376:168|368:168|368:168|360:168|360:168|352:168|352:168|352:168,1,330,4|2
256,304,6495,6,0,B|248:304|248:304|248:312|248:312|256:312|256:312|264:312|264:312|264:304|264:304|264:296|264:296|256:296|256:296|248:296|248:296|240:296|240:296|240:304|240:304|240:312|240:312|240:320|240:320|248:320|248:320|256:320|256:320|264:320|264:320|272:320|272:320|272:312|272:312|272:304|272:304|272:296|272:296|272:288|272:288|256:288|256:288|264:288|264:288|248:288|248:288|240:288|240:288|232:288|232:288|232:296|232:296|232:304|232:304|232:312|232:312|232:320|232:320|232:328|232:328|240:328|240:328|248:328|248:328|256:328|256:328|264:328|264:328|272:328|272:328|280:328|280:328|280:320|280:320|280:312|280:312|280:304|280:304|280:296|280:296|280:288|280:288|280:288,1,330,4|2
376,280,7986,6,0,B|416:232|472:160|384:112|384:112|328:128|224:168|208:312|208:312|88:256|96:136|96:136|160:88,1,770,4|0
256,192,10967,12,4,13948
96,80,14694,5,0
160,168,15439,2,0,B|224:144|200:64,2,110
88,248,16930,5,0
176,312,17675,1,0
192,200,18420,2,0,B|176:128|96:136,2,110
272,280,19911,5,0
376,312,20656,1,0
440,224,21402,2,0,B|400:160|464:120,3,110
496,96,22892,5,4
344,32,24010,5,4
256,136,24942,5,2
256,136,25314,5,2
176,136,25874,5,4
80,184,26619,1,0
168,248,27364,2,0,B|160:312|80:304,2,110
216,144,28855,5,0
288,232,29600,1,0
176,248,30346,2,0,B|128:288|160:352,2,110
272,304,31837,5,0
336,216,32582,1,0
408,296,33327,2,0,B|472:288|496:352,3,110
504,296,34818,5,4
464,192,35563,1,4
384,168,36122,2,4,B|344:64,1,110
360,48,36681,1,4
408,72,37054,6,0,B|464:72,1,55,4|4
463,72,37613,1,4
464,72,43762,5,0
392,152,44507,1,0
304,80,45253,2,0,B|248:112|272:176,1,110
296,224,45998,1,0
232,312,46743,1,0
168,224,47489,1,0
80,288,48234,6,4,B|88:352,2,55
40,248,48979,2,0,B|16:80,1,165,0|4
456,232,55501,6,0,B|392:344|264:288,1,220,4|0
96,280,56992,6,0,B|160:168|288:224,1,220,4|0
384,264,58482,5,4
440,168,59227,1,4
392,72,59973,5,4
288,32,60719,1,4
168,96,61650,5,4
384,152,63141,6,0,B|344:328,1,165,4|0
296,336,64073,1,0
248,304,64445,6,0,B|144:224|224:104,1,220,4|0
264,80,65563,1,0
224,40,65936,2,0,B|104:-8|16:96,1,220
48,136,67054,1,0
104,120,67427,2,0,B|208:184|160:328,1,220
128,352,68545,1,0
80,328,68917,5,0
80,328,69104,1,4
112,272,69476,1,0
112,272,69663,1,4
56,240,70035,1,0
48,208,70222,1,0
40,176,70408,6,0,B|88:64|240:88,1,220,4|0
280,120,71526,1,0
240,176,71899,2,0,B|280:296|424:264,1,220
464,216,73017,1,0
464,152,73389,2,0,B|400:32|264:88,1,220
232,128,74507,1,4
232,128,74694,1,4
176,88,75066,5,0
176,88,75253,1,0
120,128,75625,1,0
56,104,75998,1,0
40,136,76184,1,0
24,168,76371,6,0,B|72:304|216:272,1,220,4|0
232,224,77489,1,0
192,168,77861,2,0,B|272:80|416:144,1,220
440,184,78979,1,0
432,248,79352,1,0
368,264,79725,1,0
368,264,79911,2,0,B|240:216|152:320,1,220
112,344,81029,5,4
48,320,81402,2,0,B|32:256,1,55,0|4
80,216,81961,2,0,B|152:240,1,55
160,240,82333,6,0,B|264:160|176:32,1,220,4|0
128,16,83451,1,0
72,48,83824,2,0,B|-16:128|80:248,1,220
128,280,84942,1,0
192,256,85315,1,0
240,296,85687,1,0
240,296,85874,1,0
256,192,86060,12,4,89228
