osu file format v6

[General]
AudioFilename: 2607901.mp3
AudioLeadIn: 0
PreviewTime: -1
Countdown: 1
SampleSet: Soft
StackLeniency: 0.7
Mode: 0
LetterboxInBreaks: 1

[Editor]
Bookmarks: 26285,36520,37579,43402,54608,151755,158990,180520,182814,185285
DistanceSpacing: 1
BeatDivisor: 4
GridSize: 16

[Metadata]
Title:Find the Blue
Artist:Kanako Itou
Creator:sk3dnip
Version:Normal
Source:
Tags:Chaos;head Nitroplus game opening

[Difficulty]
HPDrainRate:4
CircleSize:4
OverallDifficulty:3
SliderMultiplier:1.2
SliderTickRate:1

[Events]
//Background and Video events
0,0,"ch6.jpg"
//Break Periods
2,115955,124021
//Storyboard Layer 0 (Background)
//Storyboard Layer 1 (Fail)
//Storyboard Layer 2 (Pass)
//Storyboard Layer 3 (Foreground)
//Storyboard Sound Samples
//Background Colour Transformations
3,100,163,162,255

[TimingPoints]
11991,352.941176470588,4,2,0,100,1,0

[Colours]
Combo1 : 255,128,255
Combo2 : 128,128,255
Combo3 : 0,0,0
Combo4 : 255,255,128

[HitObjects]
112,48,23814,1,0
112,48,23990,1,0
256,48,24343,1,0
400,48,24696,1,0
400,48,24873,1,0
400,176,25226,2,0,B|208:176,2,180
400,336,26638,5,0
400,336,26814,1,0
256,336,27167,1,0
112,336,27520,1,0
112,336,27697,1,0
112,208,28050,2,0,B|292:208,2,180
112,112,29461,5,0
112,112,29638,1,0
192,192,29990,1,0
272,288,30343,1,0
272,288,30520,1,0
368,208,30873,2,0,B|464:112,3,120
336,80,32285,5,0
272,80,32461,2,0,B|176:80|176:160,1,120
176,208,32990,1,0
256,304,33343,1,0
368,304,33696,2,0,B|448:304|432:128,1,180
432,96,34402,1,0
320,48,34755,1,0
224,128,35108,5,0
224,128,35285,1,0
112,80,35638,1,0
96,192,35990,1,0
96,192,36167,1,0
208,256,36520,2,0,B|112:352|32:240,2,180
336,256,37932,5,0
336,256,38109,1,0
448,304,38462,1,0
464,192,38814,1,0
464,192,38991,1,0
352,128,39344,2,0,B|448:32|528:144,2,180
240,128,40755,5,0
240,128,40932,1,0
128,176,41285,1,0
48,272,41638,1,0
160,304,41990,2,0,B|176:176|224:128|256:336|288:368|352:128,1,360
448,80,43402,5,0
320,80,43755,1,0
384,176,44108,2,0,B|384:240,3,60
272,256,44990,2,0,B|208:336|96:256,1,180
112,144,45696,5,0
208,64,46049,2,0,B|272:112|272:112|272:176,1,120
272,208,46579,2,0,B|368:240|368:240|448:224,2,180
272,96,48520,6,0,B|272:240,1,120
272,272,49049,2,0,B|224:384|112:320,1,180
96,272,49755,2,0,B|0:160|112:48,2,240
144,96,51696,5,0
256,96,52049,1,0
432,96,52579,2,0,B|368:96|368:96|368:112,3,60
368,224,53461,5,0
256,272,53814,1,0
256,272,53990,1,0
144,208,54343,1,0
144,208,54520,1,0
144,96,54873,2,0,B|352:96,1,180
368,144,55579,6,0,B|304:192,1,60
400,272,56108,2,0,B|448:224,1,60
96,112,57343,5,0
32,208,57696,1,0
160,208,58049,1,0
160,320,58402,1,0
267,204,58755,1,0
160,208,59108,2,0,B|207:159|271:207,2,120,0|0|0
160,208,59990,2,0,B|96:144|160:96,1,120
208,96,60520,2,0,B|272:16|368:112,1,180
416,128,61226,6,0,B|448:192,1,60
352,256,61755,2,0,B|304:320,1,60
208,272,62285,2,0,B|112:176,1,120
400,64,63520,1,0
400,64,63873,1,0
400,64,64226,1,0
400,64,64579,1,0
400,64,64932,1,0
448,176,65285,2,0,B|320:176,1,120
128,320,66343,5,0
128,320,66696,1,0
128,320,67049,1,0
128,192,67402,1,0
128,64,67755,1,0
128,64,68108,1,0
128,64,68461,1,0
336,80,68990,5,0
336,80,69167,1,0
384,192,69520,1,0
384,192,69696,1,0
432,304,70049,1,0
320,272,70402,2,0,B|224:288|240:192,1,120
272,160,70932,2,0,B|272:64|176:80,1,120
64,64,71638,5,0
96,176,71990,1,0
144,288,72343,1,0
144,288,72520,1,0
256,240,72873,1,0
256,240,73049,1,0
368,288,73402,1,0
368,288,73579,1,0
432,192,73932,1,0
432,192,74108,1,0
464,80,74461,1,0
256,208,74990,12,0,75873
112,80,76226,6,0,B|192:80,3,60
288,80,77108,1,0
336,112,77285,1,0
432,192,77638,2,0,B|288:304|288:304|192:224,1,300
144,112,78873,5,0
224,32,79226,2,0,B|224:160,1,120
224,208,79755,2,0,B|224:112|224:112|320:96,1,180
368,96,80461,2,0,B|464:112|496:224|352:256,1,240
192,304,81696,5,0
192,304,81873,1,0
128,208,82226,1,0
144,96,82579,2,0,B|224:32|336:112,1,180
320,160,83285,2,0,B|320:288|416:304,1,180
432,64,84520,5,0
432,64,84696,1,0
320,64,85049,2,0,B|256:16|192:64,1,120
208,112,85579,2,0,B|256:176|336:112,1,120
313,127,86108,5,0
368,240,86461,1,0
368,240,86638,1,0
448,144,86990,1,0
448,144,87167,1,0
336,96,87520,6,0,B|256:64,2,60
320,160,88049,2,0,B|288:224,2,60
224,240,88755,6,0,B|256:304,2,60
160,240,89285,2,0,B|96:272|96:272|112:272,3,60
208,320,90167,6,0,B|288:320|288:320|320:272,1,120
256,256,90696,2,0,B|176:256|176:256|144:208,1,120
208,192,91226,2,0,B|288:192|288:192|304:144,1,120
256,208,91755,12,0,92814
96,96,93167,5,0
144,128,93343,1,0
96,240,93696,1,0
192,304,94049,1,0
304,304,94402,2,0,B|400:304|400:96,1,240
224,96,95638,5,0
224,96,95814,1,0
80,208,96343,5,0
176,272,96696,1,0
272,192,97049,1,0
272,192,97226,1,0
368,112,97579,1,0
272,48,97932,1,0
272,48,98108,1,0
96,48,98638,5,0
272,208,99343,1,0
400,96,99873,1,0
224,48,100402,1,0
128,128,100755,1,0
304,128,101285,1,0
240,224,101638,1,0
192,48,102167,1,0
304,64,102520,1,0
384,144,102873,2,0,B|192:176|144:320,1,300
32,288,104108,6,0,B|32:0|256:0|480:0|464:288,1,750
256,208,106579,12,0,109402
128,112,109755,5,0
368,112,110108,1,0
208,288,110461,1,0
448,288,110814,1,0
208,288,111167,1,0
256,208,111520,12,0,112932
256,208,113461,12,0,115755
