osu file format v6

[General]
AudioFilename: 2607901.mp3
AudioLeadIn: 0
PreviewTime: -1
Countdown: 1
SampleSet: Normal
StackLeniency: 0.7
Mode: 0
LetterboxInBreaks: 1

[Editor]
Bookmarks: 34755,86108,86638,87167
DistanceSpacing: 1.5
BeatDivisor: 4
GridSize: 8

[Metadata]
Title:Find the Blue
Artist:Kanako Itou
Creator:sk3dnip
Version:Hard
Source:
Tags:

[Difficulty]
HPDrainRate:5
CircleSize:5
OverallDifficulty:8
SliderMultiplier:1.4
SliderTickRate:1

[Events]
//Background and Video events
0,0,"ch6.jpg"
//Break Periods
2,48720,49888
2,74661,75476
2,115955,124711
2,176308,177123
//Storyboard Layer 0 (Background)
//Storyboard Layer 1 (Fail)
//Storyboard Layer 2 (Pass)
//Storyboard Layer 3 (Foreground)
//Storyboard Sound Samples
//Background Colour Transformations
3,100,163,162,255

[TimingPoints]
11991,352.941176470588,4,1,0,51,1,0
42079,-200,4,1,0,51,0,0
43667,-100,4,1,0,51,0,0
147255,-200,4,1,0,51,0,0
147961,-100,4,1,0,51,0,0
193314,-200,4,1,0,51,0,0
194549,-100,4,1,0,51,0,0

[Colours]
Combo1 : 0,0,0
Combo2 : 254,244,163
Combo3 : 96,96,255
Combo4 : 253,168,225

[HitObjects]
102,62,23814,5,0
151,111,23990,2,0,B|200:58,1,70
268,59,24343,1,0
268,59,24432,1,0
268,59,24520,1,0
318,109,24696,1,0
367,59,24873,1,0
424,192,25226,5,0
372,140,25402,2,0,B|325:192,1,70
255,192,25755,1,0
255,192,25844,1,0
255,192,25932,1,0
205,143,26108,1,0
156,192,26285,1,0
94,318,26638,5,0
143,268,26814,2,0,B|192:322,1,70
264,320,27167,2,0,B|264:360,2,35
310,271,27520,1,0
359,320,27697,1,0
384,184,28049,6,0,B|416:152,2,35
328,136,28402,1,0
312,208,28579,2,0,B|248:136,1,70
192,152,28932,2,0,B|128:200,1,70
232,296,29461,5,0
176,256,29638,2,0,B|280:152,1,140
328,200,30167,1,0
328,200,30255,1,0
328,200,30343,1,0
376,152,30520,1,0
376,152,30608,1,0
376,152,30696,1,0
312,128,30873,2,0,B|168:40,1,140
192,54,31402,1,0
96,152,31755,5,0
96,152,31932,1,0
216,232,32285,5,0
264,280,32461,2,0,B|376:152,1,140
296,136,32990,2,0,B|272:168,2,35
344,80,33343,2,0,B|368:48,2,35
416,96,33696,2,0,B|504:144|504:144|408:160,2,175
416,96,34755,1,0
448,232,35108,5,0
376,232,35285,2,0,B|328:312,1,70
304,232,35638,2,0,B|256:304,1,70
232,224,35990,2,0,B|184:288,1,70
48,256,36520,5,0
48,192,36696,2,0,B|112:128,3,70
160,144,37402,1,0
160,80,37579,1,0
280,40,37932,5,0
352,40,38108,2,0,B|304:128,1,70
388,101,38461,1,0
424,40,38638,1,0
456,102,38814,2,0,B|456:192,1,70
328,240,39343,6,0,B|392:352|464:240,2,175
256,240,40402,1,0
160,328,40755,5,0
96,320,40932,2,0,B|176:192,1,140
112,160,41461,1,0
160,112,41638,1,0
112,64,41814,1,0
184,56,41990,1,0
246,64,42167,2,0,B|336:144|112:192|272:288,1,245
320,273,43579,5,0
320,272,43755,2,0,B|182:190|406:142|316:62,2,245
368,216,45167,1,0
328,160,45343,1,0
400,152,45520,1,0
448,208,45696,6,0,B|384:288|320:176,1,140
335,200,46226,1,0
264,200,46402,1,0
144,112,46579,1,0
32,200,46932,1,0
416,64,47814,5,0
256,304,48167,1,0
112,64,48520,1,0
416,304,50638,5,0
256,64,50990,1,0
96,304,51343,1,0
352,192,51696,5,0
288,192,51873,1,0
288,192,52049,2,0,B|288:112,2,70
288,192,52579,1,0
224,192,52755,1,0
224,192,52932,2,0,B|224:272,2,70
224,192,53461,2,0,B|144:192,1,70
154,192,53814,1,0
128,256,53990,1,0
96,192,54167,1,0
128,128,54343,1,0
154,192,54520,1,0
224,192,54696,1,0
192,128,54873,2,0,B|320:128,1,105
392,280,55579,5,0
392,208,55755,1,0
120,104,56107,1,0
120,176,56283,1,0
368,256,57343,5,0
304,256,57520,1,0
304,256,57696,2,0,B|304:352,2,70
304,256,58226,1,0
240,256,58402,1,0
240,192,58579,1,0
176,192,58755,1,0
104,192,58932,5,0
176,192,59108,2,0,B|176:336,1,140
105,332,59638,1,0
56,282,59814,1,0
105,233,59990,1,0
38,211,60167,2,0,B|96:144,1,70
83,158,60520,1,0
151,140,60696,1,0
128,80,60873,1,0
64,104,61049,2,0,B|141:75,1,70
192,64,61402,2,0,B|256:32,2,70
224,128,61932,2,0,B|304:80,1,70
352,64,62285,1,0
416,96,62461,1,0
384,160,62638,1,0
208,224,63520,5,0
224,288,63696,2,0,B|168:344,1,70
224,288,64049,1,0
176,336,64226,2,0,B|80:336,1,70
176,336,64579,1,0
248,336,64755,5,0
96,96,65108,5,0
376,104,65461,5,0
80,128,66343,5,0
112,64,66520,1,0
144,128,66696,1,0
112,64,66873,2,0,B|256:64,1,140
304,112,67402,1,0
352,64,67579,2,0,B|452:64,2,70
304,112,68108,1,0
304,184,68285,1,0
208,282,68990,6,0,B|128:282,1,70
80,282,69343,1,0
80,346,69520,1,0
144,346,69696,2,0,B|224:346,1,70
272,346,70049,1,0
272,346,70226,2,0,B|336:282,1,70
322,296,70579,2,0,B|384:362,1,70
370,347,70932,2,0,B|416:282,1,70
256,64,71638,6,0,B|256:112,2,35
256,64,71990,1,0
57,262,72343,1,0
107,212,72520,1,0
454,262,72873,1,0
404,212,73050,1,0
256,64,73402,1,0
256,64,73579,1,0
112,336,73932,2,0,B|32:336,2,70
184,336,74461,1,0
320,256,76226,5,0
368,208,76402,1,0
320,160,76579,1,0
368,112,76755,1,0
320,64,76932,2,0,B|240:64,2,70
250,320,77638,5,0
208,272,77814,1,0
176,320,77990,1,0
144,272,78167,1,0
112,320,78343,1,0
48,320,78520,2,0,B|48:224,1,70
48,112,78873,6,0,B|48:208|144:208,1,140
184,248,79402,1,0
233,198,79579,1,0
283,247,79755,1,0
233,297,79932,2,0,B|233:153,1,140
232,88,80461,2,0,B|232:144,8,35
368,288,81696,5,0
406,229,81873,1,0
334,229,82049,1,0
368,168,82226,1,0
368,96,82402,2,0,B|336:64|304:96,1,70
288,160,82755,2,0,B|256:192|224:160,1,70
216,96,83108,2,0,B|184:64|152:96,1,70
136,160,83461,2,0,B|104:192|72:160,1,70
136,160,83814,1,0
136,160,83990,1,0
432,288,84520,5,0
368,288,84696,2,0,B|368:240,2,35
304,288,85049,2,0,B|304:336,2,35
240,288,85402,2,0,B|160:288,1,70
99,288,85755,1,0
88,152,86108,5,0
120,136,86196,1,0
152,120,86285,1,0
184,104,86373,1,0
216,88,86461,1,0
280,120,86638,1,0
272,152,86726,1,0
264,184,86814,1,0
256,216,86902,1,0
248,248,86990,1,0
240,280,87079,1,0
232,312,87167,1,0
80,304,87520,5,0
144,272,87696,1,0
208,240,87873,2,0,B|256:240|272:192,1,70
320,160,88226,2,0,B|320:112|384:112,1,70
448,64,88755,5,0
400,112,88932,1,0
464,128,89108,1,0
416,176,89285,1,0
464,224,89461,1,0
400,240,89638,2,0,B|336:160|288:240,1,140
192,256,90167,5,0
256,256,90343,2,0,B|240:368|128:304,1,140
128,256,90873,2,0,B|128:160|224:192,1,140
288,192,91402,2,0,B|288:128|224:128,1,70
192,128,91755,2,0,B|144:128,6,35
288,128,92814,5,0
336,80,92990,1,0
352,144,93167,2,0,B|416:176,2,70
414,175,93696,2,0,B|352:256,1,70
304,208,94049,2,0,B|320:288,1,70
384,288,94402,2,0,B|384:336,10,35
160,304,95638,5,0
160,96,95814,5,0
256,256,96343,5,0
304,208,96520,1,0
320,272,96696,1,0
368,224,96873,1,0
384,288,97049,1,0
432,240,97226,2,0,B|480:160|336:144,1,140
304,128,97755,1,0
240,112,97932,2,0,B|224:160,6,35
176,288,98638,5,0
112,304,98814,2,0,B|80:208,3,70
144,208,99520,1,0
192,160,99696,2,0,B|224:128|192:96,1,70
256,130,100049,1,0
320,160,100226,2,0,B|288:128|320:96,1,70
384,80,100579,2,0,B|368:32|320:0|272:32|256:80,1,175
257,76,101108,1,0
208,128,101285,5,0
208,128,101373,1,0
208,128,101461,1,0
240,192,101638,1,0
240,192,101726,1,0
240,192,101814,1,0
272,256,101990,2,0,B|240:304|240:304|296:304|328:304,1,140
376,304,102520,2,0,L|432:304|408:232,1,105
408,224,102873,2,0,L|384:136|288:136,2,175
256,344,104108,1,0
64,192,104461,1,0
256,48,104814,1,0
440,192,105167,1,0
256,344,105520,1,0
256,208,108255,12,0,109402
256,320,109755,5,0
400,192,110108,1,0
256,64,110461,1,0
120,192,110814,1,0
256,192,111167,1,0
160,288,111520,5,0
224,288,111696,1,0
288,288,111873,1,0
352,288,112049,1,0
256,208,112138,12,0,112932
256,208,113461,12,0,115755
128,80,125461,5,0
80,128,125638,2,0,B|128:192,1,70
184,144,125990,1,0
224,208,126167,1,0
160,240,126343,2,0,B|160:320,1,70
304,304,126873,6,0,B|384:304,1,70
448,304,127226,1,0
448,304,127314,1,0
448,304,127402,1,0
448,232,127579,1,0
448,160,127755,2,0,B|384:88,1,70
256,64,128285,5,0
192,64,128461,1,0
224,128,128638,1,0
160,128,128814,1,0
128,64,128990,1,0
160,128,129167,1,0
192,192,129343,1,0
64,240,129696,5,0
64,240,129785,1,0
64,240,129873,1,0
112,288,130049,2,0,B|176:336,1,70
168,330,130402,1,0
168,330,130579,2,0,B|240:272,1,70
368,272,131108,5,0
336,208,131285,2,0,B|320:160|256:176,1,70
240,224,131638,1,0
208,160,131814,1,0
144,192,131990,1,0
144,192,132079,1,0
144,192,132167,1,0
112,128,132343,1,0
176,96,132520,2,0,B|272:64|288:176,1,140
352,128,133049,1,0
416,96,133226,1,0
432,128,133314,1,0
448,160,133402,1,0
384,192,133579,1,0
320,224,133755,1,0
256,256,133932,5,0
208,304,134108,2,0,B|176:336|144:304,1,70
80,304,134461,2,0,B|48:272|80:240,1,70
144,208,134814,2,0,B|176:176|144:144,2,70
80,176,135343,2,0,B|32:96|208:32,1,210
240,96,136049,1,0
272,80,136138,1,0
304,64,136226,1,0
352,112,136402,1,0
448,224,136755,5,0
400,272,136932,2,0,B|368:192,1,70
336,272,137285,2,0,B|272:208,1,70
272,288,137638,2,0,B|192:288,1,70
64,288,138167,5,0
112,336,138343,2,0,B|176:272,1,70
112,240,138696,2,0,B|80:176,1,70
144,160,139049,2,0,B|192:96,1,70
320,64,139579,5,0
360,120,139755,1,0
432,96,139932,1,0
360,120,140108,1,0
408,168,140285,1,0
360,216,140461,1,0
304,168,140638,1,0
208,64,140990,5,0
144,64,141167,1,0
144,64,141343,2,0,B|64:112|224:128|144:176,1,140
152,170,141873,1,0
82,170,142049,1,0
208,224,142402,5,0
240,288,142579,2,0,B|272:320|304:288,1,70
336,232,142932,1,0
384,288,143108,1,0
432,224,143285,2,0,B|432:48|432:48|400:64,1,210
336,96,143990,1,0
272,64,144167,1,0
208,96,144343,1,0
208,96,144432,1,0
208,96,144520,1,0
208,160,144696,1,0
208,240,144873,1,0
208,304,145049,1,0
208,240,145226,5,0
272,240,145402,2,0,B|240:160|160:160|144:256,2,175
336,240,146461,1,0
384,192,146638,1,0
384,192,146726,1,0
336,144,146902,1,0
336,144,146990,1,0
384,96,147167,1,0
336,48,147343,6,0,B|288:128|208:48,1,140
80,64,148226,1,0
80,336,148579,1,0
32,192,149461,5,0
256,192,149814,1,0
496,192,150167,1,0
400,48,151049,5,0
400,312,151402,2,0,B|400:352,4,35
256,32,152285,5,0
256,192,152638,1,0
256,336,152990,1,0
128,272,153343,5,0
176,224,153520,1,0
224,272,153696,2,0,B|304:272,1,70
336,224,154049,1,0
384,272,154226,1,0
432,224,154402,1,0
384,176,154579,1,0
336,224,154755,1,0
384,272,154932,1,0
384,272,155108,2,0,B|384:128,1,140
384,132,155638,2,0,B|384:96,2,35
320,96,155990,1,0
256,64,156167,1,0
256,128,156343,1,0
320,160,156520,2,0,B|256:224|192:160,1,140
96,64,157226,5,0
96,64,157402,1,0
400,320,157755,5,0
400,320,157932,1,0
400,64,158990,5,0
368,128,159167,1,0
368,128,159255,1,0
416,176,159432,1,0
416,176,159520,1,0
368,224,159696,1,0
320,272,159873,1,0
320,272,159961,1,0
320,272,160049,1,0
256,224,160226,2,0,B|192:160,1,70
256,128,160579,1,0
208,80,160755,1,0
160,128,160932,1,0
208,176,161108,2,0,B|144:240,3,70
112,176,161814,1,0
64,224,161990,1,0
112,272,162167,2,0,B|208:336|288:176,1,210
336,240,162873,5,0
384,192,163049,1,0
336,144,163226,1,0
384,96,163402,1,0
432,144,163579,2,0,B|368:80,1,70
336,48,163932,5,0
288,96,164108,1,0
240,48,164285,1,0
48,336,165167,5,0
80,272,165343,2,0,B|80:224|144:224,1,70
160,288,165696,2,0,B|208:288|208:240,1,70
208,176,166049,2,0,B|208:128|256:128,1,70
288,192,166402,2,0,B|336:192|336:144,3,70
336,80,167108,2,0,B|384:48|384:48|384:208,1,210
384,336,167990,5,0
336,288,168167,1,0
288,240,168343,1,0
240,192,168520,1,0
288,144,168696,1,0
336,96,168873,1,0
384,144,169049,1,0
336,192,169226,2,0,B|272:128,1,70
240,96,169579,1,0
192,144,169755,1,0
144,192,169932,1,0
128,288,170638,5,0
192,288,170814,1,0
256,288,170990,1,0
320,288,171167,1,0
384,288,171343,1,0
288,184,171696,1,0
376,72,172049,2,0,B|264:8|152:72,2,210
376,72,173285,6,0,B|376:24,2,35
376,296,173638,1,0
312,296,173814,1,0
80,296,174167,1,0
80,232,174343,1,0
80,72,174696,1,0
144,72,174873,1,0
368,72,175226,2,0,B|272:72,2,70,0|0|0
328,128,175755,1,0
272,176,175932,1,0
272,176,176020,1,0
272,176,176108,1,0
176,304,177873,5,0
192,240,178049,1,0
256,240,178226,1,0
240,176,178402,2,0,B|304:144,1,70
320,80,178755,1,0
384,80,178932,1,0
400,224,179285,5,0
336,192,179461,1,0
272,224,179638,1,0
240,160,179814,2,0,B|176:128,1,70
112,160,180167,1,0
176,32,180520,5,0
128,80,180696,1,0
176,128,180873,1,0
224,80,181049,1,0
352,32,181402,1,0
448,128,181755,1,0
480,192,181932,1,0
416,192,182108,2,0,B|304:64|304:336|176:192,1,280
80,304,183167,5,0
160,304,183343,5,0
224,272,183520,1,0
288,240,183696,1,0
352,208,183873,1,0
400,160,184049,1,0
352,112,184226,2,0,B|320:80|272:112,1,70
224,112,184579,2,0,B|192:144|256:160|224:176,1,70
160,176,184932,2,0,B|186:163|122:147|154:115,1,70,0|0
80,112,185285,1,0
80,176,185461,2,0,B|112:256|160:256|208:256|240:160,1,210
288,224,186167,5,0
344,264,186343,1,0
344,264,186432,1,0
344,264,186520,1,0
384,208,186696,1,0
384,208,186785,1,0
384,208,186873,1,0
440,256,187049,1,0
464,192,187226,2,0,B|512:128|432:64,1,140
368,64,187755,5,0
320,112,187932,1,0
272,64,188108,1,0
224,112,188285,1,0
176,64,188461,1,0
128,112,188638,1,0
80,64,188814,1,0
80,208,189167,5,0
112,272,189343,1,0
160,224,189520,2,0,B|224:176,1,70
272,224,189873,1,0
320,272,190049,2,0,B|400:288,1,70
416,224,190402,1,0
432,192,190490,1,0
448,160,190579,1,0
384,112,190755,1,0
320,112,190932,2,0,B|272:144|384:144|288:176,2,70
256,112,191461,1,0
112,112,191814,5,0
112,176,191990,2,0,B|64:144,2,35
112,240,192343,2,0,B|176:288,1,70
240,288,192696,1,0
272,272,192785,1,0
320,320,192961,1,0
352,304,193049,1,0
400,256,193226,1,0
464,256,193402,2,0,B|368:144|528:128|448:48,1,210
320,64,194814,5,0
272,128,194990,1,0
224,192,195167,1,0
176,128,195343,1,0
128,64,195520,1,0
80,128,195696,1,0
32,192,195873,1,0
80,256,196049,2,0,B|176:368|288:256,2,210
208,192,197285,5,0
336,256,197461,5,0
224,80,197990,5,0
288,128,198167,1,0
224,160,198343,1,0
288,208,198520,1,0
224,256,198696,1,0
288,288,198873,2,0,B|208:336|208:336|144:288,1,140
96,192,199402,5,0
160,64,199579,2,0,B|192:32|192:32|288:64,1,140
400,128,200285,5,0
448,80,200461,2,0,B|512:144|432:192,1,140
400,256,200990,1,0
448,304,201167,2,0,B|368:368|320:256,1,140
336,208,201696,2,0,B|272:112|352:64,3,140
256,80,202932,5,0
256,80,203020,1,0
256,80,203108,1,0
192,128,203285,1,0
192,128,203373,1,0
192,128,203461,1,0
256,176,203638,1,0
192,208,203814,2,0,B|160:224,2,35
256,240,204167,2,0,B|304:272,2,35
208,304,204520,2,0,B|352:304|352:304|448:144|448:144|352:144,1,420
352,80,205755,5,0
288,48,205932,1,0
232,88,206108,2,0,B|168:144,1,70
128,80,206461,1,0
80,128,206638,1,0
120,184,206814,2,0,B|56:232,1,70
112,288,207167,1,0
176,256,207343,1,0
240,288,207520,2,0,B|272:320|304:288,1,70
304,224,207873,2,0,B|272:192|304:160,1,70
304,96,208226,2,0,B|272:64|240:96,3,70
176,64,208932,5,0
112,96,209108,1,0
160,144,209285,2,0,B|96:192,1,70
64,240,209638,2,0,B|128:320,1,70
176,272,209990,2,0,B|256:240,1,70
272,176,210343,1,0
288,112,210520,1,0
352,80,210696,2,0,B|432:48,1,70
432,128,211049,2,0,B|448:208,1,70
384,240,211402,5,0
328,288,211579,1,0
264,240,211755,1,0
264,240,211843,1,0
192,272,212020,1,0
192,272,212108,1,0
144,224,212285,1,0
176,160,212461,1,0
136,104,212638,1,0
192,48,212814,1,0
192,48,212902,1,0
192,48,212990,1,0
256,80,213167,2,0,B|320:128,2,70
320,48,213696,1,0
256,208,213873,12,0,214579
256,208,215285,12,0,217402
