osu file format v9

[General]
AudioFilename: A.R..mp3
AudioLeadIn: 0
PreviewTime: 70302
Countdown: 1
SampleSet: Normal
StackLeniency: 0.7
Mode: 0
LetterboxInBreaks: 1

[Editor]
Bookmarks: 6725,35161,43627
DistanceSpacing: 0.5
BeatDivisor: 2
GridSize: 8

[Metadata]
Title:A.R.
Artist:Kanako Itou
Creator:Rigeru
Version:Easy
Source:Steins;Gate
Tags:Nitroplus 5pb xbox360 MForever

[Difficulty]
HPDrainRate:3
CircleSize:3
OverallDifficulty:3
ApproachRate:4
SliderMultiplier:1
SliderTickRate:0.5

[Events]
//Background and Video events
0,0,"wall0925_M.jpg"
//Break Periods
//Storyboard Layer 0 (Background)
//Storyboard Layer 1 (Fail)
//Storyboard Layer 2 (Pass)
//Storyboard Layer 3 (Foreground)
//Storyboard Sound Samples
//Background Colour Transformations
3,100,255,255,255

[TimingPoints]
335,368.098159509202,4,1,0,70,1,0
71009,-100,4,1,0,70,0,1
87758,-100,4,1,0,70,0,1
100641,-100,4,1,0,70,0,0

[Colours]
Combo1 : 255,255,128
Combo2 : 128,255,255
Combo3 : 0,255,128

[HitObjects]
104,256,21316,1,0
208,256,22052,1,0
304,256,22788,1,2
304,160,23525,1,2
304,64,24261,1,0
224,120,24997,1,2
144,64,25733,1,0
144,112,26101,6,0,B|256:192|360:88,1,200,2|2
432,120,27574,2,2,B|512:232|408:336,1,200,2|6
224,304,29782,6,0,B|224:200,5,100,0|0|2|2|2|2
120,96,33095,5,0
148,191,33831,1,0
235,238,34568,1,2
332,217,35304,1,2
379,129,36040,1,0
286,90,36776,1,2
192,120,37512,1,2
192,120,37881,6,0,B|192:208|360:208,1,200,0|2
296,120,39353,2,2,B|296:208|128:208,1,200
256,192,41377,12,2,43954
264,112,44506,5,0
344,176,45242,1,2
296,264,45979,1,0
200,240,46715,1,2
176,144,47451,1,0
272,112,48187,1,2
344,184,48923,1,0
256,192,50396,12,4,55733
192,272,56285,5,0
96,272,57022,1,0
96,176,57758,1,2
96,80,58494,1,2
192,80,59230,1,0
288,80,59966,1,2
288,176,60703,1,0
384,176,61439,5,2
384,248,61991,2,0,B|264:192|256:256|176:280|152:200,1,250,0|2
152,136,63463,6,0,B|256:80|280:168|360:168|360:32,1,250,2|4
256,192,64936,12,4,69537
96,112,70273,5,0
96,112,70641,1,0
96,112,71009,2,0,B|184:184|240:184|288:184|376:104,1,300,0|2
368,64,72482,6,0,B|440:152|440:208|440:256|360:344,1,300,0|2
320,328,73954,2,0,B|320:216,5,100,2|0|2|2|2|2
256,192,76163,12,2,78003
368,64,78371,6,0,B|440:152|440:208|440:256|360:344,1,300,0|2
320,328,79844,1,0
288,288,80212,1,0
320,248,80580,1,0
288,208,80948,1,0
320,168,81316,1,0
288,128,81684,1,2
256,192,82052,12,2,83893
200,120,84261,6,0,B|280:120|344:120,1,100
352,120,84997,2,2,B|352:200|352:264,1,100
304,224,85733,6,0,B|224:224|160:224,1,100
152,224,86469,2,2,B|152:304|152:368,1,100
200,328,87206,5,0
200,328,87574,1,0
200,328,87942,2,2,B|304:264|344:240|392:208,1,200,0|2
296,160,89414,2,2,B|192:96|152:72|104:40,1,200,2|6
256,192,91255,12,0,93463
176,192,93831,5,2
176,192,94200,1,2
176,192,94568,1,2
336,192,95304,5,2
336,192,95672,1,2
336,192,96040,1,2
256,192,97144,12,4,100457
