osu file format v13

[General]
AudioFilename: Kana Hanazawa - The last ceremony.mp3
AudioLeadIn: 0
PreviewTime: 59297
Countdown: 0
SampleSet: Normal
StackLeniency: 0.7
Mode: 0
LetterboxInBreaks: 0
WidescreenStoryboard: 1

[Editor]
Bookmarks: 1937,9617,24977,40337,59297,74897
DistanceSpacing: 1.2
BeatDivisor: 4
GridSize: 16
TimelineZoom: 1.15

[Metadata]
Title:The Last Ceremony (Tv Size)
TitleUnicode:The Last Ceremony (Tv Size)
Artist:Kana Hanazawa
ArtistUnicode:黒猫
Creator:_Xenophilius_
Version:Hard
Source:Ore No Imout Ga Konna Ni Kawaii Wake Ga Nai
Tags:Ending Season 2 Episode 14 Ruri Gokou Kuroneko
BeatmapID:602501
BeatmapSetID:264267

[Difficulty]
HPDrainRate:7
CircleSize:4
OverallDifficulty:8
ApproachRate:7
SliderMultiplier:1.4
SliderTickRate:1

[Events]
//Background and Video events
0,0,"bg_img.jpg",0,0
Video,0,"bg_video.avi"
//Break Periods
//Storyboard Layer 0 (Background)
//Storyboard Layer 1 (Fail)
//Storyboard Layer 2 (Pass)
//Storyboard Layer 3 (Foreground)
//Storyboard Sound Samples

[TimingPoints]
17,480,4,1,0,30,1,0
59297,-100,4,1,0,30,0,1
67217,-50,4,1,0,30,0,1
68897,-100,4,1,0,30,0,1
74897,-100,4,1,0,30,0,0
76337,-200,4,1,0,30,0,0

[Colours]
Combo1 : 128,255,255
Combo2 : 255,255,255

[HitObjects]
352,192,1697,5,0,0:0:0:0:
440,196,1937,2,0,P|416:128|344:108,1,140
256,96,2657,1,0,0:0:0:0:
72,196,2897,2,0,P|96:128|168:108,1,140
160,192,3617,1,0,0:0:0:0:
256,272,3857,6,8,L|336:304,1,70
400,192,4337,2,8,L|432:112,1,70
256,80,4817,2,8,P|176:80|128:128,1,140,8|0,0:0|0:0,0:0:0:0:
144,128,5537,1,0,0:0:0:0:
256,192,5777,6,0,P|256:224|208:256,2,70,0|0|0,0:0|0:0|0:0,0:0:0:0:
192,128,6497,1,0,0:0:0:0:
112,64,6737,2,0,P|48:112|48:160,2,105,0|0|0,0:0|0:0|0:0,0:0:0:0:
224,256,8417,6,8,P|256:288|300:296,1,70
288,224,8897,2,8,P|356:224|376:204,1,70
324,164,9377,1,12,0:0:0:0:
256,192,9617,12,12,10577,0:0:0:0:
128,192,11057,5,0,0:0:0:0:
192,144,11537,2,0,P|256:112|320:160,1,140
384,192,12257,1,0,0:0:0:0:
320,288,12497,2,0,P|296:312|244:312,1,70
264,244,12977,2,0,P|212:264|196:300,1,70
128,320,13457,1,0,0:0:0:0:
384,192,14657,5,0,0:0:0:0:
352,160,14897,1,0,0:0:0:0:
320,128,15137,1,0,0:0:0:0:
256,80,15617,2,0,P|224:64|160:80,1,70,0|0,0:0|0:0,0:0:0:0:
208,144,16097,2,0,P|160:144|128:160,1,70,0|0,0:0|0:0,0:0:0:0:
112,232,16577,1,8,0:0:0:0:
196,248,16817,1,8,0:0:0:0:
276,280,17057,1,8,0:0:0:0:
352,320,17297,1,8,0:0:0:0:
464,128,18257,5,0,0:0:0:0:
128,128,18977,6,0,L|96:96,2,35,0|0|0,0:0|0:0|0:0,0:0:0:0:
256,48,19937,1,0,0:0:0:0:
384,80,20657,2,0,P|432:112|448:144,1,70
448,208,21137,1,0,0:0:0:0:
368,320,22337,5,0,0:0:0:0:
320,256,22577,1,0,0:0:0:0:
256,208,22817,1,0,0:0:0:0:
176,176,23057,2,4,P|128:160|64:176,1,105
256,192,23777,12,0,24737,0:0:0:0:
336,128,24977,6,0,L|400:176,1,70,0|0,0:0|0:0,0:0:0:0:
384,256,25457,2,0,L|336:320,1,70
320,208,25937,1,0,0:0:0:0:
248,180,26177,2,0,P|268:144|316:132,2,70,0|0|0,0:0|0:0|0:0,0:0:0:0:
352,192,26897,6,0,P|352:240|320:272,1,70
256,288,27377,2,0,P|208:288|176:256,1,70
160,192,27857,2,0,P|160:144|192:112,1,70
256,96,28337,2,0,P|304:96|336:128,2,70,0|0|0,0:0|0:0|0:0,0:0:0:0:
172,112,29057,1,0,0:0:0:0:
104,172,29297,1,0,0:0:0:0:
132,256,29537,1,0,0:0:0:0:
216,296,29777,1,0,0:0:0:0:
288,248,30017,5,0,0:0:0:0:
324,172,30257,1,0,0:0:0:0:
400,160,30497,2,0,P|372:112|340:104,1,70
288,80,30977,1,0,0:0:0:0:
208,112,31217,1,0,0:0:0:0:
219,206,31457,2,0,B|92:172|136:44,1,210
128,96,32657,6,0,P|80:96|48:112,1,70
128,176,33137,2,0,P|192:160|208:144,1,70
48,176,33617,2,0,P|37:209|39:243,1,70
128,256,34097,2,0,P|176:272|212:264,1,70
176,192,34577,2,0,B|220:188|244:212|244:212,1,70,0|0,0:0|0:0,0:0:0:0:
276,280,35057,2,0,P|316:232|312:200,1,70
284,160,35537,2,0,P|336:148|368:160,1,70
256,192,36017,12,0,37697,0:0:0:0:
400,192,38177,5,0,0:0:0:0:
352,128,38417,2,0,P|320:96|292:84,3,70,0|0|0|0,0:0|0:0|0:0|0:0,0:0:0:0:
280,168,39617,2,0,P|232:144|216:120,1,70
176,64,40097,1,8,0:0:0:0:
144,64,40217,1,8,0:0:0:0:
112,80,40337,6,0,P|72:96|56:128,1,70,8|0,0:0|0:0,0:0:0:0:
136,152,40817,2,0,P|184:128|200:88,1,70
272,100,41297,2,0,P|288:132|288:180,1,70
216,152,41777,2,0,P|200:200|216:232,2,70,0|0|0,0:0|0:0|0:0,0:0:0:0:
284,224,42497,5,0,0:0:0:0:
368,320,42737,2,0,P|416:288|432:256,1,70
352,240,43217,2,0,P|304:224|272:224,1,70
224,320,43697,2,0,P|192:272|192:240,1,70
272,256,44177,2,0,P|256:208|240:192,1,70
304,144,44657,2,0,P|352:112|384:112,1,70
368,192,45137,2,0,P|352:224|320:240,1,70
288,160,45617,2,0,P|256:112|272:80,1,70
288,160,46097,6,8,B|272:208|224:224|176:208|160:160|160:160,4,140,0|8|8|8|8,0:0|0:0|0:0|0:0|0:0,0:0:0:0:
256,96,48497,6,0,P|208:64|176:48,1,70,0|0,0:0|0:0,0:0:0:0:
256,96,48977,2,0,P|304:64|336:48,1,70
264,92,49457,2,0,P|296:120|308:160,1,70
224,160,49937,2,8,P|176:224|192:288,4,140,8|8|8|8|8,0:0|0:0|0:0|0:0|0:0,0:0:0:0:
336,112,52337,1,0,0:0:0:0:
288,272,52817,1,0,0:0:0:0:
128,320,53297,1,0,0:0:0:0:
32,176,53777,1,0,0:0:0:0:
176,80,54257,1,0,0:0:0:0:
336,144,54737,1,0,0:0:0:0:
464,48,55217,1,0,0:0:0:0:
256,192,55697,12,0,58577,0:0:0:0:
256,192,59297,5,0,0:0:0:0:
336,96,59537,2,0,P|384:112|400:128,1,70
176,96,60017,2,0,P|128:112|112:128,1,70
176,240,60497,2,0,P|224:224|256:192,1,70
240,208,60977,1,0,0:0:0:0:
416,224,61217,6,8,L|448:240,2,35,8|8|8,0:0|0:0|0:0,0:0:0:0:
416,144,61697,2,0,P|368:112|336:112,3,70,0|0|0|0,0:0|0:0|0:0|0:0,0:0:0:0:
240,160,62897,5,0,0:0:0:0:
176,96,63137,1,0,0:0:0:0:
256,80,63377,2,0,P|320:48|384:64,1,140,0|0,0:0|0:0,0:0:0:0:
448,160,64097,1,0,0:0:0:0:
448,256,64337,2,0,P|352:288|304:272,1,140
224,224,65057,1,0,0:0:0:0:
144,48,65297,5,0,0:0:0:0:
384,48,65657,1,0,0:0:0:0:
256,112,66017,2,0,L|256:208,1,70
256,192,66737,5,0,0:0:0:0:
160,272,66977,5,0,0:0:0:0:
256,192,67217,2,0,B|272:128|272:128|336:176|336:176|336:128|336:128|416:64,1,280
416,192,67937,1,0,0:0:0:0:
304,192,68177,2,0,B|272:144|272:144|224:224|224:224|192:176|192:176|112:176,1,280
64,176,68897,2,0,L|0:176,2,35,8|8|8,0:0|0:0|0:0,0:0:0:0:
160,128,69377,2,0,P|176:80|208:64,1,70,0|0,0:0|0:0,0:0:0:0:
321,69,69857,2,0,P|346:94|352:128,1,70,0|0,0:0|0:0,0:0:0:0:
208,256,70577,5,0,0:0:0:0:
256,176,70817,1,0,0:0:0:0:
368,160,71057,2,0,P|352:80|304:48,1,140
208,48,71777,1,0,0:0:0:0:
112,48,72017,2,2,P|64:96|64:176,2,140,2|0|2,0:0|0:0|0:0,0:0:0:0:
235,236,73697,1,0,0:0:0:0:
211,171,73937,1,0,0:0:0:0:
276,147,74177,1,0,0:0:0:0:
300,212,74417,1,0,0:0:0:0:
256,192,74657,1,0,0:0:0:0:
256,192,74897,12,0,76097,0:0:0:0:
144,128,76337,6,0,P|176:96|208:96,1,70
313,93,77297,2,0,P|346:101|368:128,1,70
336,208,78017,5,4,0:0:0:0:
320,224,78257,1,4,0:0:0:0:
304,240,78497,1,4,0:0:0:0:
288,256,78737,2,0,P|256:288|224:288,1,70,0|0,0:0|0:0,0:0:0:0:
144,240,79457,2,0,P|128:192|176:160,1,105
256,192,80417,12,0,84497,0:0:0:0:
