osu file format v11

[General]
AudioFilename: To the Moon - Main Theme.mp3
AudioLeadIn: 0
PreviewTime: 79069
Countdown: 0
SampleSet: Soft
StackLeniency: 0.7
Mode: 0
LetterboxInBreaks: 1

[Editor]
Bookmarks: 19599,30219,53582,70573,76946,79069,113052,121016
DistanceSpacing: 1.1
BeatDivisor: 1
GridSize: 4

[Metadata]
Title:To the Moon - Main Theme
TitleUnicode:To the Moon - Main Theme
Artist:Kan R. Gao
ArtistUnicode:Kan R. Gao
Creator:Xgor
Version:Normal
Source:To The Moon
Tags:For Riven
BeatmapID:206752
BeatmapSetID:72137

[Difficulty]
HPDrainRate:4
CircleSize:3
OverallDifficulty:4
ApproachRate:4
SliderMultiplier:1.7
SliderTickRate:2

[Events]
//Background and Video events
0,0,"sgttm.png"
//Break Periods
2,70773,75643
//Storyboard Layer 0 (Background)
//Storyboard Layer 1 (Fail)
//Storyboard Layer 2 (Pass)
//Storyboard Layer 3 (Foreground)
//Storyboard Sound Samples
//Background Colour Transformations
3,100,163,162,255

[TimingPoints]
485,530.973451327434,4,2,0,65,1,0
19069,-100,4,2,0,45,0,0
19600,-100,4,2,0,65,0,0
54644,-86.9565217391304,4,2,0,75,0,0
57299,-100,4,2,0,65,0,0
63139,-86.9565217391304,4,2,0,75,0,0
65794,-100,4,2,0,65,0,0
76963,530.973451327434,4,2,0,65,1,0
79086,-100,4,2,0,80,0,0
87582,-100,4,2,0,75,0,0
88644,-100,4,2,0,65,0,0
89706,-100,4,2,0,55,0,0
90768,-100,4,2,0,45,0,0
91830,-100,4,2,0,65,0,0
96078,-100,4,2,0,80,0,0
104573,-100,4,2,0,65,0,0
113069,-100,4,2,0,55,0,0

[HitObjects]
64,344,18538,53,2,0:0:0
40,208,19069,1,2,0:0:0
16,72,19600,6,0,P|136:32|208:120,1,255,4|0,0:0|3:0,0:0:0
232,208,20661,1,2,0:0:0
416,248,21192,1,8,0:3:0
496,72,21723,6,0,P|376:32|304:120,1,255,2|0,0:0|3:0,0:0:0
280,208,22785,1,2,0:0:0
96,248,23316,1,8,0:3:0
136,64,23847,6,0,P|256:28|376:64,1,255,2|0,0:0|3:0,0:0:0
440,136,24909,1,2,0:0:0
256,168,25440,1,8,0:3:0
144,312,25971,6,0,P|256:368|368:312,2,255,2|2|8,0:0|0:0|0:3,0:0:0
72,136,28095,5,2,0:0:0
256,168,28626,1,8,0:3:0
232,360,29157,2,0,P|336:352|392:304,1,170,4|8,0:1|0:3,0:0:0
440,136,30219,5,2,0:0:0
256,168,30750,1,8,0:3:0
280,360,31281,2,0,P|176:352|120:304,1,170,4|8,0:1|0:3,0:0:0
88,128,32343,5,2,0:0:0
256,48,32874,1,8,0:3:0
424,128,33405,2,0,P|488:200|496:272,1,170,4|8,0:1|0:3,0:0:0
341,370,34467,6,0,P|165:370,1,170,2|8,0:0|0:3,0:0:0
176,184,35529,1,4,0:1:0
256,136,35794,1,0,3:0:0
336,184,36060,1,8,0:3:0
504,264,36591,6,0,P|480:184|416:128,1,170,2|8,0:0|0:3,0:0:0
256,40,37653,1,4,0:1:0
256,224,38184,1,8,0:3:0
72,256,38715,6,0,P|112:312|212:316,1,170,2|8,0:0|0:3,0:0:0
336,180,39777,1,8,0:3:0
256,132,40043,1,0,3:0:0
176,180,40308,1,4,0:1:0
332,284,40838,6,0,P|440:200|344:56,1,340,2|4,0:0|0:1,0:0:0
252,44,42166,1,0,3:0:0
160,60,42431,1,8,0:3:0
16,176,42962,6,0,P|3:312|172:328,1,340,2|4,0:0|0:1,0:0:0
152,236,44290,1,0,3:0:0
236,196,44555,1,8,0:3:0
420,228,45086,6,0,P|376:284|284:276,1,170,2|8,0:0|0:3,0:0:0
236,196,45883,2,0,P|164:144|56:244,1,255,4|8,0:1|0:3,0:0:0
184,376,47210,5,2,0:0:0
236,196,47741,1,8,0:3:0
408,272,48272,1,4,0:1:0
104,280,49334,6,0,P|176:328|256:320,1,170,2|8,0:0|0:3,0:0:0
432,256,50396,1,4,0:1:0
464,168,50661,1,0,3:0:0
496,80,50927,1,8,0:3:0
328,168,51458,6,0,P|256:208|184:168,1,170,2|8,0:0|0:3,0:0:0
256,112,52254,1,0,3:0:0
168,80,52520,1,4,0:1:0
168,80,53051,1,8,0:3:0
112,272,53582,5,2,0:0:0
248,144,54113,1,8,0:3:0
308,348,54644,2,0,P|416:360|500:332,1,195.500003728867,4|8,0:0|0:3,0:0:0
344,184,55706,6,0,P|256:148|168:184,1,195.500003728867,2|8,0:0|0:3,0:0:0
120,84,56502,2,0,P|256:36|392:84,1,293.2500055933,4|8,0:0|0:3,0:0:0
352,260,57830,5,2,0:0:0
264,284,58095,1,0,3:0:0
172,292,58361,2,0,P|-4:292,2,170,8|4|8,0:3|0:1|0:3,0:0:0
160,124,59954,5,2,0:0:0
248,100,60219,1,0,3:0:0
340,92,60484,2,0,P|516:92,2,170,8|4|8,0:3|0:1|0:3,0:0:0
240,248,62077,5,2,0:0:0
132,96,62608,1,8,0:3:0
0,264,63139,2,0,P|40:328|160:340,1,195.500003728867,4|8,0:0|0:3,0:0:0
344,188,64201,6,0,P|256:152|168:188,1,195.500003728867,2|8,0:0|0:3,0:0:0
120,84,64998,2,0,P|256:36|392:84,1,293.2500055933,4|8,0:0|0:3,0:0:0
480,248,66325,5,2,0:0:0
408,304,66591,1,0,3:0:0
336,360,66856,1,8,0:3:0
256,192,67387,1,4,0:1:0
176,24,67918,1,8,0:3:0
256,192,68449,12,2,70573,0:0:0
176,152,76963,6,0,P|240:336|336:152,1,510,2|2,0:0|0:0,0:0:0
176,56,79086,5,4,0:0:0
96,104,79352,1,0,3:0:0
56,192,79617,1,8,0:3:0
232,136,80148,2,0,P|168:176|144:264,1,170,4|8,0:1|0:3,0:0:0
312,336,81210,6,0,P|416:288|392:168,1,255,2|0,0:0|3:3,0:0:0
328,240,82272,2,0,P|248:232|192:168,1,170,4|8,0:1|0:3,0:0:0
336,56,83334,5,4,0:0:0
416,104,83600,1,0,3:0:0
456,192,83865,1,8,0:3:0
280,136,84396,2,0,P|344:176|368:264,1,170,4|8,2:1|0:3,0:0:0
200,336,85458,6,0,P|96:288|120:168,1,255,2|8,0:0|0:3,0:0:0
184,240,86520,2,0,P|264:232|320:168,1,170,4|8,0:1|0:3,0:0:0
480,64,87582,5,4,0:0:0
382,59,87847,1,0,3:0:0
285,55,88113,1,8,0:3:0
96,52,88644,1,4,0:0:0
96,52,89175,1,8,0:3:0
32,216,89706,5,4,0:0:0
130,211,89971,1,0,3:0:0
227,207,90237,1,8,0:3:0
416,204,90768,1,4,0:0:0
416,204,91299,1,8,0:3:0
304,344,91830,6,0,P|184:320|128:208,1,255,2|0,0:0|3:0,0:0:0
144,120,92892,1,4,0:1:0
368,120,93423,5,8,0:3:0
424,192,93688,1,0,3:0:0
456,104,93954,2,0,P|408:40|320:48,1,170,2|8,0:0|0:3,0:0:0
152,120,95016,1,4,0:1:0
152,304,95547,1,8,0:3:0
336,328,96078,5,4,0:0:0
416,280,96343,1,0,3:0:0
456,192,96609,1,8,0:3:0
280,248,97139,2,0,P|344:208|368:120,1,170,4|8,0:1|0:3,0:0:0
200,48,98201,6,0,P|96:96|120:216,1,255,2|0,0:0|3:0,0:0:0
184,144,99263,2,0,P|264:152|320:216,1,170,4|8,0:1|0:3,0:0:0
176,328,100325,5,4,0:0:0
96,280,100591,1,0,3:0:0
56,192,100856,1,8,0:3:0
232,248,101387,2,0,P|168:208|144:120,1,170,4|8,0:1|0:3,0:0:0
312,48,102449,6,0,P|416:96|392:216,1,255,2|0,0:0|3:0,0:0:0
328,144,103511,2,0,P|240:160|256:296,1,255,4|8,0:1|0:3,0:0:0
348,320,104573,6,0,P|432:256|448:196,1,170,2|8,0:0|0:3,0:0:0
308,72,105635,1,4,0:1:0
280,160,105901,1,0,3:0:0
256,248,106166,1,8,0:3:0
88,320,106697,6,0,P|29:208|89:102,1,255,2|8,0:0|0:3,0:0:0
160,48,107759,1,4,0:1:0
352,48,108290,1,8,0:3:0
440,216,108821,6,0,P|396:300|324:312,1,170,2|0,0:0|0:3,0:0:0
344,216,109617,1,0,3:0:0
256,248,109883,1,4,0:1:0
256,64,110414,1,8,0:3:0
88,160,110945,6,0,P|96:248|160:288,1,170,2|8,0:0|0:3,0:0:0
352,288,112007,2,0,P|416:248|424:160,1,170,4|8,0:1|0:3,0:0:0
296,24,113069,6,0,P|257:147|216:24,1,340,2|2,0:0|0:0,0:0:0
128,192,114662,1,8,0:3:0
216,360,115193,2,0,P|255:237|296:360,1,340,2|2,0:0|0:0,0:0:0
416,92,117316,6,0,P|256:144|96:92,1,340,2|2,0:0|0:0,0:0:0
256,24,119440,5,4,0:0:0
256,24,119706,1,0,3:0:0
256,176,120502,1,2,0:0:0
256,272,121033,1,8,0:3:0
256,368,121564,1,4,0:0:0
