osu file format v11

[General]
AudioFilename: To the Moon - Main Theme.mp3
AudioLeadIn: 0
PreviewTime: 79069
Countdown: 0
SampleSet: Soft
StackLeniency: 0.7
Mode: 0
LetterboxInBreaks: 1

[Editor]
Bookmarks: 19599,30219,53582,70573,76946,79069,113052,121016
DistanceSpacing: 1.1
BeatDivisor: 2
GridSize: 4

[Metadata]
Title:To the Moon - Main Theme
TitleUnicode:To the Moon - Main Theme
Artist:Kan R. Gao
ArtistUnicode:Kan R. Gao
Creator:Xgor
Version:Hard
Source:To The Moon
Tags:For Riven
BeatmapID:206298
BeatmapSetID:72137

[Difficulty]
HPDrainRate:5
CircleSize:3
OverallDifficulty:6
ApproachRate:6
SliderMultiplier:2
SliderTickRate:2

[Events]
//Background and Video events
0,0,"sgttm.png"
//Break Periods
2,70773,75913
//Storyboard Layer 0 (Background)
//Storyboard Layer 1 (Fail)
//Storyboard Layer 2 (Pass)
//Storyboard Layer 3 (Foreground)
//Storyboard Sound Samples
//Background Colour Transformations
3,100,163,162,255

[TimingPoints]
485,530.973451327434,4,2,0,65,1,0
19069,-100,4,2,0,45,0,0
19600,-100,4,2,0,65,0,0
51458,-86.9565217391304,4,2,0,75,0,0
52520,-100,4,2,0,65,0,0
54644,-86.9565217391304,4,2,0,75,0,0
57299,-100,4,2,0,65,0,0
63139,-86.9565217391304,4,2,0,75,0,0
65794,-100,4,2,0,65,0,0
76963,530.973451327434,4,2,0,65,1,0
79086,-100,4,2,0,80,0,0
87582,-100,4,2,0,75,0,0
88644,-100,4,2,0,65,0,0
89706,-100,4,2,0,55,0,0
90768,-100,4,2,0,45,0,0
91830,-100,4,2,0,65,0,0
96078,-100,4,2,0,80,0,0
104573,-100,4,2,0,65,0,0
113069,-100,4,2,0,55,0,0

[HitObjects]
32,352,18538,53,2,0:0:0
40,192,19069,1,2,0:0:0
56,32,19600,5,6,0:0:0
168,56,19865,1,0,3:3:0
232,144,20131,1,8,0:3:0
168,232,20396,1,0,3:0:0
248,312,20661,2,0,P|352:344|420:292,1,200,2|8,0:0|0:3,0:0:0
456,32,21723,5,2,0:0:0
344,56,21989,1,0,3:3:0
280,144,22254,1,8,0:3:0
344,232,22520,1,0,3:0:0
264,312,22785,2,0,P|160:344|92:292,1,200,2|8,0:0|0:3,0:0:0
16,88,23847,5,2,0:0:0
104,24,24113,1,0,3:0:0
200,72,24378,1,8,0:3:0
112,136,24644,1,0,3:0:0
168,228,24909,2,0,P|256:188|344:228,1,200,2|8,0:0|0:3,0:0:0
512,104,25971,6,0,P|464:104|416:128,1,100,2|0,0:0|3:0,0:0:0
320,304,26502,2,0,P|376:304|416:288,1,100,8|0,0:3|3:0,0:0:0
280,136,27033,2,0,P|232:136|184:160,1,100,2|0,0:0|3:0,0:0:0
80,336,27564,2,0,P|136:336|176:320,1,100,8|0,0:3|3:0,0:0:0
312,224,28095,6,0,P|368:136|332:56,1,200,2|8,0:0|0:3,0:0:0
228,24,28892,1,0,3:0:0
128,72,29157,1,4,0:1:0
76,168,29423,1,0,3:0:0
92,276,29688,1,2,0:2:0
420,276,30219,5,2,0:0:0
512,216,30484,1,0,0:0:0
480,112,30750,2,0,P|400:48|312:72,1,200,8|4,0:3|0:1,0:0:0
216,120,31546,1,0,3:0:0
144,40,31812,1,8,0:3:0
48,104,32077,1,0,3:3:0
8,256,32343,6,0,P|56:336|192:336,1,200,2|8,0:0|0:3,0:0:0
256,264,33139,1,0,3:0:0
216,160,33405,1,4,0:1:0
128,232,33670,1,0,3:0:0
88,128,33936,1,2,0:2:0
400,32,34467,5,2,0:0:0
464,120,34732,1,0,3:0:0
440,224,34998,1,8,3:0:0
488,320,35263,1,0,3:0:0
384,352,35529,2,0,P|356:308|352:260,1,100,4|0,0:1|3:0,0:0:0
172,176,36060,2,0,P|200:220|204:268,1,100,8|0,0:3|3:0,0:0:0
16,352,36591,5,2,0:0:0
112,304,36856,1,0,0:0:0
24,240,37122,2,0,P|24:144|104:88,1,200,8|4,0:3|0:1,0:0:0
212,64,37918,1,0,3:0:0
320,80,38184,1,2,0:2:0
304,344,38715,6,0,P|408:352|472:288,1,200,2|8,0:0|0:3,0:0:0
368,256,39511,1,0,3:0:0
448,176,39777,1,4,0:1:0
272,48,40308,1,8,2:3:0
216,144,40573,1,0,3:3:0
160,240,40838,5,2,0:0:0
104,336,41104,1,0,3:0:0
0,296,41369,1,8,0:3:0
56,200,41635,1,0,3:0:0
112,104,41900,2,0,P|240:56|376:136,1,300,4|2,0:1|3:2,0:0:0
352,240,42962,5,2,0:0:0
408,336,43228,1,0,3:0:0
512,296,43493,1,8,0:3:0
456,200,43759,1,0,3:0:0
400,104,44024,2,0,P|272:56|136:136,1,300,4|0,0:1|3:3,0:0:0
56,264,45086,5,2,0:0:0
128,352,45352,1,0,3:0:0
232,312,45617,2,0,P|248:264|288:232,1,100,8|0,0:3|3:0,0:0:0
272,132,46148,2,0,P|288:236|368:276,1,200,4|8,0:1|0:3,0:0:0
464,88,47210,6,0,P|392:32|288:40,1,200,2|8,0:0|0:3,0:0:0
224,296,48272,1,4,0:1:0
248,192,48538,1,0,3:0:0
208,88,48803,1,8,0:3:0
112,40,49069,1,0,3:0:0
0,32,49334,6,0,P|56:104|8:144|72:216,1,200,2|8,0:2|0:3,0:0:0
152,288,50131,1,0,3:3:0
256,312,50396,1,4,0:1:0
360,288,50661,1,0,3:0:0
440,216,50927,1,8,0:3:0
152,80,51458,6,0,P|256:36|360:80,1,230.000004386902,2|8,0:0|3:0,0:0:0
416,192,52254,1,0,3:0:0
348,316,52520,2,0,P|255:349|164:316,1,200,4|8,0:1|0:3,0:3:0
24,128,53582,5,2,0:0:0
120,64,53847,1,0,3:0:0
224,104,54113,1,8,3:0:0
320,48,54378,1,0,3:0:0
424,88,54644,2,0,P|472:192|416:224|456:320,1,230.000004386902,4|8,0:2|0:3,0:0:0
224,368,55706,6,0,P|192:256|88:224,1,230.000004386902,2|8,0:2|0:3,0:0:0
29,329,56502,2,0,P|149:129,1,230.000004386902,4|0,3:2|3:3,0:0:0
208,40,57299,1,8,0:3:0
504,32,57830,5,2,0:0:0
400,40,58095,1,0,3:0:0
312,96,58361,1,8,0:3:0
256,192,58626,1,0,3:0:0
200,288,58892,1,4,0:1:0
112,344,59157,1,0,3:0:0
8,352,59423,1,8,0:3:0
8,32,59954,5,2,0:0:0
112,40,60219,1,0,3:0:0
200,96,60484,1,8,0:3:0
256,192,60750,1,0,3:0:0
312,288,61015,1,4,0:1:0
400,344,61281,1,0,3:0:0
504,352,61546,1,8,0:3:0
488,128,62077,5,2,0:0:0
392,64,62343,1,0,3:0:0
288,104,62608,1,8,3:0:0
192,48,62874,1,0,3:0:0
88,88,63139,2,0,P|40:192|96:224|56:320,1,230.000004386902,4|8,0:2|0:3,0:0:0
288,360,64201,6,0,P|320:248|424:216,1,230.000004386902,2|8,0:2|0:3,0:0:0
481,320,64998,2,0,P|361:120,1,230.000004386902,4|0,3:2|3:3,0:0:0
304,32,65794,1,8,0:3:0
32,144,66325,5,2,0:0:0
64,248,66591,1,0,3:0:0
148,320,66856,1,8,0:3:0
256,352,67122,1,0,3:0:0
364,320,67387,1,4,0:1:0
448,248,67653,1,0,3:0:0
480,144,67918,1,8,0:3:0
256,192,68449,12,2,70573,0:0:0
184,252,76963,6,0,P|256:36|328:252,1,600,2|2,0:0|0:0,0:0:0
116,308,79086,5,4,2:2:0
64,212,79352,1,0,3:0:0
64,104,79617,1,8,3:0:0
272,32,80148,2,0,P|380:60|432:128,1,200,4|8,0:1|0:3,0:0:0
440,236,80945,1,0,3:0:0
368,324,81210,5,2,2:2:0
264,364,81476,1,0,3:0:0
156,352,81741,1,8,3:0:0
56,156,82272,2,0,P|148:224|236:216,1,200,4|8,0:1|0:3,0:0:0
396,76,83334,5,4,2:2:0
448,172,83600,1,0,3:0:0
448,280,83865,1,8,3:0:0
240,352,84396,2,0,P|132:324|80:256,1,200,4|8,0:1|0:3,0:0:0
72,148,85193,1,0,3:0:0
144,60,85458,5,2,2:2:0
248,20,85724,1,0,3:0:0
356,32,85989,1,8,3:0:0
456,228,86520,2,0,P|356:260|264:232,1,200,4|8,0:1|0:3,0:0:0
76,60,87582,5,6,0:0:0
184,52,87847,1,0,3:0:0
292,40,88113,1,8,0:3:0
400,32,88378,1,0,3:0:0
436,160,88644,5,6,0:0:0
328,152,88909,1,0,3:0:0
220,140,89175,1,8,0:3:0
112,132,89440,1,0,3:0:0
76,260,89706,5,6,0:0:0
184,252,89971,1,0,3:0:0
292,240,90237,1,8,0:3:0
400,232,90502,1,0,3:0:0
436,360,90768,5,6,0:0:0
328,352,91033,1,0,3:0:0
220,340,91299,1,8,0:3:0
112,332,91564,1,0,3:0:0
24,220,91830,38,0,P|40:116|136:72,1,200,6|8,0:0|0:3,0:0:0
216,120,92626,1,0,3:0:0
128,184,92892,1,4,0:1:0
384,184,93423,5,8,0:3:0
422,78,93688,1,0,3:0:0
488,166,93954,1,2,0:0:0
449,271,94219,1,0,3:0:0
342,296,94485,1,8,0:3:0
277,208,94750,1,0,3:0:0
315,103,95016,2,0,P|232:96|160:180,1,200,4|8,0:1|0:3,0:0:0
396,308,96078,37,4,2:2:0
448,212,96343,1,0,3:0:0
448,104,96609,1,8,3:0:0
240,32,97139,2,0,P|132:60|80:128,1,200,4|8,0:1|0:3,0:0:0
72,236,97936,1,0,3:0:0
144,324,98201,5,2,2:2:0
248,364,98467,1,0,3:0:0
356,352,98732,1,8,3:0:0
456,156,99263,2,0,P|364:224|276:216,1,200,4|2,0:1|0:0,0:0:0
116,76,100325,5,4,2:2:0
64,172,100591,1,0,3:0:0
64,280,100856,1,8,3:0:0
272,352,101387,2,0,P|380:324|428:156,1,300,4|0,0:1|3:3,0:0:0
368,60,102449,5,2,2:2:0
264,20,102715,1,0,3:0:0
156,32,102980,1,8,3:0:0
80,112,103246,1,0,3:0:0
60,220,103511,2,0,P|176:256|120:296|216:336,1,200,4|2,0:1|0:0,0:0:0
436,352,104573,6,0,P|484:300|480:176,1,200,4|8,0:0|0:3,0:0:0
316,32,105635,1,4,0:1:0
340,140,105901,1,0,3:0:0
364,248,106166,1,8,0:3:0
180,368,106697,5,2,0:0:0
80,328,106963,1,0,3:0:0
24,232,107228,1,8,0:3:0
32,124,107493,1,0,3:0:0
108,44,107759,1,4,0:1:0
408,180,108290,5,8,0:3:0
484,104,108555,1,0,3:0:0
356,60,108821,2,0,P|288:116|284:224,1,200,2|8,0:0|0:3,0:0:0
324,324,109617,1,0,3:0:0
428,288,109883,1,4,0:1:0
192,196,110414,5,8,0:3:0
156,92,110679,1,0,3:0:0
80,172,110945,1,2,0:0:0
256,360,111476,1,8,3:3:0
432,172,112007,2,0,P|384:88|288:84,1,200,4|8,0:1|0:3,0:0:0
0,228,113069,6,0,P|36:328|116:364,1,200,2|8,0:0|0:3,0:0:0
208,304,113865,1,0,3:0:0
296,364,114131,1,2,0:0:0
360,276,114396,1,0,3:0:0
428,364,114662,1,8,0:3:0
512,160,115193,6,0,P|476:60|396:24,1,200,2|8,0:0|0:3,0:0:0
304,84,115989,1,0,3:0:0
216,24,116255,1,2,0:0:0
152,112,116520,1,0,3:0:0
84,24,116786,1,8,0:3:0
88,276,117316,6,0,P|172:296|196:352|196:352|256:320|316:352|316:352|340:296|424:276,1,400,2|2,0:0|0:0,0:0:0
452,76,118909,1,8,0:3:0
256,24,119440,5,4,0:0:0
256,24,119706,1,0,3:0:0
256,168,120502,1,2,0:0:0
256,264,121033,1,0,3:0:0
256,360,121564,1,4,0:0:0
