osu file format v11

[General]
AudioFilename: To the Moon - Main Theme.mp3
AudioLeadIn: 0
PreviewTime: 79069
Countdown: 0
SampleSet: Soft
StackLeniency: 0.7
Mode: 0
LetterboxInBreaks: 1

[Editor]
Bookmarks: 19599,30219,53582,70573,76946,79069,113052,121016
DistanceSpacing: 1
BeatDivisor: 2
GridSize: 4

[Metadata]
Title:To the Moon - Main Theme
TitleUnicode:To the Moon - Main Theme
Artist:Kan R. Gao
ArtistUnicode:Kan R. Gao
Creator:Xgor
Version:Easy
Source:To The Moon
Tags:For Riven
BeatmapID:206751
BeatmapSetID:72137

[Difficulty]
HPDrainRate:2
CircleSize:2
OverallDifficulty:3
ApproachRate:3
SliderMultiplier:1.3
SliderTickRate:2

[Events]
//Background and Video events
0,0,"sgttm.png"
//Break Periods
2,70773,75523
//Storyboard Layer 0 (Background)
//Storyboard Layer 1 (Fail)
//Storyboard Layer 2 (Pass)
//Storyboard Layer 3 (Foreground)
//Storyboard Sound Samples
//Background Colour Transformations
3,100,163,162,255

[TimingPoints]
485,530.973451327434,4,2,0,65,1,0
19069,-100,4,2,0,45,0,0
19600,-100,4,2,0,65,0,0
55706,-83.3333333333333,4,2,0,65,0,0
57830,-100,4,2,0,65,0,0
64201,-83.3333333333333,4,2,0,65,0,0
66325,-100,4,2,0,65,0,0
76963,530.973451327434,4,2,0,65,1,0
87582,-100,4,2,0,75,0,0
88644,-100,4,2,0,65,0,0
89706,-100,4,2,0,55,0,0
90768,-100,4,2,0,45,0,0
92361,-100,4,2,0,65,0,0
94750,-100,4,2,0,45,0,0
95016,-100,4,2,0,65,0,0

[HitObjects]
328,56,18538,5,2,0:0:0
204,20,19069,1,2,0:0:0
88,72,19600,2,0,P|140:168|88:240|124:328,1,260,4|8,0:0|0:3,0:0:0
300,136,21723,1,2,0:0:0
488,316,22785,1,8,0:3:0
424,72,23847,6,0,P|372:168|424:240|388:326,1,260,2|8,0:0|0:3,0:0:0
212,136,25971,1,2,0:0:0
24,316,27033,1,8,0:3:0
24,184,27564,1,4,0:3:0
24,52,28095,6,0,P|84:28|144:48,1,130,4|8,0:0|3:0,0:0:0
256,112,29157,1,4,0:1:0
184,360,30219,1,2,0:0:0
436,304,31281,1,4,0:1:0
488,52,32343,6,0,P|428:28|368:48,1,130,4|8,0:0|3:0,0:0:0
256,112,33405,1,4,0:1:0
328,360,34467,1,2,0:0:0
76,304,35529,1,4,0:1:0
36,48,36591,6,0,P|50:191|129:128|156:272,1,260,2|4,0:0|0:1,0:0:0
256,352,38184,1,8,3:0:0
356,268,38715,1,2,0:0:0
256,36,39777,1,4,0:1:0
156,268,40838,6,0,P|32:240|16:124,1,260,2|4,0:0|0:1,0:0:0
256,32,42962,1,2,0:0:0
460,192,44024,1,4,0:1:0
256,352,45086,5,2,0:0:0
8,276,46148,2,0,P|56:164|184:152,1,260,4|2,0:1|0:0,0:0:0
224,276,47741,1,8,0:3:0
352,280,48272,1,4,0:1:0
480,64,49334,6,0,P|328:48|232:96,1,260,2|4,0:0|0:1,0:0:0
32,256,51458,2,0,P|184:240|280:288,1,260,2|4,0:0|0:1,0:0:0
340,36,53582,5,2,0:0:0
212,64,54113,1,8,0:3:0
84,88,54644,1,4,0:0:0
256,336,55706,2,0,P|336:360|408:312|488:336,2,233.999992858887,2|4|8,0:0|0:0|0:3,0:0:0
128,296,57830,5,2,0:0:0
128,88,58892,1,4,0:1:0
384,24,59954,1,2,0:0:0
424,148,60484,1,8,0:3:0
296,124,61015,1,4,0:1:0
172,348,62077,5,2,0:0:0
300,320,62608,1,8,0:3:0
428,296,63139,1,4,0:0:0
256,48,64201,2,0,P|176:24|104:72|24:48,2,233.999992858887,2|4|8,0:0|0:0|0:3,0:0:0
384,64,66325,5,2,0:0:0
384,320,67387,1,4,0:1:0
256,192,68449,12,2,70573,0:0:0
144,280,76963,54,0,P|256:336|368:280,1,260,2|2,0:0|0:0,0:0:0
504,40,79086,5,4,0:0:0
392,104,79617,2,0,P|328:104|272:72,1,130,8|4,0:3|0:1,0:0:0
144,60,80679,1,8,0:3:0
16,88,81210,1,2,0:0:0
112,184,81741,2,0,P|176:184|232:152,1,130,8|4,0:3|0:1,0:0:0
504,200,83334,5,2,0:0:0
392,264,83865,2,0,P|328:264|272:232,1,130,8|4,0:3|0:1,0:0:0
144,220,84927,1,8,0:3:0
16,248,85458,1,2,0:0:0
112,344,85989,2,0,P|176:344|232:312,1,130,8|4,0:3|0:1,0:0:0
408,152,87582,6,0,P|272:144|168:80,1,260,4|4,0:0|0:0,0:0:0
104,336,89706,2,0,P|240:328|344:264,1,260,4|4,0:0|0:0,0:0:0
496,48,91830,5,4,0:0:0
368,80,92361,1,8,0:3:0
240,112,92892,1,4,0:1:0
72,312,93954,2,0,P|160:344|256:312,2,195,2|2|2,0:0|3:0|0:0,0:0:0
16,192,96078,5,4,0:0:0
120,104,96609,2,0,P|176:72|240:72,1,130,8|4,0:3|0:1,0:0:0
368,92,97670,1,8,0:3:0
484,36,98201,1,2,0:0:0
460,164,98732,2,0,P|406:198|341:202,1,130,8|4,0:3|0:1,0:0:0
128,348,100325,5,4,0:0:0
120,216,100856,2,0,P|176:184|240:184,1,130,8|4,0:3|0:1,0:0:0
368,204,101917,1,8,0:3:0
484,148,102448,1,2,0:0:0
460,276,102979,2,0,P|406:310|341:314,1,130,8|4,0:3|0:1,0:0:0
256,56,104573,5,4,0:0:0
144,296,105635,2,0,P|256:352|368:296,2,260,2|4|2,0:0|0:1|0:0,0:0:0
32,360,108290,1,8,0:3:0
24,232,108821,1,4,0:1:0
192,40,109883,5,2,0:0:0
320,64,110414,1,8,0:3:0
448,96,110945,2,0,P|470:219|386:311,1,260,4|2,0:0|0:2,0:0:0
208,312,113069,6,0,P|160:160|96:304|-16:80|128:24|192:64,1,390,2|2,0:0|0:0,0:0:0
320,64,115193,2,0,P|384:24|528:80|416:304|352:160|304:312,1,390,2|2,0:0|0:0,0:0:0
256,192,117316,1,2,0:0:0
256,40,119440,37,4,0:0:0
256,300,120502,1,2,0:0:0
256,300,121033,1,8,0:3:0
256,300,121564,1,4,0:0:0
