osu file format v14

[General]
AudioFilename: Once Upon a Memory.mp3
AudioLeadIn: 0
PreviewTime: 68679
Countdown: 0
SampleSet: Soft
StackLeniency: 0.7
Mode: 0
LetterboxInBreaks: 0
WidescreenStoryboard: 0

[Editor]
Bookmarks: 39085,48949,79828,82616
DistanceSpacing: 1.2
BeatDivisor: 4
GridSize: 4
TimelineZoom: 1.2

[Metadata]
Title:Once Upon a Memory
TitleUnicode:Once Upon a Memory
Artist:Kan R. Gao
ArtistUnicode:Kan R. Gao
Creator:Neil Watts
Version:ego_17's Normal
Source:To the Moon
Tags:johnny river sigmund corporation piano ambient ego_17
BeatmapID:458272
BeatmapSetID:186457

[Difficulty]
HPDrainRate:4
CircleSize:4
OverallDifficulty:5
ApproachRate:4
SliderMultiplier:1.4
SliderTickRate:2

[Events]
//Background and Video events
0,0,"by_lemanad.jpg",0,0
//Break Periods
//Storyboard Layer 0 (Background)
//Storyboard Layer 1 (Fail)
//Storyboard Layer 2 (Pass)
//Storyboard Layer 3 (Foreground)
//Storyboard Sound Samples

[TimingPoints]
14640,857.743277437063,4,2,1,25,1,0
25147,-100,4,2,1,10,0,0
25576,-100,4,2,1,25,0,0
26648,-100,4,2,1,10,0,0
27291,-100,4,2,1,25,0,0
33295,-100,4,2,1,10,0,0
34153,-100,4,2,1,25,0,0
36726,-100,4,2,1,10,0,0
37584,-100,4,2,1,25,0,0
38013,-100,4,2,1,10,0,0
38442,-100,4,2,1,25,0,0
41444,-100,4,2,1,10,0,0
41873,-100,4,2,1,25,0,0
44875,-100,4,2,1,10,0,0
45304,-100,4,2,1,25,0,0
46162,-100,4,2,1,10,0,0
46805,-100,4,2,1,25,0,0
57312,-100,4,2,1,10,0,0
57741,-100,4,2,1,25,0,0
82616,-100,4,2,1,10,0,0
83045,-100,4,2,1,25,0,0
87333,-100,4,2,1,10,0,0
89049,-100,4,2,1,25,0,0
90979,-100,4,2,1,10,0,0
91622,-100,4,2,1,25,0,0
93552,-100,4,2,1,40,0,1
117998,-100,4,2,1,10,0,1
118641,-100,4,2,1,30,0,1
119284,-100,4,2,1,10,0,1
119927,-100,4,2,1,25,0,1
121000,-100,4,2,1,20,0,0
135152,-100,4,2,1,20,0,0
141586,789.473684210526,4,2,1,10,1,0
143362,-100,4,2,1,5,0,0

[Colours]
Combo1 : 128,128,255
Combo2 : 0,225,225
Combo3 : 72,164,255
Combo4 : 255,255,51
Combo5 : 183,111,255

[HitObjects]
108,184,14640,6,0,P|100:140|124:104,1,70,0|8,0:0|0:0,0:0:0:0:
176,68,15497,1,0,0:0:0:0:
252,36,15926,1,0,0:0:0:0:
252,36,16784,5,8,0:0:0:0:
328,68,17213,1,0,0:0:0:0:
388,128,17642,1,8,0:0:0:0:
436,196,18070,2,0,P|452:228|432:272,1,70
392,328,18928,1,0,0:0:0:0:
316,360,19357,1,8,0:0:0:0:
152,320,20215,6,0,P|116:300|92:268,1,70,8|0,0:0|0:0,0:0:0:0:
132,112,21501,2,0,P|172:116|212:92,1,70,2|8,0:0|0:0,0:0:0:0:
280,84,22359,2,0,P|324:88|364:56,1,70,0|0,0:0|0:0,0:0:0:0:
346,76,23646,5,0,0:0:0:0:
316,156,24075,1,0,0:0:0:0:
304,240,24503,1,8,0:0:0:0:
280,320,24932,2,0,P|244:328|196:308,1,70,0|0,0:0|0:0,0:0:0:0:
188,240,25790,1,0,0:0:0:0:
120,192,26219,2,0,P|148:144|236:108,1,140,8|0,0:0|0:0,0:0:0:0:
244,188,27506,6,0,L|244:268,1,70,0|0,0:0|0:0,0:0:0:0:
296,324,28363,2,0,P|332:328|368:324,1,70,0|8,0:0|0:0,0:0:0:0:
404,252,29221,1,0,0:0:0:0:
400,168,29650,1,0,0:0:0:0:
400,168,30508,6,0,P|388:108|360:84,1,70,8|0,0:0|0:0,0:0:0:0:
315,52,31365,1,0,0:0:0:0:
232,36,31794,2,0,P|200:43|164:66,1,70,0|8,0:0|0:0,0:0:0:0:
100,112,32651,1,0,0:0:0:0:
68,190,33081,2,0,P|76:266|128:314,1,140
199,334,34368,5,0,0:0:0:0:
284,332,34796,1,8,0:0:0:0:
364,304,35225,2,0,P|404:280|420:244,1,70,0|8,0:0|0:0,0:0:0:0:
372,100,36512,2,0,P|304:76|224:92,1,140,8|0,0:0|0:0,0:0:0:0:
204,164,37799,6,0,P|168:168|128:148,1,70,0|0,0:0|0:0,0:0:0:0:
57,127,38656,1,0,0:0:0:0:
56,212,39085,2,0,P|56:252|76:284,1,70,8|0,0:0|0:0,0:0:0:0:
152,292,39943,2,0,P|180:268|200:228,1,70,8|0,0:0|0:0,0:0:0:0:
260,84,41230,6,0,P|296:104|340:96,1,70
400,136,42087,2,0,P|376:176|328:200,1,70,0|8,0:0|0:0,0:0:0:0:
288,236,42945,1,0,0:0:0:0:
208,256,43374,1,8,0:0:0:0:
88,136,44232,5,0,0:0:0:0:
88,136,44661,2,0,P|104:96|148:80,1,70
208,64,45518,2,0,P|272:84|340:64,1,140,2|0,0:0|0:0,0:0:0:0:
460,184,47234,5,0,0:0:0:0:
392,236,47663,2,0,L|392:284,1,35
320,316,48306,1,0,0:0:0:0:
196,312,48949,6,0,P|162:289|140:244,1,70,0|8,0:0|0:0,0:0:0:0:
109,189,49807,1,0,0:0:0:0:
144,112,50236,2,0,P|168:76|208:60,1,70
272,40,51094,1,8,0:0:0:0:
272,40,51522,1,0,0:0:0:0:
424,112,52380,6,0,P|440:136|440:188,1,70,2|8,0:0|0:0,0:0:0:0:
392,244,53238,1,2,0:0:0:0:
308,252,53667,2,0,P|280:236|248:192,1,70,0|0,0:0|0:0,0:0:0:0:
200,144,54525,5,8,0:0:0:0:
156,216,54953,1,2,0:0:0:0:
88,264,55382,1,8,0:0:0:0:
156,316,55811,2,0,P|184:336|228:344,1,70,2|0,0:0|0:0,0:0:0:0:
304,348,56668,1,2,0:0:0:0:
388,332,57098,2,0,P|424:312|448:268,1,70,0|0,0:0|0:0,0:0:0:0:
472,212,57956,5,0,0:0:0:0:
444,132,58384,2,0,P|416:96|372:80,1,70,2|8,0:0|0:0,0:0:0:0:
324,40,59242,2,0,P|256:20|180:44,1,140,0|2,0:0|0:0,0:0:0:0:
120,84,60529,1,0,0:0:0:0:
192,128,60958,2,0,P|260:112|328:132,1,140,0|2,0:0|0:0,0:0:0:0:
388,188,62244,1,0,0:0:0:0:
388,272,62673,6,0,P|360:300|304:316,1,70,2|0,0:0|0:0,0:0:0:0:
256,280,63531,1,2,0:0:0:0:
180,312,63960,2,0,P|148:296|116:248,1,70,0|0,0:0|0:0,0:0:0:0:
96,192,64817,5,0,0:0:0:0:
104,108,65246,1,2,0:0:0:0:
168,56,65675,1,8,0:0:0:0:
248,84,66104,2,0,P|282:80|309:59,1,70,2|0,0:0|0:0,0:0:0:0:
392,64,66962,1,0,0:0:0:0:
256,192,67391,12,0,69535,0:0:0:0:
108,124,70393,6,0,P|144:100|192:100,1,70,0|0,0:0|0:0,0:0:0:0:
336,96,71679,2,0,P|370:102|397:123,2,70,0|2|8,0:0|0:0|0:0,0:0:0:0:
252,92,72966,2,0,P|220:116|164:120,1,70,2|0,0:0|0:0,0:0:0:0:
108,144,73824,1,2,0:0:0:0:
144,220,74253,2,0,P|196:256|292:260,1,140,0|0,0:0|0:0,0:0:0:0:
348,236,75539,6,0,P|380:212|384:164,1,70,2|0,0:0|0:0,0:0:0:0:
336,120,76397,2,0,P|303:124|264:152,1,70,2|0,0:0|0:0,0:0:0:0:
212,204,77255,1,0,0:0:0:0:
180,280,77684,2,0,P|132:332|60:320,1,140,0|0,0:0|0:0,0:0:0:0:
36,248,78970,6,0,P|36:180|44:160,1,70,0|0,0:0|0:0,0:0:0:0:
76,104,79828,2,0,P|128:72|152:64,1,70,2|0,0:0|0:0,0:0:0:0:
212,108,80686,1,0,0:0:0:0:
272,168,81115,1,0,0:0:0:0:
340,120,81544,2,0,P|374:119|404:136,1,70,2|0,0:0|0:0,0:0:0:0:
464,196,82401,6,0,P|484:224|484:276,1,70,2|0,0:0|0:0,0:0:0:0:
440,328,83259,2,0,P|407:338|373:331,1,70,2|0,0:0|0:0,0:0:0:0:
300,288,84117,1,0,0:0:0:0:
223,321,84546,1,8,0:0:0:0:
160,264,84974,6,0,P|136:192|160:120,1,140
220,80,86261,1,8,0:0:0:0:
300,52,86690,2,0,P|372:80|420:140,1,140
332,280,90121,5,0,0:0:0:0:
332,280,90550,2,0,P|264:296|192:276,1,140
160,204,91836,1,0,0:0:0:0:
160,120,92265,2,0,L|212:88,1,35
264,64,92909,2,0,L|264:4,2,35,0|0|0,0:0|0:0|0:0,0:0:0:0:
264,108,93552,1,2,0:0:0:0:
264,192,93981,6,0,P|296:208|352:208,2,70,0|0|0,0:0|0:0|0:0,0:0:0:0:
192,148,95267,1,2,0:0:0:0:
108,148,95696,6,0,P|80:172|72:216,1,70,0|0,0:0|0:0,0:0:0:0:
152,220,96554,1,2,0:0:0:0:
228,256,96983,2,0,P|268:264|316:248,1,70,2|0,0:0|0:0,0:0:0:0:
376,232,97841,1,0,0:0:0:0:
400,152,98269,2,0,P|405:117|400:82,1,70,2|2,0:0|0:0,0:0:0:0:
316,92,99127,6,0,B|296:128|262:132|262:132|228:128|210:90,1,140,0|0,0:0|0:0,0:0:0:0:
126,82,100414,2,0,P|104:109|90:140,1,70,2|2,0:0|0:0,0:0:0:0:
107,225,101272,2,0,B|129:246|129:246|184:204|229:244,1,140,2|0,0:0|0:0,0:0:0:0:
304,276,102558,5,0,0:0:0:0:
384,248,102987,1,0,0:0:0:0:
416,172,103416,1,2,0:0:0:0:
401,88,103845,2,0,P|382:58|356:35,1,70,2|0,0:0|0:0,0:0:0:0:
276,64,104703,1,0,0:0:0:0:
196,36,105131,2,0,P|169:58|152:87,1,70,2|2,0:0|0:0,0:0:0:0:
192,160,105989,5,0,0:0:0:0:
272,184,106418,1,0,0:0:0:0:
336,240,106847,1,2,0:0:0:0:
373,315,107276,2,0,P|344:332|308:336,1,70,2|0,0:0|0:0,0:0:0:0:
224,340,108134,1,0,0:0:0:0:
149,301,108562,2,0,P|118:285|97:257,1,70,2|2,0:0|0:0,0:0:0:0:
60,183,109420,6,0,P|51:149|57:115,2,70,0|0|2,0:0|0:0|0:0,0:0:0:0:
140,212,110707,2,0,P|176:198|208:164,1,70,2|0,0:0|0:0,0:0:0:0:
257,118,111564,1,0,0:0:0:0:
308,52,111993,2,0,P|344:36|388:32,1,70,2|2,0:0|0:0,0:0:0:0:
444,80,112851,5,0,0:0:0:0:
472,159,113280,2,0,P|480:192|468:232,1,70,2|0,0:0|0:0,0:0:0:0:
396,192,114138,1,2,0:0:0:0:
336,252,114567,1,0,0:0:0:0:
252,240,114995,1,0,0:0:0:0:
232,159,115424,2,0,P|200:147|165:146,1,70,2|2,0:0|0:0,0:0:0:0:
84,172,116282,5,0,0:0:0:0:
100,256,116711,2,0,P|124:284|160:300,1,70,0|2,0:0|0:0,0:0:0:0:
237,298,117569,2,0,P|304:278|360:236,1,140,2|0,0:0|0:0,0:0:0:0:
334,157,118855,2,0,P|267:177|197:173,1,140,2|0,0:0|0:0,0:0:0:0:
121,138,120142,1,2,0:0:0:0:
256,192,120571,12,0,122715,0:0:0:0:
140,172,123573,6,0,P|176:140|220:132,1,70,0|2,0:0|0:0,0:0:0:0:
280,124,124431,1,2,0:0:0:0:
344,176,124860,2,0,P|368:208|380:252,1,70
348,316,125717,2,0,P|308:324|272:320,1,70,2|2,0:0|0:0,0:0:0:0:
284,236,126575,6,0,P|242:223|196:224,1,70
136,196,127433,1,2,0:0:0:0:
180,124,127862,2,0,P|218:100|268:100,1,70,2|0,0:0|0:0,0:0:0:0:
328,92,128719,1,0,0:0:0:0:
408,120,129148,1,2,0:0:0:0:
468,180,129577,6,0,P|464:248|384:300,1,140,2|0,0:0|0:0,0:0:0:0:
331,315,130864,1,2,0:0:0:0:
248,332,131293,2,0,P|172:316|136:260,1,140,2|0,0:0|0:0,0:0:0:0:
133,184,132579,1,2,0:0:0:0:
216,204,133008,2,0,P|251:215|299:191,1,70,2|0,0:0|0:0,0:0:0:0:
347,155,133866,6,0,P|351:115|343:67,1,70,0|2,0:0|0:0,0:0:0:0:
272,116,134724,1,2,0:0:0:0:
200,156,135152,2,0,P|168:160|138:182,1,70
172,260,136010,2,0,B|200:240|248:240,1,70
320,240,136868,5,2,0:0:0:0:
404,236,137297,2,0,P|412:196|400:152,1,70,2|2,0:0|0:0,0:0:0:0:
328,140,138155,1,2,0:0:0:0:
252,180,138583,2,0,P|220:180|183:162,1,70,0|0,0:0|0:0,0:0:0:0:
256,192,139870,12,0,141586,0:0:0:0:
245,158,142375,6,0,P|279:161|307:141,1,70,2|0,0:0|0:0,0:0:0:0:
364,200,143164,6,0,P|307:240|239:241,1,140,2|0,0:0|0:0,0:0:0:0:
