osu file format v14

[General]
AudioFilename: Once Upon a Memory.mp3
AudioLeadIn: 0
PreviewTime: 68679
Countdown: 0
SampleSet: Soft
StackLeniency: 0.7
Mode: 0
LetterboxInBreaks: 0
WidescreenStoryboard: 0

[Editor]
DistanceSpacing: 1.1
BeatDivisor: 4
GridSize: 4
TimelineZoom: 1

[Metadata]
Title:Once Upon a Memory
TitleUnicode:Once Upon a Memory
Artist:Kan R. Gao
ArtistUnicode:Kan R. Gao
Creator:Neil Watts
Version:Easy
Source:To the Moon
Tags:johnny river sigmund corporation piano ambient ego_17
BeatmapID:445435
BeatmapSetID:186457

[Difficulty]
HPDrainRate:2.5
CircleSize:3
OverallDifficulty:3
ApproachRate:3
SliderMultiplier:1.4
SliderTickRate:2

[Events]
//Background and Video events
0,0,"by_lemanad.jpg",0,0
//Break Periods
//Storyboard Layer 0 (Background)
//Storyboard Layer 1 (Fail)
//Storyboard Layer 2 (Pass)
//Storyboard Layer 3 (Foreground)
//Storyboard Sound Samples

[TimingPoints]
14640,857.743277437063,4,2,1,25,1,0
21501,-100,4,2,1,30,0,0
27506,-100,4,2,1,35,0,0
34368,-100,4,2,1,40,0,0
42087,-100,4,2,1,45,0,0
47234,-100,4,2,1,50,0,0
88405,-100,4,2,1,5,0,0
90121,-100,4,2,1,50,0,0
93552,-100,4,2,1,60,0,1
121000,-100,4,2,1,60,0,0
135152,-100,4,2,1,45,0,0
141586,789.473684210526,4,2,1,45,1,0

[Colours]
Combo1 : 128,128,255
Combo2 : 0,225,225
Combo3 : 72,164,255
Combo4 : 255,255,51
Combo5 : 183,111,255

[HitObjects]
252,116,14640,6,0,P|352:80|460:124,1,210,2|2,0:0|0:0,0:0:0:0:
352,236,16784,2,0,L|352:320,2,70,0|2|2,0:0|0:0|0:0,0:0:0:0:
276,216,18070,2,0,B|300:132|420:136|432:232,1,210,2|0,0:0|0:0,0:0:0:0:
352,351,20215,1,2,0:0:0:0:
352,274,20644,1,0,0:0:0:0:
420,136,21501,6,0,B|400:184|400:184|352:152|300:184|300:184|284:124,1,210,2|0,0:0|0:0,0:0:0:0:
138,96,23646,2,0,P|102:88|62:100,2,70,0|0|2,0:0|0:0|0:0,0:0:0:0:
213,80,24932,2,0,P|249:88|289:76,1,70,2|0,0:0|0:0,0:0:0:0:
302,155,25790,2,0,P|335:147|369:155,1,70,2|0,0:0|0:0,0:0:0:0:
156,246,27506,5,2,0:0:0:0:
200,100,28364,2,0,P|280:136|300:188,1,140,2|2,0:0|0:0,0:0:0:0:
304,257,29650,1,0,0:0:0:0:
152,280,30508,1,0,0:0:0:0:
152,204,30937,2,0,P|152:172|144:136,2,70,2|0|2,0:0|0:0|0:0,0:0:0:0:
221,239,32223,2,0,P|261:233|297:239,2,70,0|2|0,0:0|0:0|0:0,0:0:0:0:
421,122,34368,5,0,0:0:0:0:
359,76,34797,1,2,0:0:0:0:
290,111,35225,2,0,B|181:153|77:107,1,210,0|2,0:0|0:0,0:0:0:0:
166,304,37799,1,2,0:0:0:0:
320,300,38656,2,0,P|364:240|392:164,1,140
397,103,39943,1,0,0:0:0:0:
324,79,40372,2,0,P|262:65|178:79,1,140,2|2,0:0|0:0,0:0:0:0:
89,194,42087,6,0,P|166:259|265:237,1,210,2|0,0:0|0:0,0:0:0:0:
388,144,44232,2,0,L|416:223,1,70,0|2,0:0|0:0,0:0:0:0:
281,292,45518,2,0,P|238:228|172:187,1,140,2|0,0:0|0:0,0:0:0:0:
285,74,47234,2,0,B|308:174|411:226,1,175,2|0,0:0|0:0,0:0:0:0:
303,292,48949,6,0,P|249:251|177:239,1,140,2|0,0:0|0:0,0:0:0:0:
160,164,50236,1,2,0:0:0:0:
283,71,51094,2,0,L|347:123,1,70,0|2,0:0|0:0,0:0:0:0:
376,264,52380,6,0,L|224:264,1,140,2|2,0:0|0:0,0:0:0:0:
163,239,53667,1,0,0:0:0:0:
216,94,54525,1,0,0:0:0:0:
237,168,54954,2,0,P|265:184|313:188,1,70,2|2,0:0|0:0,0:0:0:0:
372,159,55812,6,0,B|408:179|432:247|380:323|300:295,1,210,2|2,0:0|0:0,0:0:0:0:
237,298,57527,1,0,0:0:0:0:
162,278,57956,2,0,L|110:210,1,70
88,152,58813,1,2,0:0:0:0:
144,99,59243,2,0,P|208:63|292:83,1,140
345,96,60529,1,2,0:0:0:0:
120,258,62673,6,0,B|236:238|328:306,1,210,2|2,0:0|0:0,0:0:0:0:
379,250,64389,1,0,0:0:0:0:
405,178,64817,2,0,P|403:136|390:95,1,70
340,56,65675,1,2,0:0:0:0:
269,26,66104,2,0,P|226:55|139:56,1,140
109,127,67391,1,0,0:0:0:0:
144,196,67820,2,0,P|175:237|208:258,1,70,2|0,0:0|0:0,0:0:0:0:
258,283,68677,6,0,P|323:283|404:242,2,140,2|2|0,0:0|0:0|0:0,0:0:0:0:
276,207,70822,2,0,P|324:203|351:184,1,70,2|0,0:0|0:0,0:0:0:0:
293,132,71679,1,0,0:0:0:0:
216,132,72108,2,0,L|136:132,1,70,2|0,0:0|0:0,0:0:0:0:
70,145,72966,6,0,P|90:209|114:233,1,70,2|0,0:0|0:0,0:0:0:0:
153,257,73824,1,2,0:0:0:0:
223,289,74253,2,0,P|311:285|351:225,1,140,2|0,0:0|0:0,0:0:0:0:
363,175,75539,1,2,0:0:0:0:
313,116,75968,1,2,0:0:0:0:
282,187,76397,2,0,B|194:151|230:27|318:39,2,210,2|2|2,0:0|0:0|0:0,0:0:0:0:
424,128,79828,6,0,B|384:156|402:222|362:250,1,140,2|0,0:0|0:0,0:0:0:0:
300,293,81115,2,0,P|260:301|224:285,2,70,0|2|0,0:0|0:0|0:0,0:0:0:0:
268,223,82401,2,0,L|268:135,2,70,2|0|2,0:0|0:0|0:0,0:0:0:0:
345,220,83689,1,0,0:0:0:0:
399,165,84117,1,2,0:0:0:0:
452,221,84546,1,0,0:0:0:0:
256,192,84974,12,0,88405,0:0:0:0:
220,156,90121,6,0,P|256:148|300:164,1,70,2|0,0:0|0:0,0:0:0:0:
255,288,91836,2,0,P|287:315|352:338,2,105,2|0|0,0:0|0:0|0:0,0:0:0:0:
200,234,93552,1,2,0:0:0:0:
261,78,94410,5,0,0:0:0:0:
305,149,94838,1,2,0:0:0:0:
316,232,95267,2,0,P|340:256|400:268,2,70,0|2|0,0:0|0:0|0:0,0:0:0:0:
242,192,96554,1,2,0:0:0:0:
178,248,96983,2,0,P|154:184|211:113,1,140
258,80,98270,1,2,0:0:0:0:
319,138,98698,2,0,L|332:216,1,70,0|2,0:0|0:0,0:0:0:0:
268,264,99556,2,0,P|228:256|200:260,1,70,0|2,0:0|0:0,0:0:0:0:
135,206,100415,5,0,0:0:0:0:
149,123,100843,2,0,P|141:75|157:39,1,70,2|0,0:0|0:0,0:0:0:0:
226,84,101700,1,2,0:0:0:0:
305,113,102129,2,0,L|361:57,2,70,0|2|0,0:0|0:0|0:0,0:0:0:0:
329,194,103416,1,2,0:0:0:0:
328,278,103845,1,0,0:0:0:0:
264,332,104274,2,0,L|172:332,1,70
152,259,105131,1,2,0:0:0:0:
131,178,105560,6,0,P|143:106|207:70,2,140,2|2|2,0:0|0:0|0:0,0:0:0:0:
213,158,107705,2,0,P|249:186|269:210,1,70,0|2,0:0|0:0,0:0:0:0:
328,260,108562,2,0,P|292:312|216:324,1,140,2|0,0:0|0:0,0:0:0:0:
216,240,109849,2,0,P|176:232|124:252,2,70,0|2|0,0:0|0:0|0:0,0:0:0:0:
180,316,111136,1,0,0:0:0:0:
262,333,111565,1,0,0:0:0:0:
340,302,111993,2,0,P|372:271|390:220,1,70,2|0,0:0|0:0,0:0:0:0:
281,116,113280,5,0,0:0:0:0:
217,170,113709,1,0,0:0:0:0:
223,254,114138,2,0,B|145:270|88:155|169:94,1,210,2|2,0:0|0:0,0:0:0:0:
231,79,115853,2,0,P|271:79|315:103,1,70,0|2,0:0|0:0,0:0:0:0:
370,134,116711,2,0,P|384:175|426:214,1,70,0|2,0:0|0:0,0:0:0:0:
447,266,117569,2,0,P|353:302|250:268,1,210,2|2,0:0|0:0,0:0:0:0:
279,190,119284,1,0,0:0:0:0:
362,178,119713,2,0,P|338:130|306:114,1,70,0|2,0:0|0:0,0:0:0:0:
243,104,120571,1,0,0:0:0:0:
172,148,121000,6,0,P|172:224|244:276,1,140,2|0,0:0|0:0,0:0:0:0:
291,267,122286,2,0,P|336:215|333:147,1,140,2|0,0:0|0:0,0:0:0:0:
255,142,123574,1,2,0:0:0:0:
216,290,124431,6,0,P|171:318|151:351,2,70,2|0|0,0:0|0:0|0:0,0:0:0:0:
294,288,125717,2,0,P|339:316|359:349,2,70,2|0|0,0:0|0:0|0:0,0:0:0:0:
254,222,127005,1,2,0:0:0:0:
213,73,127862,6,0,P|169:143|102:190,1,140,2|0,0:0|0:0,0:0:0:0:
116,255,129148,2,0,P|186:231|260:227,1,140,2|0,0:0|0:0,0:0:0:0:
328,242,130436,1,2,0:0:0:0:
387,193,130864,1,2,0:0:0:0:
359,122,131293,6,0,L|197:122,1,140,2|2,0:0|0:0,0:0:0:0:
177,187,132580,1,2,0:0:0:0:
219,251,133008,2,0,L|358:251,2,140,2|2|0,0:0|0:0|0:0,0:0:0:0:
164,198,135152,6,0,P|146:235|101:267,1,70,0|2,0:0|0:0,0:0:0:0:
127,332,136010,1,0,0:0:0:0:
192,291,136439,1,0,0:0:0:0:
254,245,136868,2,0,P|272:208|317:176,1,70,0|2,0:0|0:0,0:0:0:0:
271,114,137726,2,0,P|307:113|353:138,1,70
404,166,138583,6,0,L|404:266,2,70
328,184,139870,2,0,L|326:282,2,70,0|0|0,0:0|0:0|0:0,0:0:0:0:
251,197,141157,2,0,L|251:286,1,70,0|2,0:0|0:0,0:0:0:0:
111,204,142375,5,2,0:0:0:0:
196,75,143164,1,0,0:0:0:0:
