osu file format v14

[General]
AudioFilename: Once Upon a Memory.mp3
AudioLeadIn: 0
PreviewTime: 68679
Countdown: 0
SampleSet: Soft
StackLeniency: 0.7
Mode: 0
LetterboxInBreaks: 0
WidescreenStoryboard: 0

[Editor]
Bookmarks: 15497,34368,43374,60100,82401,115424
DistanceSpacing: 1.1
BeatDivisor: 4
GridSize: 4
TimelineZoom: 1.2

[Metadata]
Title:Once Upon a Memory
TitleUnicode:Once Upon a Memory
Artist:Kan R. Gao
ArtistUnicode:Kan R. Gao
Creator:Neil Watts
Version:Hard
Source:To the Moon
Tags:johnny river sigmund corporation piano ambient ego_17
BeatmapID:445436
BeatmapSetID:186457

[Difficulty]
HPDrainRate:5.5
CircleSize:4
OverallDifficulty:6.5
ApproachRate:6
SliderMultiplier:1.4
SliderTickRate:2

[Events]
//Background and Video events
0,0,"by_lemanad.jpg",0,0
//Break Periods
//Storyboard Layer 0 (Background)
//Storyboard Layer 1 (Fail)
//Storyboard Layer 2 (Pass)
//Storyboard Layer 3 (Foreground)
//Storyboard Sound Samples

[TimingPoints]
14640,857.743277437063,4,2,1,25,1,0
21501,-100,4,2,1,27,0,0
27506,-100,4,2,1,30,0,0
34368,-100,4,2,1,33,0,0
41980,-100,4,2,1,35,0,0
47234,-100,4,2,1,40,0,0
55597,-80,4,2,1,40,0,0
55811,-100,4,2,1,40,0,0
70822,-80,4,2,1,40,0,0
84974,-100,4,2,1,40,0,0
90121,-80,4,2,1,40,0,0
92265,-100,4,2,1,30,0,0
93123,-100,4,2,1,45,0,0
93552,-66.6666666666667,4,2,1,50,0,1
98698,-57.1428571428571,4,2,1,50,0,1
100414,-66.6666666666667,4,2,1,50,0,1
121000,-100,4,2,1,50,0,0
135152,-80,4,2,1,40,0,0
141586,789.473684210526,4,2,1,45,1,0

[Colours]
Combo1 : 128,128,255
Combo2 : 0,225,225
Combo3 : 72,164,255
Combo4 : 255,255,51
Combo5 : 183,111,255

[HitObjects]
315,294,14640,6,0,P|291:266|252:243,1,70,8|0,0:0|0:0,0:0:0:0:
187,255,15497,2,0,L|203:186,1,70,0|2,0:0|0:0,0:0:0:0:
354,155,16784,6,0,P|324:133|302:108,1,70,0|0,0:0|0:0,0:0:0:0:
234,73,17642,1,2,0:0:0:0:
181,129,18070,2,0,P|148:126|109:133,1,70,8|0,0:0|0:0,0:0:0:0:
107,139,19357,5,0,0:0:0:0:
234,226,20215,2,0,P|270:233|318:222,1,70,2|0,0:0|0:0,0:0:0:0:
383,97,21501,6,0,P|348:92|314:99,1,70,8|0,0:0|0:0,0:0:0:0:
195,196,22788,1,2,0:0:0:0:
335,261,23646,5,0,0:0:0:0:
385,203,24074,1,0,0:0:0:0:
409,130,24503,1,2,0:0:0:0:
363,68,24932,2,0,L|283:68,1,70,8|0,0:0|0:0,0:0:0:0:
260,138,25790,2,0,L|335:138,1,70,0|2,0:0|0:0,0:0:0:0:
338,145,27506,5,2,0:0:0:0:
436,263,28363,2,0,P|407:285|357:308,1,70,8|0,0:0|0:0,0:0:0:0:
300,301,29221,2,0,P|269:284|241:263,1,70,2|0,0:0|0:0,0:0:0:0:
95,312,30508,6,0,P|115:280|126:235,1,70,0|2,0:0|0:0,0:0:0:0:
169,187,31365,1,0,0:0:0:0:
245,173,31794,2,0,P|279:176|314:170,1,70,8|0,0:0|0:0,0:0:0:0:
390,155,32652,2,0,L|377:238,1,70,2|0,0:0|0:0,0:0:0:0:
232,114,34368,6,0,P|248:144|275:167,1,70,0|2,0:0|0:0,0:0:0:0:
210,207,35225,2,0,P|236:229|253:259,1,70,8|0,0:0|0:0,0:0:0:0:
113,324,36512,1,2,0:0:0:0:
117,328,37799,5,2,0:0:0:0:
146,177,38656,2,0,P|184:182|230:168,1,70,8|0,0:0|0:0,0:0:0:0:
246,246,39514,1,0,0:0:0:0:
294,186,39943,1,0,0:0:0:0:
372,184,40372,2,0,B|365:122|308:96|264:112,1,140,8|2,0:0|0:0,0:0:0:0:
140,114,41980,5,0,0:0:0:0:
140,114,42087,2,0,P|162:144|172:178,1,70,8|0,0:0|0:0,0:0:0:0:
203,246,42945,1,0,0:0:0:0:
126,245,43374,2,0,P|104:215|94:181,1,70,0|8,0:0|0:0,0:0:0:0:
32,138,44232,2,0,P|55:112|71:81,1,70,0|2,0:0|0:0,0:0:0:0:
224,61,45518,6,0,L|303:61,1,70,8|0,0:0|0:0,0:0:0:0:
476,212,47234,6,0,P|439:222|406:251,1,70,8|0,0:0|0:0,0:0:0:0:
391,272,47877,2,0,L|301:272,1,70
236,194,48949,6,0,P|279:185|311:165,1,70,8|0,0:0|0:0,0:0:0:0:
429,86,50236,5,2,0:0:0:0:
352,219,51094,2,0,P|329:193|275:159,1,70
192,72,52380,6,0,P|161:93|144:132,1,70,8|0,0:0|0:0,0:0:0:0:
132,197,53238,1,2,0:0:0:0:
170,264,53667,2,0,P|198:234|208:203,1,70,0|8,0:0|0:0,0:0:0:0:
269,253,54525,1,0,0:0:0:0:
336,215,54953,2,0,P|315:194|300:155,1,70,2|2,0:0|0:0,0:0:0:0:
358,106,55811,1,8,0:0:0:0:
288,76,56240,5,0,0:0:0:0:
212,88,56669,2,0,P|156:68|124:80,1,70,0|2,0:0|0:0,0:0:0:0:
162,145,57527,1,8,0:0:0:0:
162,222,57956,1,0,0:0:0:0:
147,296,58384,2,0,P|182:295|212:277,1,70,0|2,0:0|0:0,0:0:0:0:
288,266,59242,6,0,P|285:220|295:186,1,70,8|0,0:0|0:0,0:0:0:0:
321,127,60100,2,0,P|276:114|247:94,1,70,0|2,0:0|0:0,0:0:0:0:
194,147,60958,1,8,0:0:0:0:
198,224,61387,1,0,0:0:0:0:
223,253,61601,1,0,0:0:0:0:
260,263,61815,1,2,0:0:0:0:
319,213,62244,1,0,0:0:0:0:
312,136,62673,6,0,P|284:112|244:104,1,70,8|0,0:0|0:0,0:0:0:0:
182,73,63531,1,0,0:0:0:0:
150,143,63960,1,2,0:0:0:0:
116,212,64389,2,0,P|164:228|184:252,1,70,8|0,0:0|0:0,0:0:0:0:
116,288,65246,2,0,P|143:309|176:317,1,70,0|2,0:0|0:0,0:0:0:0:
255,318,66104,6,0,P|288:310|315:288,1,70,8|0,0:0|0:0,0:0:0:0:
358,223,66962,1,0,0:0:0:0:
320,156,67391,2,0,P|293:133|259:125,1,70,0|8,0:0|0:0,0:0:0:0:
183,128,68248,1,0,0:0:0:0:
242,215,68677,6,0,L|176:239,1,70,2|2,0:0|0:0,0:0:0:0:
193,344,69535,2,0,L|267:316,1,70,8|0,0:0|0:0,0:0:0:0:
364,318,70393,5,2,0:0:0:0:
457,269,70822,2,0,P|429:233|377:217,1,87.5,0|8,0:0|0:0,0:0:0:0:
300,165,71679,5,0,0:0:0:0:
200,133,72108,2,0,P|162:110|136:75,1,87.5,2|0,0:0|0:0,0:0:0:0:
232,33,72966,1,8,0:0:0:0:
337,33,73395,1,0,0:0:0:0:
435,70,73824,2,0,P|410:106|375:131,1,87.5,2|0,0:0|0:0,0:0:0:0:
413,229,74682,2,0,L|311:221,1,87.5,8|0,0:0|0:0,0:0:0:0:
288,124,75539,5,2,0:0:0:0:
152,160,75968,1,2,0:0:0:0:
256,256,76397,2,0,P|224:292|168:300,1,87.5,8|0,0:0|0:0,0:0:0:0:
171,199,77255,2,0,P|203:163|259:155,1,87.5,0|2,0:0|0:0,0:0:0:0:
193,59,78112,1,8,0:0:0:0:
296,79,78541,2,0,L|395:80,1,87.5,0|2,0:0|0:0,0:0:0:0:
457,155,79399,5,0,0:0:0:0:
356,184,79828,2,0,P|340:231|348:272,1,87.5,8|0,0:0|0:0,0:0:0:0:
251,313,80686,2,0,P|205:302|157:305,1,87.5,2|0,0:0|0:0,0:0:0:0:
117,211,81543,6,0,P|165:201|220:171,1,87.5,8|0,0:0|0:0,0:0:0:0:
305,184,82401,2,0,P|344:201|387:210,1,87.5,2|0,0:0|0:0,0:0:0:0:
467,210,83152,5,0,0:0:0:0:
467,210,83259,2,0,L|436:307,1,87.5,8|0,0:0|0:0,0:0:0:0:
338,317,84117,2,0,L|245:316,1,87.5
193,228,84974,6,0,P|264:199|315:152,1,140,8|0,0:0|0:0,0:0:0:0:
367,220,86261,1,2,0:0:0:0:
448,197,86690,2,0,L|478:98,2,70,8|0|0,0:0|0:0|0:0,0:0:0:0:
428,279,87977,1,0,0:0:0:0:
256,236,90121,6,0,L|256:136,1,87.5,8|0,0:0|0:0,0:0:0:0:
27,175,91836,1,8,0:0:0:0:
27,175,92265,6,0,L|80:132,1,35,2|0,0:0|0:0,0:0:0:0:
177,142,92694,2,0,L|135:183,1,35,2|0,0:0|0:0,0:0:0:0:
190,50,93123,2,0,L|225:19,1,35,2|0,0:0|0:0,0:0:0:0:
320,92,93552,6,0,P|344:144|344:208,1,105.000004005432,8|0,0:0|0:0,0:0:0:0:
240,256,94410,2,0,P|216:209|212:157,1,105.000004005432,0|2,0:0|0:0,0:0:0:0:
321,92,95267,2,0,L|369:128,1,52.5000020027161,8|2,0:0|0:0,0:0:0:0:
413,84,95696,2,0,L|453:120,1,52.5000020027161,0|2,0:0|0:0,0:0:0:0:
453,184,96125,5,0,0:0:0:0:
354,307,96554,1,2,0:0:0:0:
236,203,96983,2,0,P|281:160|306:95,1,105.000004005432,8|0,0:0|0:0,0:0:0:0:
392,36,97841,2,0,L|408:145,1,105.000004005432,0|2,0:0|0:0,0:0:0:0:
395,286,98698,6,0,P|374:309|350:378,1,61.2500005841255,8|2,0:0|0:0,0:0:0:0:
256,348,99127,2,0,L|312:258,1,61.2500005841255,0|2,0:0|0:0,0:0:0:0:
248,201,99556,2,0,P|230:235|180:281,1,61.2500005841255,0|2,0:0|0:0,0:0:0:0:
116,284,99985,1,0,0:0:0:0:
116,284,100414,5,8,0:0:0:0:
156,164,100843,2,0,P|205:153|230:108,1,105.000004005432,0|0,0:0|0:0,0:0:0:0:
355,122,101700,1,2,0:0:0:0:
394,242,102129,5,8,0:0:0:0:
335,265,102344,1,2,0:0:0:0:
273,274,102558,1,0,0:0:0:0:
214,252,102773,1,2,0:0:0:0:
161,218,102987,2,0,L|77:290,1,105.000004005432,0|2,0:0|0:0,0:0:0:0:
84,160,103845,6,0,L|168:88,1,105.000004005432,8|0,0:0|0:0,0:0:0:0:
288,76,104702,1,0,0:0:0:0:
380,156,105131,1,2,0:0:0:0:
380,280,105560,2,0,P|356:328|304:352,1,105.000004005432,8|0,0:0|0:0,0:0:0:0:
184,352,106418,2,0,P|138:327|115:281,1,105.000004005432,0|2,0:0|0:0,0:0:0:0:
152,160,107276,6,0,L|264:160,1,105.000004005432,8|0,0:0|0:0,0:0:0:0:
320,160,107919,1,2,0:0:0:0:
368,200,108134,1,0,0:0:0:0:
256,252,108562,1,2,0:0:0:0:
254,126,108991,6,0,P|193:86|155:29,1,105.000004005432,8|0,0:0|0:0,0:0:0:0:
81,170,109849,2,0,L|91:228,3,52.5000020027161,0|2|0|2,0:0|0:0|0:0|0:0,0:0:0:0:
104,284,110707,1,8,0:0:0:0:
225,320,111136,6,0,P|272:297|324:288,1,105.000004005432
380,176,111993,1,2,0:0:0:0:
361,51,112422,2,0,P|295:78|244:82,1,105.000004005432,8|0,0:0|0:0,0:0:0:0:
151,142,113280,6,0,L|90:260,1,105.000004005432,0|2,0:0|0:0,0:0:0:0:
228,248,114138,2,0,P|308:261|328:271,2,105.000004005432,8|0|0,0:0|0:0|0:0,0:0:0:0:
308,150,115424,2,0,P|255:146|207:126,2,105.000004005432,2|8|0,0:0|0:0|0:0,0:0:0:0:
380,60,116711,6,0,P|400:107|454:160,1,105.000004005432,0|2,0:0|0:0,0:0:0:0:
512,217,117569,2,0,L|377:245,1,105.000004005432,8|0,0:0|0:0,0:0:0:0:
284,221,118426,1,0,0:0:0:0:
337,107,118855,6,0,P|256:119|167:108,1,157.500006008148,2|0,0:0|0:0,0:0:0:0:
136,156,119713,2,0,L|84:176,1,52.5000020027161,2|0,0:0|0:0,0:0:0:0:
51,227,120142,2,0,P|99:297|136:322,1,105.000004005432,2|2,0:0|0:0,0:0:0:0:
196,330,121000,6,0,P|231:307|276:294,1,70,8|0,0:0|0:0,0:0:0:0:
340,284,121857,1,0,0:0:0:0:
391,217,122286,2,0,P|367:145|291:121,1,140,2|0,0:0|0:0,0:0:0:0:
308,204,123573,1,0,0:0:0:0:
308,204,124002,5,2,0:0:0:0:
304,288,124431,2,0,P|243:256|225:190,1,140,8|0,0:0|0:0,0:0:0:0:
308,204,125717,2,0,P|292:138|223:108,1,140,2|0,0:0|0:0,0:0:0:0:
148,95,127004,5,0,0:0:0:0:
100,164,127432,1,2,0:0:0:0:
100,164,127861,2,0,P|132:212|148:224,1,70,8|0,0:0|0:0,0:0:0:0:
208,272,128719,1,0,0:0:0:0:
276,220,129148,2,0,P|300:195|317:164,1,70,2|8,0:0|0:0,0:0:0:0:
352,96,130006,1,0,0:0:0:0:
268,76,130435,5,2,0:0:0:0:
232,152,130863,1,2,0:0:0:0:
152,120,131293,2,0,P|156:192|216:236,1,140,8|2,0:0|0:0,0:0:0:0:
232,152,132579,1,2,0:0:0:0:
316,156,133008,1,8,0:0:0:0:
352,232,133437,6,0,L|320:264,1,35,2|0,0:0|0:0,0:0:0:0:
292,280,133866,2,0,L|240:280,1,35,2|0,0:0|0:0,0:0:0:0:
216,269,134295,2,0,L|178:235,1,35,2|0,0:0|0:0,0:0:0:0:
160,216,134724,1,8,0:0:0:0:
240,148,135152,5,0,0:0:0:0:
200,104,135367,1,0,0:0:0:0:
240,68,135581,1,2,0:0:0:0:
344,68,136010,1,0,0:0:0:0:
380,108,136224,1,2,0:0:0:0:
348,148,136439,1,8,0:0:0:0:
248,188,136868,6,0,L|172:240,1,87.5,0|2,0:0|0:0,0:0:0:0:
88,296,137725,1,0,0:0:0:0:
100,192,138154,1,8,0:0:0:0:
164,108,138583,2,0,P|204:92|248:112,1,87.5,0|2,0:0|0:0,0:0:0:0:
204,200,139441,2,0,P|224:252|268:272,1,87.5,0|8,0:0|0:0,0:0:0:0:
352,256,140299,1,0,0:0:0:0:
420,180,140728,1,2,0:0:0:0:
344,112,141157,1,0,0:0:0:0:
272,184,141585,1,8,0:0:0:0:
416,312,142375,5,2,0:0:0:0:
416,128,143164,1,0,0:0:0:0:
