osu file format v9

[General]
AudioFilename: 3p.mp3
AudioLeadIn: 1500
PreviewTime: 67096
Countdown: 0
SampleSet: Normal
StackLeniency: 0.7
Mode: 1
LetterboxInBreaks: 0

[Editor]
DistanceSpacing: 0
BeatDivisor: 4
GridSize: 32

[Metadata]
Title:Immoral Memory~The Lost Memory~
Artist:Kamui Gakupo, KAITO, Kagamine Len
Creator:tutuhaha
Version:Taiko Oni
Source:natsuP
Tags:Vocaloid SCL Project feat. VanaN'Ice Haitoku no Kioku Megurine Luka cmn_891127 7odoa

[Difficulty]
HPDrainRate:5
CircleSize:5
OverallDifficulty:5
ApproachRate:5
SliderMultiplier:1.4
SliderTickRate:1

[Events]
//Background and Video events
0,0,"TaikoBG.jpg"
Video,0,"3p.flv"
//Break Periods
//Storyboard Layer 0 (Background)
//Storyboard Layer 1 (Fail)
//Storyboard Layer 2 (Pass)
//Storyboard Layer 3 (Foreground)
//Storyboard Sound Samples
//Background Colour Transformations
3,100,163,162,255

[TimingPoints]
53,260.869565217391,4,1,0,80,1,0
67879,-100,4,1,0,80,0,1
83792,-100,4,1,0,80,0,0
84574,-100,4,1,0,80,0,1
101270,-100,4,1,0,80,0,0
149096,-133.333333333333,4,1,0,80,0,0
161531,-100,4,1,0,80,0,0
165966,-100,4,1,0,80,0,1
182661,-100,4,1,0,80,0,0
199357,-100,4,1,0,80,0,1
215270,-100,4,1,0,80,0,0
216052,-100,4,1,0,80,0,1
232748,-100,4,1,0,80,0,0

[Colours]
Combo1 : 255,0,0
Combo2 : 0,255,255

[HitObjects]
160,32,574,21,0
160,32,661,1,0
160,32,748,1,0
160,32,835,5,8
160,32,922,1,8
160,32,1009,1,8
160,32,1096,5,0
160,32,2009,1,0
160,32,2270,1,0
160,32,2531,1,0
160,32,3183,1,0
160,32,3966,1,0
160,32,4096,1,0
160,32,4357,1,0
160,32,4618,1,0
160,32,5270,1,0
160,32,6183,1,0
160,32,6444,1,0
160,32,6705,1,0
160,32,7226,1,0
160,32,7357,1,0
160,32,8139,1,0
160,32,8270,1,0
160,32,8531,1,0
160,32,8792,1,0
160,32,8922,21,0
160,32,9009,1,0
160,32,9096,1,0
160,32,9183,5,8
160,32,9444,5,4
160,32,9574,1,0
160,32,9705,5,8
160,32,9835,1,8
160,32,9966,5,0
160,32,10096,1,0
160,32,10226,5,8
160,32,10357,5,0
160,32,10618,1,0
160,32,10748,5,8
160,32,10879,5,0
160,32,11009,1,0
160,32,11074,1,0
160,32,11139,1,0
160,32,11270,5,8
160,32,11400,1,8
160,32,11531,5,0
160,32,11661,1,0
160,32,11792,5,8
160,32,11922,1,8
160,32,12052,5,0
160,32,12183,1,0
160,32,12313,5,8
160,32,12444,5,0
160,32,12705,1,0
160,32,12835,5,8
160,32,12966,5,0
160,32,13096,5,8
160,32,13161,1,8
160,32,13226,1,8
160,32,13357,5,0
160,32,13487,5,8
160,32,13618,5,4
160,32,13748,1,0
160,32,13879,5,8
160,32,14009,1,8
160,32,14140,5,0
160,32,14270,1,0
160,32,14400,5,8
160,32,14531,5,0
160,32,14792,1,0
160,32,14922,5,8
160,32,15053,5,0
160,32,15183,1,0
160,32,15248,1,0
160,32,15313,1,0
160,32,15444,5,8
160,32,15574,1,8
160,32,15705,5,4
160,32,15835,1,0
160,32,15966,5,8
160,32,16096,1,8
160,32,16226,5,0
160,32,16357,1,0
160,32,16487,5,8
160,32,16618,5,0
160,32,16879,1,0
160,32,17009,5,8
160,32,17140,5,0
160,32,17270,5,8
160,32,17335,1,8
160,32,17400,1,8
160,32,17531,5,0
160,32,17661,5,8
160,32,17792,5,4
160,32,17922,5,8
160,32,18183,1,8
160,32,18444,1,8
160,32,18705,1,8
160,32,18966,1,8
160,32,19227,1,8
160,32,19488,1,8
160,32,19618,1,8
160,32,19748,1,8
160,32,19879,5,4
160,32,20139,5,8
160,32,20270,5,0
160,32,20400,1,0
160,32,20661,5,8
160,32,20792,5,0
160,32,20922,1,0
160,32,21183,5,8
160,32,21313,5,0
160,32,21574,1,0
160,32,21705,5,8
160,32,21835,1,8
160,32,21966,5,0
160,32,22226,5,8
160,32,22357,5,0
160,32,22618,1,0
160,32,22748,5,8
160,32,22879,5,0
160,32,23009,1,0
160,32,23139,1,0
160,32,23270,5,8
160,32,23400,5,0
160,32,23661,1,0
160,32,23792,5,8
160,32,24052,5,4
160,32,24183,5,8
160,32,24248,1,8
160,32,24313,1,8
160,32,24444,5,0
160,32,24705,1,0
160,32,24835,5,8
160,32,25096,1,12
160,32,25226,5,0
160,32,25292,1,0
160,32,25357,1,0
160,32,25487,5,8
160,32,25748,5,0
160,32,25879,5,8
160,32,26139,5,4
160,32,26270,1,0
160,32,26400,5,8
160,32,26531,1,8
160,32,26661,5,0
160,32,26792,1,0
160,32,26922,5,8
160,32,27053,1,8
160,32,27183,5,0
160,32,27248,1,0
160,32,27314,1,0
160,32,27444,5,8
160,32,27509,1,8
160,32,27575,1,8
160,32,27705,5,0
160,32,27835,5,8
160,32,27966,1,8
160,32,28096,1,8
160,32,28226,5,4
160,32,28487,5,8
160,32,28618,5,0
160,32,28748,1,0
160,32,29009,5,8
160,32,29139,5,0
160,32,29270,1,0
160,32,29400,1,0
160,32,29531,5,8
160,32,29661,1,8
160,32,29792,5,0
160,32,29922,1,0
160,32,30053,5,8
160,32,30183,1,8
160,32,30313,5,0
160,32,30574,5,8
160,32,30705,5,0
160,32,30966,1,0
160,32,31096,5,8
160,32,31357,5,0
160,32,31487,1,0
160,32,31618,5,8
160,32,31748,5,0
160,32,32009,1,0
160,32,32139,5,8
160,32,32400,5,4
160,32,32531,5,8
160,32,32596,1,8
160,32,32661,1,8
160,32,32792,5,0
160,32,33053,1,0
160,32,33183,5,8
160,32,33444,1,12
160,32,33574,5,0
160,32,33640,1,0
160,32,33705,1,0
160,32,33835,5,8
160,32,34096,5,0
160,32,34227,5,8
160,32,34487,5,4
160,32,34618,1,0
160,32,34683,1,0
160,32,34748,5,8
160,32,34879,5,0
160,32,35009,1,0
160,32,35139,5,8
160,32,35270,1,8
160,32,35400,5,0
160,32,35531,1,0
160,32,35618,1,0
160,32,35705,1,0
160,32,35792,5,8
160,32,36052,1,8
160,32,36313,1,8
160,32,36574,5,4
160,32,36705,1,0
160,32,36966,1,0
160,32,37096,1,0
160,32,37357,1,0
160,32,37487,1,0
160,32,37748,1,0
160,32,37879,5,8
160,32,38009,5,0
160,32,38139,5,8
160,32,38270,1,8
160,32,38400,5,0
160,32,38531,5,8
160,32,38661,5,4
160,32,38792,1,0
160,32,39053,1,0
160,32,39183,1,0
160,32,39313,1,0
160,32,39444,5,12
160,32,39574,1,12
160,32,39705,5,0
160,32,39835,5,8
160,32,39966,5,0
160,32,40096,1,0
160,32,40226,5,8
160,32,40357,1,8
160,32,40422,1,8
160,32,40487,5,0
160,32,40618,5,8
160,32,40748,5,0
160,32,40879,1,0
160,32,41139,1,0
160,32,41270,1,0
160,32,41531,1,0
160,32,41662,1,0
160,32,41922,1,0
160,32,42053,5,8
160,32,42183,5,0
160,32,42313,5,8
160,32,42444,1,8
160,32,42509,1,8
160,32,42574,5,0
160,32,42705,5,8
160,32,42835,5,0
160,32,42900,1,0
160,32,42966,1,0
160,32,43096,5,8
160,32,43226,5,0
160,32,43292,1,0
160,32,43357,1,0
160,32,43487,5,8
160,32,43618,5,0
160,32,43683,1,0
160,32,43749,1,0
160,32,43879,5,8
160,32,44009,5,0
160,32,44074,1,0
160,32,44139,5,8
160,32,44270,1,8
160,32,44400,5,0
160,32,44531,5,8
160,32,44661,1,8
160,32,44792,1,8
160,32,44922,5,4
160,32,45053,1,0
160,32,45314,1,0
160,32,45444,1,0
160,32,45705,1,0
160,32,45835,1,0
160,32,46096,1,0
160,32,46227,5,8
160,32,46357,5,0
160,32,46487,5,8
160,32,46618,1,8
160,32,46748,5,0
160,32,46879,5,8
160,32,47009,5,0
160,32,47139,1,0
160,32,47400,1,0
160,32,47531,5,12
160,32,47661,5,0
160,32,47792,5,12
160,32,47922,1,8
160,32,48053,5,0
160,32,48183,5,8
160,32,48314,5,0
160,32,48444,1,0
160,32,48574,5,8
160,32,48705,1,8
160,32,48770,1,8
160,32,48835,5,0
160,32,48966,5,8
160,32,49096,5,4
160,32,49227,1,0
160,32,49487,1,0
160,32,49618,1,0
160,32,49879,1,0
160,32,50010,5,8
160,32,50139,1,8
160,32,50270,5,0
160,32,50401,5,8
160,32,50531,5,0
160,32,50661,5,8
160,32,50792,1,8
160,32,50922,5,0
160,32,51053,5,8
160,32,51183,5,0
160,32,51248,1,0
160,32,51314,1,0
160,32,51444,5,8
160,32,51574,5,0
160,32,51639,1,0
160,32,51705,1,0
160,32,51835,5,8
160,32,51966,5,0
160,32,52031,1,0
160,32,52097,1,0
160,32,52227,5,8
160,32,52357,5,0
160,32,52422,1,0
160,32,52487,5,8
160,32,52618,5,0
160,32,52748,5,8
160,32,53009,1,8
160,32,53270,5,4
160,32,53400,5,8
160,32,53531,1,8
160,32,53661,5,0
160,32,53922,1,0
160,32,54052,5,8
160,32,54313,1,8
160,32,54444,5,0
160,32,54574,1,0
160,32,54705,5,8
160,32,54966,5,0
160,32,55096,5,8
160,32,55357,5,0
160,32,55487,1,0
160,32,55618,5,8
160,32,55748,5,0
160,32,56009,1,0
160,32,56139,5,8
160,32,56270,1,8
160,32,56400,5,0
160,32,56531,1,0
160,32,56661,5,8
160,32,56792,1,8
160,32,56922,5,0
160,32,56987,1,0
160,32,57052,1,0
160,32,57183,5,8
160,32,57248,1,8
160,32,57313,1,8
160,32,57444,5,4
160,32,57574,1,0
160,32,57639,1,0
160,32,57705,1,0
160,32,57835,5,8
160,32,58096,5,0
160,32,58226,5,8
160,32,58357,5,0
160,32,58487,5,12
160,32,58618,5,0
160,32,58683,1,0
160,32,58748,1,0
160,32,58879,5,8
160,32,59139,5,0
160,32,59270,5,8
160,32,59400,1,8
160,32,59531,5,4
160,32,59661,5,8
160,32,59726,1,8
160,32,59792,1,8
160,32,59922,5,0
160,32,60052,5,8
160,32,60183,5,0
160,32,60313,1,0
160,32,60444,5,8
160,32,60574,1,12
160,32,60705,5,0
160,32,60770,1,0
160,32,60835,1,0
160,32,60966,5,8
160,32,61096,5,0
160,32,61226,5,8
160,32,61357,1,8
160,32,61487,1,8
160,32,61618,5,4
160,32,61748,5,8
160,32,61879,1,8
160,32,62009,5,0
160,32,62270,1,0
160,32,62400,5,8
160,32,62661,1,8
160,32,62792,5,0
160,32,62922,1,0
160,32,63052,5,8
160,32,63314,5,0
160,32,63444,5,8
160,32,63705,5,0
160,32,63835,1,0
160,32,63966,1,0
160,32,64096,5,8
160,32,64357,5,0
160,32,64487,5,8
160,32,64618,1,8
160,32,64748,5,0
160,32,64879,1,0
160,32,65009,5,8
160,32,65139,5,0
160,32,65270,1,0
160,32,65400,5,8
160,32,65531,5,0
160,32,65661,5,8
160,32,65792,5,0
160,32,65857,1,0
160,32,65922,1,0
160,32,66052,5,8
160,32,66183,5,0
160,32,66313,5,8
160,32,66379,5,0
160,32,66444,1,0
160,32,66509,1,0
160,32,66574,5,8
160,32,66639,5,0
160,32,66705,1,0
160,32,66770,1,0
160,32,66835,1,0
160,32,67096,5,8
160,32,67357,1,8
160,32,67618,1,8
160,32,67879,5,4
160,32,68009,1,0
160,32,68139,5,8
160,32,68270,5,0
160,32,68400,1,0
160,32,68531,1,0
160,32,68596,1,0
160,32,68661,5,8
160,32,68792,5,0
160,32,68922,1,0
160,32,69183,5,8
160,32,69313,5,0
160,32,69379,1,0
160,32,69444,1,0
160,32,69574,1,0
160,32,69705,5,8
160,32,69835,1,8
160,32,69966,5,0
160,32,70096,1,0
160,32,70226,5,8
160,32,70357,5,0
160,32,70487,1,0
160,32,70618,1,0
160,32,70683,1,0
160,32,70748,5,8
160,32,70879,5,0
160,32,71009,1,0
160,32,71270,5,8
160,32,71400,5,0
160,32,71531,5,8
160,32,71596,1,8
160,32,71661,5,0
160,32,71792,1,0
160,32,71922,5,8
160,32,72052,5,4
160,32,72183,5,8
160,32,72248,1,8
160,32,72313,1,8
160,32,72444,5,0
160,32,72705,1,0
160,32,72835,5,8
160,32,72966,5,0
160,32,73096,5,12
160,32,73226,5,0
160,32,73292,1,0
160,32,73357,1,0
160,32,73487,5,8
160,32,73748,5,0
160,32,73879,5,8
160,32,74009,1,8
160,32,74139,5,4
160,32,74270,5,8
160,32,74400,1,8
160,32,74531,5,0
160,32,74661,5,8
160,32,74791,1,8
160,32,74922,5,0
160,32,75052,5,8
160,32,75183,5,0
160,32,75248,1,0
160,32,75313,1,0
160,32,75444,5,8
160,32,75705,1,8
160,32,75966,1,8
160,32,76226,5,4
160,32,76357,5,8
160,32,76422,1,8
160,32,76487,1,8
160,32,76618,5,0
160,32,76879,1,0
160,32,77009,5,8
160,32,77140,5,0
160,32,77270,5,12
160,32,77400,5,0
160,32,77466,1,0
160,32,77531,1,0
160,32,77661,5,8
160,32,77922,5,0
160,32,78053,5,8
160,32,78183,1,8
160,32,78313,5,4
160,32,78444,5,8
160,32,78509,1,8
160,32,78574,1,8
160,32,78705,5,0
160,32,78835,5,8
160,32,78965,5,0
160,32,79096,1,0
160,32,79161,1,0
160,32,79226,5,8
160,32,79357,5,0
160,32,79487,1,0
160,32,79618,5,8
160,32,79879,1,8
160,32,80140,1,8
160,32,80400,5,4
160,32,80531,5,8
160,32,80596,1,8
160,32,80661,1,8
160,32,80792,5,0
160,32,81053,1,0
160,32,81183,5,8
160,32,81314,5,0
160,32,81444,5,12
160,32,81574,5,0
160,32,81640,1,0
160,32,81705,1,0
160,32,81835,5,8
160,32,82096,5,0
160,32,82227,5,8
160,32,82357,1,8
160,32,82487,5,4
160,32,82618,5,8
160,32,82748,1,8
160,32,82879,5,0
160,32,83009,5,8
160,32,83139,1,8
160,32,83270,5,0
160,32,83400,5,8
160,32,83531,5,0
160,32,83596,1,0
160,32,83661,1,0
160,32,83792,1,0
160,32,84053,5,8
160,32,84314,1,8
160,32,84574,5,4
160,32,84705,1,0
160,32,84835,5,8
160,32,84966,1,8
160,32,85096,5,0
160,32,85226,1,0
160,32,85292,1,0
160,32,85357,5,8
160,32,85487,1,0
160,32,85618,5,0
160,32,85879,5,8
160,32,86009,5,0
160,32,86139,1,0
160,32,86270,5,8
160,32,86335,1,8
160,32,86400,1,8
160,32,86531,5,0
160,32,86661,1,0
160,32,86792,1,0
160,32,86922,5,8
160,32,87052,5,0
160,32,87183,1,0
160,32,87313,1,0
160,32,87379,1,0
160,32,87444,5,8
160,32,87574,1,8
160,32,87705,5,0
160,32,87835,5,8
160,32,87966,1,8
160,32,88096,5,0
160,32,88226,5,8
160,32,88292,1,8
160,32,88357,1,8
160,32,88487,5,0
160,32,88617,5,8
160,32,88748,5,4
160,32,89009,5,8
160,32,89139,5,0
160,32,89205,1,0
160,32,89270,1,0
160,32,89400,1,0
160,32,89531,5,8
160,32,89661,5,0
160,32,89792,5,12
160,32,90053,5,0
160,32,90183,5,8
160,32,90248,1,8
160,32,90314,5,0
160,32,90444,5,8
160,32,90575,1,8
160,32,90705,5,8
160,32,90835,1,4
160,32,91096,5,8
160,32,91226,5,4
160,32,91487,5,8
160,32,91618,5,4
160,32,91748,5,8
160,32,91879,5,0
160,32,91944,1,0
160,32,92009,1,0
160,32,92139,1,0
160,32,92270,1,0
160,32,92400,5,8
160,32,92466,1,8
160,32,92531,1,8
160,32,92661,1,8
160,32,92792,1,8
160,32,92922,5,4
160,32,93183,5,8
160,32,93313,5,0
160,32,93379,1,0
160,32,93444,1,0
160,32,93574,1,0
160,32,93705,5,8
160,32,93835,5,0
160,32,93966,5,12
160,32,94226,1,8
160,32,94357,1,8
160,32,94422,1,8
160,32,94488,5,0
160,32,94618,5,8
160,32,94749,1,8
160,32,94879,5,0
160,32,95009,5,12
160,32,95270,1,8
160,32,95400,5,4
160,32,95661,1,4
160,32,95922,1,4
160,32,96183,1,0
160,32,96248,1,0
160,32,96313,5,8
160,32,96444,5,0
160,32,96574,1,0
160,32,96639,1,0
160,32,96705,1,0
160,32,96835,5,8
160,32,96966,1,8
160,32,97096,5,4
160,32,97357,5,8
160,32,97487,5,0
160,32,97618,1,0
160,32,97748,1,0
160,32,97813,1,0
160,32,97879,5,8
160,32,98009,5,0
160,32,98139,5,12
160,32,98400,5,0
160,32,98531,5,8
160,32,98662,5,0
160,32,98792,5,8
160,32,98857,1,8
160,32,98923,1,8
160,32,99053,5,0
160,32,99183,5,12
160,32,99444,5,0
160,32,99574,5,12
160,32,99835,5,0
160,32,99965,5,12
160,32,100096,5,0
160,32,100226,1,0
160,32,100357,1,0
160,32,100487,5,8
160,32,100552,5,0
160,32,100618,1,0
160,32,100683,1,0
160,32,100748,1,0
160,32,100879,1,0
160,32,101009,5,8
160,32,101074,1,8
160,32,101139,1,8
160,32,101205,1,8
160,32,101270,5,0
160,32,101531,5,8
160,32,101661,5,0
160,32,101792,1,0
160,32,101922,1,0
160,32,102052,5,8
160,32,102183,5,0
160,32,102313,1,0
160,32,102444,5,8
160,32,102509,1,8
160,32,102574,1,8
160,32,102705,5,0
160,32,102835,5,8
160,32,102966,5,0
160,32,103096,5,8
160,32,103226,1,8
160,32,103357,5,0
160,32,103618,5,8
160,32,103748,5,0
160,32,103879,1,0
160,32,104009,1,0
160,32,104139,5,8
160,32,104270,5,0
160,32,104400,1,0
160,32,104531,1,0
160,32,104596,1,0
160,32,104661,5,8
160,32,104792,5,0
160,32,104922,1,0
160,32,105053,5,8
160,32,105118,1,8
160,32,105183,1,8
160,32,105313,1,8
160,32,105444,5,4
160,32,105574,1,0
160,32,105639,1,0
160,32,105705,5,8
160,32,105835,5,0
160,32,106096,5,8
160,32,106226,5,0
160,32,106357,1,0
160,32,106487,5,12
160,32,106618,5,0
160,32,106683,1,0
160,32,106748,1,0
160,32,106879,5,8
160,32,107139,5,0
160,32,107270,5,8
160,32,107400,1,8
160,32,107531,5,4
160,32,107661,1,0
160,32,107792,5,8
160,32,107922,1,8
160,32,108052,5,0
160,32,108182,1,0
160,32,108313,5,8
160,32,108443,1,8
160,32,108574,5,0
160,32,108705,5,8
160,32,108835,1,8
160,32,108966,5,0
160,32,109096,1,0
160,32,109161,1,0
160,32,109226,1,0
160,32,109292,1,0
160,32,109357,5,8
160,32,109618,5,4
160,32,109748,1,0
160,32,109879,5,8
160,32,109944,1,8
160,32,110009,5,0
160,32,110139,5,8
160,32,110204,1,8
160,32,110269,5,0
160,32,110400,1,0
160,32,110531,5,8
160,32,110661,5,0
160,32,110792,5,8
160,32,110857,1,8
160,32,110922,5,0
160,32,111052,5,8
160,32,111313,1,8
160,32,111444,5,0
160,32,111574,5,8
160,32,111705,1,8
160,32,111835,5,0
160,32,111900,1,0
160,32,111966,5,8
160,32,112096,1,8
160,32,112226,5,0
160,32,112357,5,8
160,32,112487,5,0
160,32,112618,5,8
160,32,112748,5,0
160,32,112878,1,0
160,32,112943,1,0
160,32,113009,5,8
160,32,113139,1,8
160,32,113400,1,8
160,32,113530,5,0
160,32,113661,5,8
160,32,113792,5,4
160,32,113922,5,8
160,32,113987,1,8
160,32,114052,5,0
160,32,114183,5,8
160,32,114313,5,0
160,32,114444,5,8
160,32,114574,1,8
160,32,114705,5,0
160,32,114835,1,0
160,32,114966,5,8
160,32,115030,1,8
160,32,115096,5,0
160,32,115226,5,8
160,32,115487,5,0
160,32,115618,5,8
160,32,115748,1,8
160,32,115879,5,4
160,32,116009,1,0
160,32,116074,1,0
160,32,116139,5,8
160,32,116270,5,0
160,32,116400,1,0
160,32,116531,5,8
160,32,116661,1,8
160,32,116792,5,0
160,32,116922,1,0
160,32,117009,1,0
160,32,117096,1,0
160,32,117183,5,8
160,32,117313,5,0
160,32,117444,5,8
160,32,117574,5,0
160,32,117705,5,8
160,32,117835,5,0
160,32,117966,1,4
160,32,118096,5,8
160,32,118357,5,0
160,32,118487,5,8
160,32,118748,5,0
160,32,118879,5,8
160,32,119139,5,0
160,32,119270,5,8
160,32,119400,1,8
160,32,119531,5,0
160,32,119596,1,0
160,32,119661,5,8
160,32,119792,1,8
160,32,119922,5,0
160,32,120052,5,12
160,32,120183,5,0
160,32,120444,5,8
160,32,120574,5,0
160,32,120835,5,8
160,32,120965,5,0
160,32,121226,5,8
160,32,121356,5,0
160,32,121487,1,0
160,32,121618,5,8
160,32,121683,1,8
160,32,121748,1,8
160,32,121879,5,0
160,32,122009,5,8
160,32,122139,1,12
160,32,122270,5,0
160,32,122531,1,0
160,32,122661,5,8
160,32,122922,5,0
160,32,123052,1,0
160,32,123183,5,8
160,32,123313,5,0
160,32,123444,1,0
160,32,123574,1,0
160,32,123639,1,0
160,32,123705,5,8
160,32,123835,5,0
160,32,123966,1,0
160,32,124096,5,8
160,32,124226,1,8
160,32,124292,5,0
160,32,124357,1,0
160,32,124487,5,8
160,32,124618,1,8
160,32,124684,5,0
160,32,124749,1,0
160,32,124879,5,8
160,32,125009,1,8
160,32,125075,5,0
160,32,125140,1,0
160,32,125270,5,8
160,32,125400,5,0
160,32,125531,5,8
160,32,125661,5,0
160,32,125792,1,0
160,32,125922,1,0
160,32,126053,5,8
160,32,126183,5,0
160,32,126313,1,4
160,32,126443,5,8
160,32,126704,5,0
160,32,126834,5,8
160,32,127095,5,0
160,32,127226,5,8
160,32,127486,5,0
160,32,127617,5,8
160,32,127747,1,8
160,32,127878,5,0
160,32,127943,1,0
160,32,128008,5,8
160,32,128139,1,8
160,32,128269,5,0
160,32,128399,5,12
160,32,128530,5,0
160,32,128791,5,8
160,32,128921,5,4
160,32,129052,5,8
160,32,129182,1,12
160,32,129312,5,0
160,32,129573,5,8
160,32,129705,5,0
160,32,129834,1,0
160,32,129965,5,8
160,32,130030,1,8
160,32,130095,1,8
160,32,130226,5,0
160,32,130356,5,8
160,32,130486,1,12
160,32,130617,5,0
160,32,130878,1,0
160,32,131008,5,8
160,32,131269,5,0
160,32,131399,1,0
160,32,131530,5,8
160,32,131660,5,0
160,32,131791,1,0
160,32,131921,1,0
160,32,131986,1,0
160,32,132052,5,8
160,32,132182,5,0
160,32,132313,1,0
160,32,132443,5,8
160,32,132573,5,0
160,32,132639,1,0
160,32,132704,5,8
160,32,132834,1,8
160,32,132965,5,0
160,32,133031,1,0
160,32,133096,5,8
160,32,133226,1,8
160,32,133356,5,0
160,32,133422,1,0
160,32,133487,5,8
160,32,133617,1,8
160,32,133747,5,0
160,32,133878,5,8
160,32,134008,5,0
160,32,134139,5,8
160,32,134205,5,0
160,32,134269,5,8
160,32,134400,1,8
160,32,134531,1,8
160,32,134661,6,0,B|160:288|160:288|352:288,1,420
384,288,135705,1,0
160,32,135966,5,8
160,32,136226,5,0
160,32,136357,1,0
160,32,136487,5,8
160,32,136748,5,0
160,32,136879,1,0
160,32,137009,5,8
160,32,137139,5,0
160,32,137270,1,0
160,32,137400,1,0
160,32,137531,5,8
160,32,137661,1,8
160,32,137792,5,0
160,32,138052,5,8
160,32,138183,5,0
160,32,138444,1,0
160,32,138509,1,0
160,32,138574,5,8
160,32,138835,5,4
160,32,138966,1,0
160,32,139096,5,8
160,32,139357,5,0
160,32,139487,1,0
160,32,139618,5,8
160,32,139879,5,0
160,32,140009,5,8
160,32,140139,1,8
160,32,140270,5,0
160,32,140400,1,0
160,32,140531,1,0
160,32,140661,5,8
160,32,140922,5,0
160,32,141052,1,0
160,32,141118,1,0
160,32,141183,5,8
160,32,141313,5,0
160,32,141574,1,0
160,32,141705,5,8
160,32,141966,1,8
160,32,142096,5,0
160,32,142226,5,8
160,32,142357,5,0
160,32,142487,1,0
160,32,142618,5,8
160,32,142748,1,8
160,32,142879,5,0
160,32,143009,1,4
160,32,143139,5,8
160,32,143270,1,8
160,32,143400,5,0
160,32,143661,1,0
160,32,143792,5,8
160,32,144052,5,0
160,32,144183,1,0
160,32,144313,5,8
160,32,144444,5,0
160,32,144705,1,0
160,32,144835,5,8
160,32,145096,1,8
160,32,145226,5,0
160,32,145357,1,0
160,32,145487,5,8
160,32,145748,5,0
160,32,145879,1,0
160,32,146139,1,0
160,32,146270,2,0,B|384:32,1,210
384,32,146792,1,0
384,32,146922,5,8
384,32,147183,1,8
384,32,147270,5,0
384,32,147357,1,0
384,32,147444,1,0
384,32,147531,1,0
384,32,147618,1,0
384,32,147705,5,8
384,32,147792,5,0
384,32,147879,1,0
384,32,147966,1,0
384,32,148052,1,0
384,32,148139,1,0
384,32,148226,5,8
256,192,148357,12,0,149009
160,32,149270,5,8
160,32,150835,5,8
160,32,151357,1,8
160,32,152661,1,8
160,32,153183,1,8
160,32,153444,1,8
160,32,154226,1,8
160,32,154487,1,8
160,32,155270,1,8
160,32,155531,1,8
160,32,156313,1,8
160,32,156574,1,8
160,32,157096,1,8
160,32,157357,1,8
160,32,157618,5,0
160,32,158661,1,0
160,32,159444,5,8
160,32,159705,5,0
160,32,160096,5,8
160,32,160487,5,0
160,32,160748,1,0
160,32,161270,5,8
160,32,161792,5,4
160,32,162052,1,0
160,32,162118,1,0
160,32,162183,1,0
160,32,162248,1,0
160,32,162313,5,8
160,32,162444,5,4
160,32,162705,1,4
160,32,162966,1,0
160,32,163031,1,0
160,32,163096,5,8
160,32,163226,5,0
160,32,163292,1,0
160,32,163357,5,8
160,32,163422,5,0
160,32,163487,1,0
160,32,163552,1,0
160,32,163618,1,0
160,32,163683,1,0
160,32,163748,5,8
160,32,163879,5,4
160,32,164270,1,4
160,32,164531,5,12
160,32,164661,1,8
160,32,164792,5,4
160,32,165183,1,0
160,32,165444,5,8
160,32,165705,1,8
160,32,165966,5,4
160,32,166096,1,0
160,32,166226,5,8
160,32,166357,5,0
160,32,166487,1,0
160,32,166618,1,0
160,32,166683,1,0
160,32,166749,5,8
160,32,166879,5,0
160,32,167009,1,0
160,32,167139,1,0
160,32,167270,5,8
160,32,167400,1,8
160,32,167465,1,8
160,32,167530,5,0
160,32,167661,5,8
160,32,167792,1,8
160,32,167922,5,0
160,32,168052,1,0
160,32,168182,1,0
160,32,168312,5,8
160,32,168443,5,0
160,32,168573,1,0
160,32,168704,1,0
160,32,168769,1,0
160,32,168835,5,8
160,32,168965,5,0
160,32,169095,1,0
160,32,169225,5,8
160,32,169357,1,8
160,32,169487,5,0
160,32,169618,5,8
160,32,169683,1,8
160,32,169747,5,8
160,32,169878,1,0
160,32,170008,5,8
160,32,170139,5,0
160,32,170205,1,0
160,32,170270,1,0
160,32,170400,5,8
160,32,170531,5,0
160,32,170661,1,0
160,32,170727,1,0
160,32,170792,1,0
160,32,170922,5,8
160,32,171053,5,0
160,32,171183,1,0
160,32,171248,1,0
160,32,171313,5,8
160,32,171444,1,8
160,32,171574,5,0
160,32,171639,1,0
160,32,171704,5,8
160,32,171835,1,8
160,32,171965,5,0
160,32,172096,5,8
160,32,172226,5,4
160,32,172487,5,8
160,32,172618,5,4
160,32,172879,5,8
160,32,173009,5,4
160,32,173270,1,0
160,32,173400,1,0
160,32,173531,1,0
160,32,173661,1,0
160,32,173792,1,0
160,32,173857,1,0
160,32,173922,1,0
160,32,174052,5,8
160,32,174183,1,8
160,32,174313,5,0
160,32,174379,1,0
160,32,174444,1,0
160,32,174574,5,8
160,32,174705,5,0
160,32,174835,1,0
160,32,174901,1,0
160,32,174966,1,0
160,32,175096,5,8
160,32,175227,5,0
160,32,175357,1,0
160,32,175422,1,0
160,32,175487,5,8
160,32,175618,1,8
160,32,175748,5,0
160,32,175813,1,0
160,32,175878,5,8
160,32,176009,1,8
160,32,176139,5,0
160,32,176270,5,8
160,32,176400,5,4
160,32,176661,5,8
160,32,176792,5,4
160,32,177053,5,8
160,32,177183,5,0
160,32,177313,1,4
160,32,177574,1,0
160,32,177639,1,0
160,32,177705,5,8
160,32,177835,5,0
160,32,177900,1,0
160,32,177966,5,8
160,32,178096,5,0
160,32,178226,5,8
160,32,178292,1,8
160,32,178357,1,8
160,32,178422,1,8
160,32,178487,5,0
160,32,178618,1,0
160,32,178748,5,8
160,32,178879,5,0
160,32,179009,1,0
160,32,179074,1,0
160,32,179139,5,8
160,32,179270,1,8
160,32,179400,5,0
160,32,179531,5,8
160,32,179661,1,8
160,32,179726,1,8
160,32,179792,5,0
160,32,179922,1,8
160,32,180052,1,0
160,32,180118,1,0
160,32,180183,1,0
160,32,180313,5,8
160,32,180444,1,8
160,32,180574,5,0
160,32,180639,1,0
160,32,180705,1,0
160,32,180770,1,0
160,32,180835,5,8
160,32,180966,5,0
160,32,181031,1,0
160,32,181097,1,0
160,32,181162,1,0
160,32,181227,5,8
160,32,181357,5,0
160,32,181487,5,8
160,32,181618,5,0
160,32,181748,5,8
160,32,181813,5,0
160,32,181879,1,0
160,32,182009,1,0
160,32,182139,1,0
160,32,182205,1,0
160,32,182270,1,0
160,32,182335,1,0
160,32,182400,5,8
160,32,182466,1,8
160,32,182531,1,8
160,32,182596,1,8
160,32,182661,5,0
160,32,182922,5,8
160,32,183052,5,0
160,32,183183,1,0
160,32,183248,1,0
160,32,183313,1,0
160,32,183444,5,8
160,32,183574,5,0
160,32,183705,1,0
160,32,183966,5,8
160,32,184096,5,0
160,32,184226,1,0
160,32,184487,5,8
160,32,184618,1,8
160,32,184748,5,0
160,32,184879,1,0
160,32,185009,5,8
160,32,185139,5,0
160,32,185270,1,0
160,32,185335,1,0
160,32,185400,1,0
160,32,185531,5,8
160,32,185661,1,8
160,32,185792,5,0
160,32,186052,5,8
160,32,186183,5,0
160,32,186444,1,0
160,32,186574,5,8
160,32,186705,5,0
160,32,186835,1,0
160,32,186966,1,0
160,32,187096,5,8
160,32,187226,5,8
160,32,187357,1,0
160,32,187422,1,0
160,32,187487,1,0
160,32,187618,5,8
160,32,187748,1,8
160,32,187879,5,0
160,32,188139,5,8
160,32,188270,5,0
160,32,188400,1,0
160,32,188531,1,0
160,32,188661,5,8
160,32,188792,5,0
160,32,188922,1,0
160,32,189183,5,8
160,32,189313,5,0
160,32,189444,1,0
160,32,189509,1,0
160,32,189574,1,0
160,32,189705,5,8
160,32,189835,1,8
160,32,189966,5,0
160,32,190031,1,0
160,32,190096,1,0
160,32,190226,5,8
160,32,190292,1,8
160,32,190357,1,8
160,32,190487,5,0
160,32,190552,1,0
160,32,190617,1,0
160,32,190747,5,8
160,32,190813,1,8
160,32,190878,1,8
160,32,191009,5,0
160,32,191270,5,8
160,32,191400,1,8
160,32,191531,5,0
160,32,191596,1,0
160,32,191661,1,0
160,32,191792,5,8
160,32,191922,1,8
160,32,192052,5,0
160,32,192313,5,8
160,32,192444,5,0
160,32,192574,1,0
160,32,192835,5,8
160,32,192966,1,8
160,32,193096,5,0
160,32,193226,1,0
160,32,193357,5,8
160,32,193422,1,8
160,32,193487,1,8
160,32,193618,5,0
160,32,193683,1,0
160,32,193748,1,0
160,32,193879,5,8
160,32,194009,1,8
160,32,194139,5,0
160,32,194400,5,8
160,32,194531,5,0
160,32,194792,1,0
160,32,194922,5,8
160,32,195183,5,0
160,32,195313,1,0
160,32,195444,5,8
160,32,195574,5,0
160,32,195705,1,0
160,32,195770,1,0
160,32,195835,5,8
160,32,195966,1,8
160,32,196096,5,0
160,32,196226,1,0
160,32,196487,5,8
160,32,196618,5,0
160,32,196683,1,0
160,32,196748,1,0
160,32,196879,1,0
160,32,197009,5,8
160,32,197139,5,0
160,32,197270,1,0
160,32,197531,5,8
160,32,197661,5,0
160,32,197792,1,0
160,32,197857,1,0
160,32,197922,5,8
160,32,198052,1,8
160,32,198183,5,0
160,32,198313,1,0
160,32,198444,1,0
160,32,198574,5,8
160,32,198639,5,0
160,32,198705,1,0
160,32,198770,1,0
160,32,198835,1,0
160,32,198900,1,0
160,32,198966,1,0
160,32,199031,1,0
160,32,199096,5,8
160,32,199357,5,4
160,32,199487,5,8
160,32,199618,1,8
160,32,199748,5,0
160,32,199878,5,8
160,32,200009,1,8
160,32,200139,5,0
160,32,200269,5,12
160,32,200400,5,0
160,32,200531,1,0
160,32,200661,5,8
160,32,200792,5,0
160,32,200922,5,8
160,32,200987,5,0
160,32,201052,1,0
160,32,201183,1,0
160,32,201313,1,0
160,32,201444,5,12
160,32,201574,5,0
160,32,201639,1,0
160,32,201705,5,8
160,32,201835,5,0
160,32,201966,5,8
160,32,202096,5,0
160,32,202161,1,0
160,32,202227,5,8
160,32,202357,1,8
160,32,202487,5,0
160,32,202618,1,0
160,32,202683,1,0
160,32,202748,5,8
160,32,202879,5,0
160,32,203009,5,8
160,32,203074,1,8
160,32,203139,5,0
160,32,203270,1,0
160,32,203400,5,8
160,32,203531,5,4
160,32,203661,1,0
160,32,203726,1,0
160,32,203792,5,8
160,32,203922,5,0
160,32,204052,1,0
160,32,204118,1,0
160,32,204183,1,0
160,32,204313,5,8
160,32,204444,5,0
160,32,204574,5,12
160,32,204705,5,0
160,32,204770,1,0
160,32,204835,1,0
160,32,204966,5,8
160,32,205096,5,0
160,32,205161,1,0
160,32,205226,5,8
160,32,205357,1,8
160,32,205487,5,0
160,32,205618,1,4
160,32,205879,5,12
160,32,206009,5,4
160,32,206270,5,12
160,32,206400,5,4
160,32,206531,5,12
160,32,206661,5,0
160,32,206726,1,0
160,32,206792,1,0
160,32,206922,1,0
160,32,207052,1,0
160,32,207183,5,8
160,32,207313,5,0
160,32,207444,5,8
160,32,207574,1,8
160,32,207705,5,4
160,32,207835,1,0
160,32,207900,1,0
160,32,207966,5,8
160,32,208096,5,0
160,32,208226,1,0
160,32,208292,1,0
160,32,208357,1,0
160,32,208487,5,8
160,32,208618,5,0
160,32,208748,5,12
160,32,208879,5,0
160,32,208944,1,0
160,32,209009,1,0
160,32,209140,5,8
160,32,209270,5,0
160,32,209335,1,0
160,32,209400,5,8
160,32,209531,1,8
160,32,209661,5,0
160,32,209792,5,12
160,32,209922,1,8
160,32,209987,5,0
160,32,210052,1,0
160,32,210183,5,8
160,32,210313,1,8
160,32,210378,5,0
160,32,210443,1,0
160,32,210574,1,0
160,32,210705,5,8
160,32,210835,5,4
160,32,210966,1,0
160,32,211031,1,0
160,32,211096,1,0
160,32,211226,5,8
160,32,211292,1,8
160,32,211357,1,8
160,32,211487,5,0
160,32,211618,5,8
160,32,211748,5,0
160,32,211879,5,12
160,32,212009,5,0
160,32,212074,1,0
160,32,212139,5,8
160,32,212270,5,0
160,32,212400,1,0
160,32,212465,1,0
160,32,212530,5,8
160,32,212661,1,8
160,32,212792,5,0
160,32,212922,1,4
160,32,213052,5,8
160,32,213118,1,8
160,32,213183,5,0
160,32,213313,5,8
160,32,213444,5,0
160,32,213509,1,0
160,32,213574,5,8
160,32,213705,5,0
160,32,213835,1,0
160,32,213966,5,12
160,32,214096,5,0
160,32,214226,1,0
160,32,214357,5,8
160,32,214618,5,0
160,32,214748,5,8
160,32,214879,5,0
160,32,215009,1,0
160,32,215096,1,0
160,32,215183,1,0
160,32,215270,5,8
160,32,215531,1,8
160,32,215661,1,8
160,32,215792,1,8
160,32,216052,5,4
160,32,216183,5,8
160,32,216313,1,8
160,32,216444,5,0
160,32,216574,5,8
160,32,216705,5,0
160,32,216770,1,0
160,32,216835,5,8
160,32,216966,1,8
160,32,217096,5,0
160,32,217226,1,0
160,32,217292,1,0
160,32,217357,5,8
160,32,217487,5,0
160,32,217552,1,0
160,32,217618,1,0
160,32,217748,1,0
160,32,217813,1,0
160,32,217879,5,8
160,32,218009,1,8
160,32,218139,5,4
160,32,218270,5,8
160,32,218335,1,8
160,32,218400,5,0
160,32,218531,1,0
160,32,218596,1,0
160,32,218661,5,8
160,32,218792,1,8
160,32,218922,5,0
160,32,218987,1,0
160,32,219052,5,8
160,32,219183,5,0
160,32,219313,1,0
160,32,219444,5,8
160,32,219574,5,0
160,32,219705,5,8
160,32,219835,1,8
160,32,219900,1,8
160,32,219966,1,8
160,32,220096,1,8
160,32,220226,5,4
160,32,220357,5,8
160,32,220422,1,8
160,32,220487,5,0
160,32,220618,1,0
160,32,220748,5,8
160,32,220813,1,8
160,32,220878,5,0
160,32,221009,1,0
160,32,221139,5,8
160,32,221270,1,12
160,32,221400,5,0
160,32,221466,1,0
160,32,221531,5,8
160,32,221661,1,8
160,32,221792,5,0
160,32,221858,1,0
160,32,221923,5,8
160,32,222052,5,0
160,32,222183,5,8
160,32,222313,5,4
160,32,222574,5,12
160,32,222705,5,4
160,32,222966,5,12
160,32,223096,5,4
160,32,223226,5,12
160,32,223357,5,0
160,32,223487,1,0
160,32,223552,1,0
160,32,223618,1,0
160,32,223748,1,0
160,32,223879,5,8
160,32,224009,5,0
160,32,224139,5,8
160,32,224270,5,0
160,32,224400,1,4
160,32,224531,1,0
160,32,224596,1,0
160,32,224661,5,8
160,32,224792,5,0
160,32,224922,5,8
160,32,224987,1,8
160,32,225052,5,0
160,32,225183,1,0
160,32,225313,5,8
160,32,225444,5,4
160,32,225574,1,0
160,32,225639,1,0
160,32,225705,5,8
160,32,225835,5,0
160,32,225966,1,0
160,32,226031,1,0
160,32,226096,5,8
160,32,226161,5,0
160,32,226226,5,8
160,32,226357,5,0
160,32,226487,5,12
160,32,226618,5,0
160,32,226748,5,12
160,32,226879,5,4
160,32,227139,1,4
160,32,227400,1,4
160,32,227661,1,0
160,32,227726,1,0
160,32,227792,5,8
160,32,227922,5,0
160,32,228052,5,8
160,32,228118,1,8
160,32,228183,1,8
160,32,228248,1,8
160,32,228313,5,0
160,32,228379,1,0
160,32,228444,1,0
160,32,228509,1,0
160,32,228574,1,0
160,32,228705,1,0
160,32,228835,5,8
160,32,228966,5,0
160,32,229096,5,8
160,32,229161,1,8
160,32,229226,5,0
160,32,229357,5,8
160,32,229422,1,8
160,32,229487,1,8
160,32,229618,1,12
160,32,229748,5,0
160,32,229813,1,0
160,32,229879,5,8
160,32,230009,5,0
160,32,230139,5,8
160,32,230205,1,8
160,32,230270,1,8
160,32,230400,5,0
160,32,230466,1,0
160,32,230531,1,0
160,32,230661,1,4
160,32,230792,1,0
160,32,230857,1,0
160,32,230922,5,8
160,32,231052,5,0
160,32,231183,5,8
160,32,231248,5,0
160,32,231313,1,0
160,32,231444,5,8
160,32,231574,1,8
160,32,231705,5,4
160,32,231835,1,0
160,32,231900,1,0
160,32,231966,5,8
160,32,232096,1,8
160,32,232161,1,8
160,32,232226,5,0
160,32,232357,1,0
160,32,232422,1,0
160,32,232487,5,8
160,32,232618,1,8
160,32,232748,6,4,B|160:320|160:320|416:320|416:320|64:96|64:96|96:96,1,980
160,32,234835,1,0
160,32,234966,1,0
160,32,235096,5,8
160,32,235226,5,0
160,32,235357,1,0
160,32,235487,5,8
160,32,235618,5,0
160,32,235748,5,8
160,32,235879,5,4
160,32,236139,1,0
160,32,236270,1,0
160,32,236400,5,12
160,32,236661,1,8
160,32,236792,1,8
160,32,236922,5,4
160,32,237052,1,0
160,32,237183,5,8
160,32,237313,5,0
160,32,237444,1,0
160,32,237574,5,8
160,32,237705,5,0
160,32,237835,5,8
160,32,237966,5,4
160,32,238096,5,8
160,32,238226,1,8
160,32,238357,5,0
160,32,238487,5,8
160,32,238617,1,8
160,32,238748,5,0
160,32,238879,5,8
160,32,239009,5,4
160,32,239139,1,0
160,32,239270,5,8
160,32,239400,5,0
160,32,239531,1,0
160,32,239661,5,8
160,32,239792,5,0
160,32,239922,5,8
160,32,240052,1,12
160,32,240313,5,0
160,32,240444,5,8
160,32,240574,5,0
160,32,240661,1,0
160,32,240748,1,0
160,32,240835,5,8
160,32,241096,5,4
160,32,241226,1,0
160,32,241357,5,8
160,32,241487,5,0
160,32,241618,1,0
160,32,241748,5,8
160,32,241879,5,0
160,32,242009,5,8
160,32,242139,5,0
160,32,242269,1,0
160,32,242400,5,8
160,32,242530,5,0
160,32,242661,1,0
160,32,242791,5,8
160,32,242922,5,0
160,32,243052,5,8
160,32,243183,5,0
160,32,243313,1,0
160,32,243444,5,8
160,32,243574,5,0
160,32,243835,1,0
160,32,243966,5,8
160,32,244096,5,0
160,32,244226,1,4
160,32,244487,5,8
160,32,244748,5,0
160,32,244813,1,0
160,32,244879,1,0
160,32,244944,1,0
160,32,245009,5,8
160,32,245270,5,0
160,32,245400,1,0
160,32,245531,5,8
160,32,245661,5,0
160,32,245792,1,0
160,32,245922,5,8
160,32,246053,5,0
160,32,246183,5,8
160,32,246313,1,8
160,32,246443,5,0
160,32,246574,1,0
160,32,246705,5,8
160,32,246835,5,0
160,32,246966,5,8
160,32,247096,5,0
160,32,247226,5,8
160,32,247357,1,8
160,32,247487,5,0
160,32,247618,5,8
160,32,247748,1,8
160,32,247879,5,0
160,32,248009,5,8
160,32,248139,5,0
160,32,248270,5,8
160,32,248400,5,0
160,32,248466,1,0
160,32,248531,1,0
160,32,248596,1,0
160,32,248661,5,8
160,32,248726,1,8
160,32,248792,1,8
160,32,248857,1,8
160,32,248922,5,0
160,32,248988,1,0
160,32,249053,1,0
160,32,249118,1,0
160,32,249183,5,8
160,32,249444,5,4
160,32,249835,1,4
160,32,250226,5,12
160,32,250356,1,12
