osu file format v9

[General]
AudioFilename: 3p.mp3
AudioLeadIn: 0
PreviewTime: 67096
Countdown: 0
SampleSet: Normal
StackLeniency: 0.7
Mode: 0
LetterboxInBreaks: 0

[Editor]
Bookmarks: 19879,28226,36574,40748,44922,48835,52748,67879,83792,101270,109618,117966,122400,126313,130487,148487
DistanceSpacing: 1.2
BeatDivisor: 4
GridSize: 4

[Metadata]
Title:Immoral Memory~The Lost Memory~
Artist:Kamui Gakupo, KAITO, Kagamine Len
Creator:tutuhaha
Version:Insane
Source:natsuP
Tags:Vocaloid SCL Project feat. VanaN'Ice Haitoku no Kioku Megurine Luka cmn_891127 7odoa

[Difficulty]
HPDrainRate:6
CircleSize:4
OverallDifficulty:8
ApproachRate:8
SliderMultiplier:1.3
SliderTickRate:1

[Events]
//Background and Video events
0,0,"23499325.jpg"
Video,0,"3p.flv"
//Break Periods
2,134861,147737
//Storyboard Layer 0 (Background)
//Storyboard Layer 1 (Fail)
//Storyboard Layer 2 (Pass)
//Storyboard Layer 3 (Foreground)
Sprite,Foreground,Centre,"2.png",320,240 M,0,135705,,174,360 F,1,135705,138835,0,0.7 F,0,138835,147183,0.7 F,2,147183,148226,0.7,0
//Storyboard Sound Samples
//Background Colour Transformations
3,100,163,162,255

[TimingPoints]
53,260.869565217391,4,1,1,80,1,0
67879,-100,4,1,1,80,0,1
84444,-100,4,1,1,80,0,0
84574,-100,4,1,1,80,0,1
99248,-100,4,1,1,50,0,1
101270,-100,4,1,1,80,0,0
148487,-200,4,2,1,80,0,0
161792,-200,4,1,1,80,0,0
165966,-100,4,1,1,80,0,1
182661,-100,4,1,1,80,0,0
199357,-100,4,1,1,80,0,1
215922,-100,4,1,1,80,0,0
216052,-100,4,1,1,80,0,1
232748,-100,4,1,1,80,0,0

[Colours]
Combo1 : 255,255,128
Combo2 : 0,128,255
Combo3 : 198,0,0
Combo4 : 128,0,128
Combo5 : 253,211,96
SliderBorder : 255,255,255

[HitObjects]
96,80,19879,2,0,B|80:152|112:216,1,130,4|8
176,244,20270,1,0
204,316,20400,2,0,B|236:344|272:348,1,65
364,313,20661,2,0,B|344:288|308:284,1,65,8|0
256,224,20922,2,0,B|208:176|216:88,1,130,0|8
136,116,21313,2,0,B|208:104|256:32,1,130
243,48,21705,1,8
384,120,21966,6,0,B|404:148|444:156,1,65
340,226,22226,2,0,B|372:237|403:223,1,65,8|0
286,339,22487,2,0,B|356:340|408:300,1,130,0|8
260,252,23009,2,0,B|232:192|148:156,1,130,0|8
92,144,23400,2,0,B|136:48|264:36,1,195,0|8
430,126,24053,6,0,B|392:176|316:180,1,130,4|8
248,220,24444,2,0,B|316:288|432:284,1,195,0|8
392,356,24966,1,0
392,356,25096,38,0,B|316:356|256:316,1,130,0|8
200,284,25487,2,0,B|136:212|12:208,1,195,0|8
68,140,26009,1,0
128,88,26139,6,0,B|152:56|188:40,1,65,4|0
228,108,26400,2,0,B|272:100|296:68,1,65,8|0
356,48,26661,2,0,B|424:68|460:136,1,130,0|8
312,192,27183,6,0,B|284:216|268:248,1,65
320,304,27444,2,0,B|296:340|272:352,1,65,8|0
200,324,27705,2,0,B|168:272|64:248,1,130,0|8
108,100,28226,38,0,B|187:32|288:46,2,195,4|0|8
116,180,29139,1,0
188,156,29270,2,0,B|224:156|256:180,1,65
315,227,29531,2,0,B|292:248|256:252,1,65,8|0
328,152,29792,2,0,B|376:104|460:100,1,130,0|8
416,256,30313,6,0,B|360:340|240:352,1,195
112,280,30966,1,0
112,280,31096,1,8
204,156,31357,2,0,B|184:92|96:60,1,130,0|8
176,16,31748,2,0,B|272:60|304:184,1,195,0|8
376,164,32270,1,0
448,196,32400,6,0,B|432:260|360:308,1,130,4|8
296,284,32792,2,0,B|228:292|180:352,1,130
112,320,33183,1,8
60,264,33313,1,0
44,188,33444,2,0,B|120:192|184:144,1,130,0|8
168,76,33835,2,0,B|240:72|300:108,1,130
341,233,34226,2,0,B|328:200|300:184,1,65,8|0
364,136,34487,38,0,B|444:128|504:172,2,130,4|8|0
188,267,35270,2,0,B|220:264|244:236,1,65,8|0
180,188,35531,2,0,B|72:156|40:44,1,195
124,56,36052,2,0,B|160:68|176:96,1,65,0|0
263,189,36313,2,0,B|264:160|244:128,1,65,8|0
268,268,36574,6,0,B|376:248|428:152,2,195,4|8|8
124,328,37618,1,0
124,328,37748,1,8
72,180,38009,1,0
72,180,38139,2,0,B|100:120|164:88,1,130,8|8
240,108,38531,1,0
194,290,38661,6,0,B|164:228|184:164,1,130,4|0
256,196,39052,2,0,B|360:176|412:68,1,195,8|8
480,220,39705,1,0
480,220,39835,1,8
376,336,40096,1,0
376,336,40226,2,0,B|332:288|248:284,1,130,8|8
208,224,40618,1,0
226,94,40748,38,0,B|164:124|140:188,2,130,4|8|0
172,36,41400,2,0,B|136:36|104:60,1,65,0|8
56,204,41792,1,0
56,204,41922,1,8
136,340,42183,1,0
208,304,42313,2,0,B|280:300|328:236,1,130,8|8
376,300,42705,1,0
376,300,42835,6,0,B|472:252|496:144,2,195,4|8|8
320,245,43748,1,0
376,100,44009,1,8
376,100,44139,1,0
224,60,44400,2,0,B|168:32|92:48,1,130,8|8
112,124,44792,1,0
60,184,44922,6,0,B|116:232|124:308,1,130,4|0
80,360,45313,2,0,B|148:288|264:280,1,195,8|8
224,128,45966,1,0
224,128,46096,1,8
372,84,46357,1,0
448,100,46487,2,0,B|488:124|500:156,1,65,8|0
457,280,46748,2,0,B|480:260|488:224,1,65,8|0
404,224,47009,38,0,B|364:308|248:340,1,195,4|8
136,236,47661,1,0
136,236,47792,1,8
48,80,48052,1,0
48,80,48183,1,8
200,48,48444,1,0
176,124,48574,2,0,B|200:152|252:168,1,65,8|0
343,139,48835,2,0,B|324:120|288:108,1,65,8|0
224,240,49096,6,0,B|296:268|376:228,1,130,4|0
392,304,49487,2,0,B|460:280|488:200,1,130,8|0
452,144,49879,1,8
328,48,50139,1,0
328,48,50270,1,8
180,100,50531,1,0
180,100,50661,2,0,B|164:144|128:172,1,65,8|0
74,204,50922,2,0,B|64:188|68:140,1,65,8|0
24,264,51183,6,0,B|128:216|236:252,1,195,4|8
332,348,51835,1,0
332,348,51966,1,8
440,236,52226,1,0
440,236,52357,1,8
300,164,52618,1,0
300,164,52748,2,0,B|288:96|216:48,1,130,8|8
160,88,53139,1,0
164,168,53270,38,0,B|132:228|48:256,1,130,4|8
100,320,53661,2,0,B|172:332|244:288,1,130
277,179,54052,2,0,B|260:204|228:220,1,65,8|0
288,100,54313,6,0,B|392:112|464:212,2,195,0|0|8
224,56,55226,1,0
144,52,55357,2,0,B|128:120|44:168,1,130,0|8
28,220,55748,2,0,B|72:272|152:288,1,130
176,216,56139,1,8
248,184,56270,1,0
316,144,56400,1,0
366,333,56661,6,0,B|384:320|396:276,1,65,8|0
376,200,56922,2,0,B|436:164|464:80,1,130,0|8
384,72,57313,1,0
308,64,57444,2,0,B|240:72|180:32,1,130,4|8
140,100,57835,2,0,B|116:172|40:208,1,130
72,276,58226,1,8
72,276,58357,1,0
140,316,58487,2,0,B|236:320|324:228,2,195,0|0|8
140,236,59400,1,0
200,184,59531,38,0,B|256:144|256:68,1,130,4|8
328,44,59922,2,0,B|432:68|484:180,1,195,0|8
420,216,60444,1,0
344,220,60574,2,0,B|276:228|236:304,1,130,4|8
242,292,60966,1,0
100,232,61226,1,0
100,232,61357,2,0,B|64:204|48:164,1,65,8|0
64,104,61618,6,0,B|128:120|200:68,1,130,4|8
256,36,62009,2,0,B|268:104|340:140,1,130
331,135,62400,1,8
392,184,62531,1,0
456,232,62661,6,0,B|404:324|288:352,1,195
176,260,63313,1,0
176,260,63444,1,8
44,176,63705,2,0,B|68:112|152:84,1,130,0|8
196,40,64096,2,0,B|216:104|300:140,1,130
282,131,64487,1,8
304,208,64618,1,0
368,260,64748,38,0,B|384:148|488:96,2,195,0|0|8
312,316,65661,1,0
236,336,65792,2,0,B|200:280|108:256,2,130,4|8|8
170,124,66574,2,0,B|192:148|196:184,1,65,8|0
260,228,66835,2,0,B|320:220|376:144,1,130,4|8
460,32,67357,1,8
460,32,67618,1,8
468,108,67748,1,0
468,188,67879,6,0,B|452:256|392:304,1,130,4|8
324,304,68270,1,0
248,308,68400,2,0,B|180:312|128:364,1,130,0|8
96,288,68792,1,0
96,208,68922,2,0,B|64:192|44:152,1,65
72,88,69183,2,0,B|112:76|136:36,1,65,8|0
184,100,69444,2,0,B|240:136|264:204,1,130,0|8
324,252,69835,1,0
340,176,69966,6,0,B|436:140|472:32,2,195,0|0|8
324,252,70879,1,0
280,316,71009,1,0
124,336,71270,2,0,B|112:272|40:216,2,130,8|0|8
200,316,71922,1,0
180,240,72052,38,0,B|176:172|112:112,1,130,4|8
48,148,72444,2,0,B|140:128|212:32,1,195,0|8
276,80,72966,1,0
300,156,73096,2,0,B|400:168|480:256,1,195
336,328,73748,2,0,B|304:316|264:324,2,65,0|8|0
336,248,74139,6,0,B|256:244|200:184,1,130,4|8
140,216,74531,2,0,B|212:180|236:100,1,130
220,44,74922,2,0,B|248:108|328:132,2,130,8|0|8
376,60,75705,1,0
376,60,75966,1,8
404,132,76096,1,0
360,200,76226,6,0,B|320:296|208:328,2,195,4|0|8
288,176,77139,1,0
216,144,77270,2,0,B|148:128|104:60,1,130,0|8
68,136,77661,2,0,B|32:240|96:344,1,195,0|8
160,312,78183,1,0
228,276,78313,2,0,B|324:228|428:256,2,195,4|0|8
331,348,79226,2,0,B|304:336|268:344,1,65
488,340,79618,37,8
464,184,79879,1,0
352,76,80139,1,8
272,80,80270,1,0
196,68,80400,2,0,B|152:156|40:188,2,195,4|0|8
256,120,81313,1,0
220,188,81444,2,0,B|268:236|348:236,1,130,4|8
308,308,81835,2,0,B|368:220|484:204,1,195,0|8
464,128,82357,5,0
420,64,82487,1,4
308,172,82748,1,8
308,172,82879,2,0,B|292:108|204:56,2,130,0|0|0
236,200,83531,2,0,B|216:172|168:164,1,65
76,185,83792,2,0,B|96:212|128:224,1,65,8|0
188,272,84052,1,0
188,272,84313,5,8
256,312,84444,1,0
332,328,84574,2,0,B|400:320|448:264,1,130,4|8
496,208,84966,2,0,B|404:164|360:64,1,195,0|8
288,84,85487,1,0
212,64,85618,2,0,B|204:128|128:184,1,130,0|8
92,232,86009,37,0
48,296,86139,2,0,B|96:348|184:356,1,130,0|8
212,292,86531,1,0
244,220,86661,2,0,B|308:148|444:140,2,195,0|0|8
168,204,87574,1,0
100,168,87705,2,0,B|64:140|60:96,1,65
140,92,87966,2,0,B|172:72|184:32,1,65,8|0
256,56,88226,5,0
256,56,88487,1,8
304,204,88748,2,0,B|376:200|428:136,1,130,4|8
376,80,89139,2,0,B|472:128|492:248,1,195,0|8
424,276,89661,1,0
356,316,89792,2,0,B|312:272|228:272,1,130,4|8
248,348,90183,2,0,B|180:268|212:156,1,195,0|8
140,132,90705,1,0
168,60,90835,6,0,B|232:152|344:156,2,195,4|0|8
240,32,91748,1,0
320,36,91879,2,0,B|392:48|436:100,1,130,0|8
468,164,92270,1,0
392,168,92400,2,0,B|360:184|340:224,1,65
304,334,92661,2,0,B|332:324|352:292,1,65,8|0
236,300,92922,38,0,B|200:252|128:232,1,130,4|8
64,276,93313,2,0,B|120:240|140:156,1,130
40,136,93705,2,0,B|72:128|96:104,1,65,8|0
160,56,93966,2,0,B|260:92|300:196,1,195
412,370,94618,2,0,B|380:352|368:324,1,65,0|8
448,192,95009,5,4
344,44,95270,1,0
344,44,95400,1,8
196,100,95661,2,0,B|168:160|84:192,1,130,8|8
84,340,96183,1,0
84,340,96313,1,8
144,288,96444,1,0
204,240,96574,2,0,B|272:232|320:168,1,130,0|8
360,112,96966,1,0
396,44,97096,6,0,B|492:96|508:212,2,195,4|0|8
316,40,98009,1,0
240,56,98139,2,0,B|216:120|152:148,1,130,0|8
80,120,98531,2,0,B|160:168|172:288,1,195,0|8
244,316,99053,1,0
320,340,99183,1,4
256,192,99248,12,8,101009
256,192,101270,37,4
200,340,101531,1,8
156,276,101661,1,0
100,216,101792,2,0,B|68:192|56:156,1,65
108,108,102053,2,0,B|120:72|168:56,1,65,8|0
228,52,102313,2,0,B|336:72|388:168,2,195,0|0|8
208,128,103226,1,0
256,192,103357,6,0,B|312:220|336:296,1,130,0|8
280,348,103748,2,0,B|336:268|456:256,1,195,0|8
468,184,104270,1,0
436,112,104400,2,0,B|368:96|332:28,1,130,0|8
260,48,104792,2,0,B|192:60|148:128,1,130
124,192,105183,1,8
124,192,105313,1,0
164,335,105444,6,0,B|140:276|72:248,2,130,4|8|0
240,312,106096,1,0
312,284,106226,1,8
348,212,106357,1,0
420,192,106487,2,0,B|456:132|448:56,1,130,0|8
380,32,106879,2,0,B|340:88|260:104,1,130
216,152,107270,2,0,B|176:136|156:92,1,65,8|0
103,210,107531,38,0,B|72:148|92:84,2,130,4|8|0
152,272,108183,1,0
220,308,108313,1,8
296,324,108444,1,0
288,248,108574,2,0,B|348:168|468:160,1,195
440,84,109096,2,0,B|400:80|368:104,1,65
243,98,109357,2,0,B|264:116|304:120,1,65,8|0
192,40,109618,6,0,B|88:48|24:144,2,195,4|0|8
168,116,110531,1,0
112,172,110661,2,0,B|164:220|248:208,1,130,0|8
192,276,111053,2,0,B|240:180|352:156,1,195,0|8
388,96,111574,1,0
440,152,111705,6,0,B|460:184|492:200,1,65,0|0
488,276,111966,2,0,B|460:308|424:316,1,65,8|0
376,364,112226,2,0,B|332:312|248:320,1,130,0|8
188,352,112618,1,0
128,304,112748,2,0,B|64:280|32:188,1,130,0|8
41,211,113139,1,0
96,64,113400,1,0
168,92,113531,2,0,B|184:64|220:54,1,65,8|0
180,172,113792,38,0,B|228:260|348:292,2,195,4|0|8
256,156,114705,1,0
332,140,114835,2,0,B|404:116|436:48,1,130,0|8
472,128,115226,2,0,B|524:212|492:328,1,195,0|8
424,288,115748,1,0
348,264,115879,6,0,B|280:276|232:344,2,130,4|8|0
228,164,116661,1,8
228,164,116792,1,0
208,88,116922,2,0,B|160:44|64:48,1,130,0|8
88,128,117313,1,0
108,204,117444,2,0,B|116:248|148:272,1,65,0|0
212,240,117705,2,0,B|240:264|252:296,1,65,8|0
422,320,117966,6,0,B|372:360|300:352,1,130,4|0
320,276,118357,2,0,B|356:216|356:132,1,130,8|0
355,152,118748,1,8
236,52,119009,1,0
236,52,119139,2,0,B|168:60|112:116,1,130,8|0
48,84,119531,2,0,B|112:120|128:208,1,130,8|8
140,260,119922,1,0
176,332,120053,38,0,B|276:324|360:240,2,195,4|8|8
248,192,121096,1,0
248,192,121226,1,8
192,44,121487,1,0
192,44,121618,2,0,B|224:80|256:88,1,65,8|0
373,122,121879,2,0,B|360:100|320:88,1,65,8|0
332,188,122139,6,0,B|388:272|504:292,2,195,4|8|8
272,240,123053,1,0
220,300,123183,1,0
220,300,123313,1,8
80,232,123574,1,0
80,232,123705,2,0,B|144:208|176:144,1,130,8|8
184,68,124096,1,0
260,60,124226,6,0,B|328:72|384:128,1,130,4|0
336,188,124618,2,0,B|388:132|472:132,1,130,8|0
450,132,125009,1,8
400,280,125270,1,0
248,308,125531,1,8
96,268,125792,2,0,B|80:224|44:212,1,65,8|0
136,113,126053,2,0,B|108:116|80:144,1,65,8|0
180,48,126313,38,0,B|228:140|336:176,1,195,4|8
444,68,126966,1,0
444,68,127096,1,8
428,224,127357,2,0,B|400:288|320:320,1,130,0|8
260,332,127748,1,0
184,348,127879,2,0,B|164:280|92:248,1,130,0|8
112,96,128400,6,0,B|160:192|272:220,1,195,4|8
344,84,129053,1,0
344,84,129183,1,8
412,120,129313,1,0
472,172,129444,2,0,B|464:208|440:232,1,65,0|8
352,270,129705,2,0,B|352:236|368:208,1,65,0|0
284,312,129966,2,0,B|232:356|152:352,1,130,8|8
104,304,130357,1,0
116,228,130487,6,0,B|108:124|16:60,2,195,4|8|8
224,112,131531,1,0
224,112,131661,1,8
256,264,131922,1,0
256,264,132053,1,8
404,312,132313,1,8
456,164,132574,38,0,B|444:96|368:44,1,130,4|0
311,248,132966,2,0,B|355:196|348:128,1,130,8|0
156,197,133357,2,0,B|224:197|272:148,2,130,8|0|8
256,304,134139,1,8
400,244,134400,37,8
456,188,134531,1,0
484,116,134661,1,4
140,60,148487,21,0
140,60,148748,1,0
140,60,149009,1,0
84,112,149270,2,0,B|40:140|28:192,1,97.5,4|0
88,292,150053,1,8
88,292,150313,2,0,B|172:288|212:240,1,130
252,180,151096,1,8
300,116,151357,6,0,B|404:136|464:232,1,195,2|8
400,272,152400,2,0,B|356:332,1,65,0|8
284,316,152922,2,0,B|220:348,1,65,0|8
148,328,153444,6,0,B|136:284|84:252,2,97.5,0|0|8
204,272,154487,2,0,B|212:192|160:140,1,130
148,76,155270,1,8
224,64,155531,2,0,B|288:144|408:148,1,195,0|8
396,224,156574,1,0
372,300,156835,38,0,B|336:356,2,65,8|0|8
296,292,157618,2,0,B|240:208|124:184,1,195,0|8
64,156,158661,2,0,B|72:104|120:64,1,97.5
228,60,159444,1,8
228,60,159705,2,0,B|280:144|404:156,1,195,0|8
392,232,160748,2,0,B|368:300|292:328,1,130
232,288,161531,1,8
160,320,161792,6,0,B|136:276|84:252,1,97.5,4|0
72,140,162574,1,0
72,140,162705,1,0
72,140,162835,2,0,B|128:144|164:108,1,97.5
256,40,163618,1,0
256,192,163879,12,0,165444
256,276,165705,5,0
44,196,165966,2,0,B|60:128|120:80,1,130,4|8
188,80,166357,1,0
264,76,166487,2,0,B|332:72|384:20,1,130,0|8
400,100,166879,1,0
416,176,167009,2,0,B|448:192|468:232,1,65
440,296,167270,2,0,B|400:308|376:348,1,65,8|0
328,284,167531,2,0,B|272:248|248:180,1,130,0|8
188,132,167922,1,0
172,208,168053,38,0,B|76:244|40:352,2,195,0|0|8
188,132,168966,1,0
232,68,169096,1,0
388,48,169357,2,0,B|400:120|472:168,2,130,0|0|8
312,68,170009,1,0
332,144,170139,6,0,B|336:212|400:272,1,130,4|8
464,236,170531,2,0,B|372:256|300:352,1,195,0|8
236,304,171053,1,0
212,228,171183,2,0,B|112:216|32:128,1,195,4|0
176,56,171835,2,0,B|208:68|248:60,2,65,0|8|0
176,136,172226,6,0,B|256:140|312:200,1,130,4|8
372,168,172618,2,0,B|300:204|276:284,1,130
292,340,173009,2,0,B|264:276|184:252,2,130,8|0|8
136,332,173792,1,0
136,332,174053,1,8
120,256,174183,1,0
152,184,174313,38,0,B|192:88|304:56,2,195,4|0|8
224,208,175226,1,0
296,240,175357,2,0,B|364:256|408:324,1,130,0|8
444,248,175748,2,0,B|480:144|416:40,1,195,0|8
352,72,176270,1,0
284,108,176400,2,0,B|188:156|84:128,1,195,4|8
236,200,177053,2,0,B|312:228|340:280,1,130,8|8
24,44,177705,5,8
48,200,177966,1,0
160,308,178226,1,8
236,328,178357,1,0
316,316,178487,2,0,B|360:228|472:196,2,195,4|0|8
256,264,179400,1,0
292,196,179531,2,0,B|244:148|164:148,1,130,4|8
204,76,179922,2,0,B|144:164|28:180,1,195,0|8
48,256,180444,1,0
48,256,180574,1,4
256,192,180639,12,8,182400
256,128,182661,22,0,B|300:68|388:56,1,130,4|8
428,108,183053,1,0
356,144,183183,2,0,B|300:180|276:260,1,130,0|8
232,308,183574,1,0
164,348,183705,2,0,B|124:340|104:308,1,65
124,240,183966,2,0,B|104:208|64:192,1,65,8|0
48,124,184226,2,0,B|92:64|168:52,1,130,0|8
232,188,184748,6,0,B|288:284|400:308,2,195,0|0|8
260,116,185661,1,0
316,172,185792,2,0,B|424:204|512:148,2,195,0|0|8
260,116,186705,1,0
176,104,186835,54,0,B|140:48|64:32,1,130,0|8
64,112,187226,1,0
124,164,187357,2,0,B|108:224|40:268,1,130,0|8
204,268,187879,2,0,B|272:288|312:344,1,130,0|8
388,332,188270,1,0
344,268,188400,2,0,B|380:208|456:192,1,130,0|8
292,168,188922,6,0,B|264:96|180:68,1,130,0|8
128,56,189313,1,0
144,132,189444,2,0,B|132:168|96:192,1,65
32,204,189705,2,0,B|40:248|68:272,1,65,8|0
136,264,189966,2,0,B|208:284|248:352,1,130,0|8
388,292,190487,1,0
388,292,190618,1,0
388,292,190748,1,8
308,156,191009,54,0,B|268:64|136:32,1,195,4|0
156,116,191531,2,0,B|112:168|36:184,1,130,0|8
96,244,191922,1,0
176,268,192053,2,0,B|240:296|272:368,1,130,0|8
344,356,192444,1,0
388,292,192574,2,0,B|448:256|464:188,1,130,0|8
308,196,193096,2,0,B|272:104|144:56,2,195,0|0|8
256,256,194009,1,0
212,192,194139,2,0,B|112:208|52:320,2,195,0|0|8
300,324,195183,6,0,B|364:356|448:336,1,130,0|8
472,276,195574,1,0
396,268,195705,2,0,B|340:236|328:160,1,130,0|8
252,156,196096,1,0
172,156,196226,2,0,B|152:116|116:92,1,65
92,172,196487,2,0,B|72:208|44:220,1,65,8|0
100,276,196748,2,0,B|144:336|224:348,1,130,0|8
256,196,197270,53,0
256,196,197531,1,8
256,196,197792,1,0
360,80,198053,2,0,B|404:88|432:120,1,65,8|0
452,176,198313,1,0
428,252,198444,1,0
376,312,198574,21,8
300,336,198705,1,0
300,336,198835,2,0,B|248:276|168:272,1,130,0|8
120,240,199226,1,0
64,184,199357,6,0,B|80:116|160:68,1,130,4|8
139,81,199748,1,0
288,132,200009,1,0
288,132,200139,2,0,B|328:200|420:212,2,130,8|0|8
208,128,200792,1,0
216,204,200922,2,0,B|192:304|80:348,1,195
92,264,201444,6,0,B|76:200|16:160,1,130,4|8
36,84,201835,2,0,B|80:88|112:116,1,65
226,48,202096,2,0,B|196:48|164:64,2,65,0|8|0
208,128,202487,2,0,B|280:120|344:168,1,130,0|8
408,172,202879,1,0
472,224,203009,2,0,B|456:288|384:328,1,130,0|8
316,324,203400,1,0
240,340,203531,38,0,B|200:248|76:212,1,195,4|0
233,51,204183,2,0,B|204:60|180:88,1,65,0|8
152,160,204444,1,0
152,160,204574,2,0,B|260:180|324:272,1,195,0|0
448,82,205226,2,0,B|440:112|408:132,1,65,0|8
376,204,205487,1,0
416,272,205618,6,0,B|392:340|320:356,1,130,4|8
244,352,206009,2,0,B|212:288|128:264,1,130
68,256,206400,2,0,B|16:212|20:120,2,130,8|0|8
108,188,207053,1,0
144,120,207183,1,0
144,120,207444,6,0,B|164:156|208:168,1,65,8|0
224,232,207705,2,0,B|296:232|352:168,1,130,4|8
296,116,208096,2,0,B|400:152|436:280,1,195,0|8
364,300,208618,1,0
288,304,208748,2,0,B|232:348|144:324,1,130,0|8
100,376,209139,2,0,B|192:316|192:200,1,195,0|8
152,144,209661,1,0
88,100,209792,38,0,B|132:48|212:32,1,130,0|0
276,56,210183,2,0,B|308:160|416:200,1,195,0|8
460,248,210705,1,0
388,272,210835,2,0,B|360:336|284:356,1,130,0|8
228,308,211226,1,0
168,256,211357,2,0,B|92:256|44:312,2,130,0|8|4
192,100,212139,5,8
192,100,212270,2,0,B|256:112|312:168,1,130
300,240,212661,2,0,B|328:168|416:152,1,130,8|0
384,312,213183,1,8
384,312,213313,2,0,B|300:372|192:344,1,195,0|8
144,292,213835,1,0
96,228,213966,1,4
140,80,214226,1,8
140,80,214357,2,0,B|212:104|248:156,2,130
144,160,215009,6,0,B|172:192|176:228,1,65,0|0
220,279,215270,2,0,B|252:260|260:230,1,65,8|0
280,332,215531,1,0
356,332,215661,1,0
432,312,215792,1,8
484,256,215922,1,0
408,236,216053,38,0,B|400:168|348:120,1,130,4|8
320,48,216444,2,0,B|272:136|160:160,1,195,0|8
92,176,216966,1,0
48,240,217096,1,0
120,272,217226,1,0
191,303,217357,2,0,B|224:320|239:347,1,65,8|0
232,236,217618,2,0,B|308:244|368:184,1,130,0|8
324,124,218009,1,0
344,44,218139,6,0,B|444:76|496:180,2,195,0|0|8
280,88,219053,1,0
224,144,219183,2,0,B|184:128|168:96,1,65
50,103,219444,2,0,B|68:80|104:68,1,65,8|0
100,164,219705,2,0,B|88:228|8:284,1,130,0|8
80,328,220096,1,0
136,272,220226,6,0,B|216:208|344:236,2,195,4|0|8
196,324,221139,1,0
272,308,221270,2,0,B|340:312|400:368,1,130,0|8
440,296,221661,2,0,B|432:192|332:132,1,195,0|8
316,64,222183,1,0
256,112,222313,38,0,B|188:108|124:156,1,130,4|8
60,116,222705,2,0,B|120:152|132:236,1,130
29,240,223096,2,0,B|56:248|80:280,1,65,8|0
156,296,223357,2,0,B|232:288|292:228,1,130,0|8
248,172,223748,1,0
240,92,223879,2,0,B|296:48|380:48,1,130,0|8
424,92,224270,1,0
352,124,224400,6,0,B|280:196|152:172,2,195,4|0|8
428,144,225313,1,0
388,216,225444,2,0,B|332:248|300:336,1,130,0|8
240,356,225835,2,0,B|200:256|72:216,1,195,0|8
60,160,226357,1,0
52,84,226487,5,4
284,40,226748,1,0
284,40,226879,1,8
416,232,227139,2,0,B|408:300|352:352,2,130,8|8|8
360,176,227792,2,0,B|316:220|228:220,1,130
184,272,228183,1,0
136,336,228313,1,8
72,288,228444,1,0
36,220,228574,38,0,B|96:184|120:116,1,130,4|8
104,44,228966,2,0,B|180:60|212:128,1,130
256,180,229357,1,8
256,180,229487,1,0
305,117,229618,2,0,B|332:60|408:44,1,130,4|8
394,122,230009,2,0,B|420:192|476:220,1,130
456,296,230400,1,8
456,296,230531,1,0
388,336,230661,6,0,B|344:288|256:276,1,130,4|8
204,316,231053,1,0
128,300,231183,2,0,B|60:268|36:196,1,130,0|8
32,132,231574,1,0
88,76,231705,6,0,B|120:52|160:48,1,65,0|0
216,88,231966,2,0,B|255:83|292:99,1,65,8|0
436,68,232226,38,0,B|432:104|408:136,1,65
440,200,232487,2,0,B|416:227|378:239,1,65,8|0
256,192,232748,5,4
256,192,233009,1,8
256,192,233270,1,0
156,312,233531,2,0,B|144:240|64:188,2,130,8|0|0
220,356,234183,1,0
280,308,234313,2,0,B|344:264|424:276,1,130,0|8
344,128,234835,6,0,B|328:88|296:68,1,65,0|0
201,86,235096,2,0,B|224:76|240:36,1,65,8|0
124,72,235357,2,0,B|112:136|44:184,1,130,0|8
76,312,235879,38,0,B|180:308|264:208,1,195
236,152,236400,2,0,B|264:220|336:244,1,130,0|8
380,296,236792,1,0
400,220,236922,2,0,B|428:156|496:128,1,130,4|8
424,84,237313,1,0
348,68,237444,1,0
348,68,237705,6,0,B|320:40|280:40,1,65,8|0
212,32,237966,2,0,B|188:96|116:120,1,130,0|8
48,148,238357,1,0
32,224,238487,2,0,B|68:236|104:220,1,65
175,244,238748,2,0,B|168:268|132:292,1,65,8|0
252,224,239009,2,0,B|332:248|364:320,2,130,0|8|0
188,80,239792,5,8
256,44,239922,1,0
332,80,240053,1,0
332,80,240313,37,8
396,124,240444,1,0
452,180,240574,1,0
452,180,240835,6,0,B|440:224|400:248,1,65,8|0
348,204,241096,2,0,B|276:224|240:296,1,130,4|8
247,281,241487,1,0
104,240,241748,1,0
104,240,241879,1,8
108,84,242139,2,0,B|164:176|288:192,1,195,0|0
368,68,242792,1,0
368,68,242922,1,8
464,192,243183,6,0,B|436:260|364:296,2,130,0|8|0
312,156,243966,2,0,B|304:128|268:104,1,65,8|0
212,56,244226,2,0,B|184:116|112:148,1,130,0|8
40,152,244618,1,0
68,224,244748,2,0,B|88:300|156:328,1,130,0|8
296,280,245270,38,0,B|344:224|424:216,1,130,4|8
368,152,245661,2,0,B|344:88|280:56,1,130,0|8
164,160,246183,1,0
164,160,246313,2,0,B|136:224|40:256,1,130,0|8
124,304,246705,2,0,B|200:312|244:364,1,130,0|8
256,204,247226,5,0
256,204,247357,1,0
376,104,247618,1,0
376,104,247748,1,8
228,52,248009,2,0,B|192:60|168:96,2,65,0|8|0
280,112,248400,6,0,B|336:152|352:232,1,130,0|8
412,264,248792,2,0,B|384:328|304:356,1,130
256,304,249183,1,8
256,304,249313,1,0
180,316,249444,37,4
412,264,249835,1,8
256,52,250226,37,8
256,52,250357,1,8
