osu file format v9

[General]
AudioFilename: Kamui Gakupo Choufuugetsu VOCALOID.mp3
AudioLeadIn: 496
PreviewTime: 71233
Countdown: 0
SampleSet: Soft
StackLeniency: 0.7
Mode: 0
LetterboxInBreaks: 1

[Editor]
DistanceSpacing: 0.8
BeatDivisor: 4
GridSize: 4

[Metadata]
Title:Choufuugetsu
Artist:Kamui Gakupo
Creator:Kei
Version:Hard
Source:No.D
Tags:vocaloid gackpoid ikari_kyon

[Difficulty]
HPDrainRate:7
CircleSize:4
OverallDifficulty:6
ApproachRate:7
SliderMultiplier:2
SliderTickRate:2

[Events]
//Background and Video events
0,0,"Background.jpg"
//Break Periods
2,19888,34961
2,89706,104779
//Storyboard Layer 0 (Background)
//Storyboard Layer 1 (Fail)
//Storyboard Layer 2 (Pass)
//Storyboard Layer 3 (Foreground)
//Storyboard Sound Samples
//Background Colour Transformations
3,100,163,162,255

[TimingPoints]
52,545.454545454546,4,2,1,90,1,0
36597,-100,4,2,1,90,0,0
72052,-100,4,2,1,90,0,1
79688,-100,4,2,1,90,0,0
80779,-100,4,2,1,90,0,1
89506,-100,4,2,1,90,0,0
157142,-133.333333333333,4,2,1,90,0,0
176233,-100,4,2,1,90,0,0
176779,-100,4,2,1,90,0,1
184415,-100,4,2,1,90,0,0
185506,-100,4,2,1,90,0,1
193142,-100,4,2,1,90,0,0
194233,-100,4,2,1,90,0,1
213870,-100,4,2,1,90,0,0

[Colours]
Combo1 : 255,255,255
Combo2 : 193,45,210
Combo3 : 170,108,206
Combo4 : 255,155,205
SliderBorder : 255,255,255

[HitObjects]
48,176,1688,2,0,B|96:120|152:176,1,100
104,232,2233,2,0,B|168:256|240:200|200:112,1,200,0|0
136,72,3052,2,0,B|176:16|240:48,1,100
304,56,3597,1,0
384,56,3870,6,0,B|451:42|476:120,1,100
392,136,4415,1,0
312,128,4688,1,0
336,208,4961,2,0,B|272:232|232:192|200:136|240:88,1,200
48,328,6052,6,0,B|72:360|96:312|136:312|144:352,1,100
216,320,6597,2,0,B|192:256|136:232|64:256|64:256|32:208,1,200
56,160,7415,1,0
136,160,7688,2,0,B|232:160|232:160|248:168|280:200|256:272,1,200
344,256,8506,5,0
424,256,8779,2,0,B|416:192|352:176,1,100
344,104,9324,1,0
304,104,9461,2,0,B|256:104|256:104|248:128|224:128|216:104|216:104|136:104,1,150
472,232,10415,6,0,B|424:208|368:232,1,100,0|0
400,304,10961,2,0,B|336:320|288:280|280:208|328:176,1,200,6|0
392,152,11779,1,0
344,88,12051,1,6
264,104,12324,1,0
200,56,12597,5,0
264,104,12870,1,0
344,88,13142,2,0,B|384:88|384:88|424:88|432:152,1,100,6|0
368,196,13688,1,0
336,220,13824,2,0,B|280:248|312:328|376:308,1,150,0|6
32,112,15051,6,0,B|8:176|80:192,1,100,0|6
112,120,15597,2,0,B|152:152|128:176,1,50
128,240,16006,1,0
152,272,16142,1,0
200,208,16415,2,0,B|272:224|264:144,1,100,6|0
304,156,16824,2,0,B|320:108|360:108|400:108|416:156,1,150
384,40,17506,5,6
304,40,17779,1,2
264,40,17915,1,2
184,40,18188,1,2
144,40,18324,1,2
144,256,18597,5,4
368,256,19006,1,4
256,116,19415,1,4
256,116,19688,5,4
72,80,36597,53,2
84,120,36733,1,0
116,148,36870,1,0
156,160,37006,1,0
196,156,37142,1,4
256,304,37688,1,2
356,200,37961,6,0,B|392:188|408:200,2,50,0|0|2
456,256,38506,2,0,B|500:228|484:164,1,100,0|2
456,255,39052,2,0,B|464:320|400:328,1,100,0|2
376,252,39597,1,0
300,232,39870,1,2
260,232,40006,2,0,B|240:320|156:324,1,150,0|2
272,32,40961,6,0,B|272:104|192:80,1,100,2|0
152,32,41506,2,0,B|104:80|128:152|200:184|240:144,1,200,2|2
232,232,42324,2,0,B|184:252|136:224,1,100,0|2
76,164,42870,2,0,B|36:116|52:68,2,100,0|2|0
140,216,43688,2,0,B|176:256|232:232,1,100,2|0
264,308,44233,1,2
304,296,44370,1,0
396,216,44779,1,2
80,328,45324,6,0,B|48:320|64:272,1,50,2|0
96,280,45597,2,0,B|112:240|72:224,1,50,2|0
48,232,45870,2,0,B|16:216|8:168|32:120|88:96|136:128,1,200,6|2
208,112,46688,6,0,B|232:184|136:208,1,100,0|2
240,236,47233,2,0,B|216:283|240:332,1,100,0|2
304,284,47779,1,0
372,328,48052,2,0,B|395:279|372:231,1,100,2|0
304,188,48597,1,2
304,228,48733,1,0
304,108,49142,1,2
96,64,49688,6,0,B|112:32|128:64|144:80|160:64|176:32|192:72,1,100,2|0
156,132,50233,2,0,B|36:164|324:204|12:260|180:292,1,200,6|2
232,264,51052,2,0,B|264:216|232:168,1,100,0|6
312,172,51597,2,0,B|344:220|312:268,1,100,0|6
392,268,52142,2,0,B|424:220|392:172,2,100,0|6|0
472,268,52961,1,6
472,268,53097,1,0
376,56,53506,5,6
256,56,53915,1,4
136,56,54324,1,4
200,156,54597,6,0,B|247:121|291:154,1,100,6|0
245,222,55142,2,0,B|197:258|153:225,1,100,2|0
112,220,55552,2,0,B|19:217|15:309,1,150,2|0
96,302,56233,6,0,B|96:366|155:366,1,100,2|0
237,357,56779,2,0,B|236:294|177:294,1,100,2|0
236,356,57324,2,0,B|236:293|295:293,1,100,2|0
336,293,57733,2,0,B|400:293|400:293|448:281|442:229,1,150,2|0
440,92,58415,6,0,B|392:64|344:92,1,100,2|0
264,92,58961,2,0,B|200:96|204:156,1,100,2|0
284,168,59506,2,0,B|340:164|356:224,1,100,2|0
360,264,59915,2,0,B|348:352|256:352,1,150,2|0
280,276,60597,1,2
212,236,60870,1,0
144,276,61142,5,6
140,196,61415,1,0
172,172,61552,1,2
252,172,61824,1,2
284,196,61961,1,0
212,236,62233,1,6
480,200,62779,6,0,B|432:240|376:192,1,100,2|0
432,136,63324,1,6
352,136,63597,1,0
312,208,63870,1,2
352,280,64142,1,0
272,280,64415,2,0,B|232:272|232:272|208:272|208:272|172:280,1,100,2|0
148,356,64961,5,2
72,328,65233,2,0,B|32:280|80:216,1,100,0|2
40,160,65779,2,0,B|96:144|136:192,1,100,0|2
160,112,66324,2,0,B|192:128|200:160,1,50,0|2
480,80,66870,6,0,B|448:128|392:120,1,100,0|2
392,200,67415,2,0,B|448:176|480:224,1,100,0|2
416,272,67961,1,0
336,272,68233,2,0,B|304:272|304:272|264:272|248:304,1,100,2|0
208,304,68642,2,0,B|144:320|88:288|88:192,1,150,2|0
176,224,69324,1,2
120,168,69597,1,0
120,168,69733,1,4
256,192,69870,12,4,70961
80,192,71506,5,2
120,176,71642,1,2
160,192,71779,1,2
200,176,71915,1,2
240,192,72052,2,0,B|208:288|296:336|360:304,1,200,6|2
312,232,72870,2,0,B|344:160|264:128,1,100,0|6
292,144,73415,1,0
96,80,73688,6,0,B|144:52|192:84,1,100,2|0
144,144,74233,2,0,B|216:192|292:112|256:52,1,200,6|2
256,52,74915,1,0
376,52,75324,1,6
96,272,75870,6,0,B|120:240|160:240|180:272,1,100,2|0
176,352,76415,2,0,B|256:360|296:280|256:216|224:216,1,200,6|2
308,184,77233,1,0
380,216,77506,2,0,B|308:272|364:384|452:352,1,200,6|2
432,276,78324,5,0
484,216,78597,1,6
432,156,78870,1,2
380,216,79142,1,0
380,216,79279,2,0,B|344:176|280:176|244:216,1,150,2|6
320,64,80233,5,2
400,40,80506,1,0
440,112,80779,2,0,B|508:132|512:260|408:272,1,200,6|2
408,188,81597,1,0
376,112,81870,2,0,B|308:132|304:260|408:272,1,200,6|2
308,296,82688,5,0
236,260,82961,2,0,B|316:252|316:120|243:105,1,200,6|2
216,180,83779,1,0
184,108,84052,2,0,B|116:120|120:248|191:259,1,200,6|2
384,56,84870,6,0,B|432:96|392:152,1,100,0|6
328,104,85415,1,0
328,104,85552,1,2
280,168,85824,1,2
280,168,85961,1,0
336,224,86233,2,0,B|340:280|272:320|224:288,1,150,6|2
212,216,86915,1,0
212,216,87052,1,2
204,136,87324,6,2,B|184:108|136:108|116:135,1,100,4|0
116,176,87733,2,2,B|92:204|48:203|28:176,1,100,6|2
28,176,88142,1,0
48,100,88415,1,4
256,192,88552,12,4,89506
40,224,106415,6,0,B|56:192|88:200,1,50,2|0
120,216,106688,2,0,B|160:224|160:184,1,50,2|0
168,160,106961,2,0,B|184:80|288:64|328:136|320:144,1,200,6|2
248,168,107779,6,0,B|268:224,1,50
280,252,108051,2,0,B|312:296|284:348,2,100,2|0|2
216,300,108870,1,0
148,344,109142,2,0,B|120:296|152:248,1,100,2|0
216,204,109688,2,0,B|216:152,1,50,2|0
212,36,110233,1,2
464,212,110779,5,2
464,288,111051,2,0,B|400:264|376:316,1,100,0|2
300,328,111597,1,0
232,288,111870,1,2
152,288,112142,5,0
112,296,112279,1,0
80,272,112415,1,2
60,196,112688,1,0
92,124,112961,2,0,B|144:144|140:204,1,100,2|0
220,196,113506,2,0,B|224:136|188:104,1,100,2|0
264,76,114051,1,2
264,76,114188,2,0,B|296:112|296:168,1,100,0|0
296,168,114597,1,2
64,216,115142,5,2
96,240,115279,1,0
136,244,115415,1,2
172,228,115551,1,0
188,192,115688,1,6
256,336,116233,1,2
336,324,116506,5,0
376,316,116642,1,0
408,288,116779,2,0,B|456:240|416:160,1,100,2|0
380,132,117324,2,0,B|428:96|472:132,2,100,2|0|2
336,200,118142,2,0,B|288:164|304:112,1,100,0|2
264,104,118551,2,0,B|204:24|140:104,1,150,0|2
24,352,119506,6,0,B|32:308|80:340|84:280,1,100,2|0
72,200,120051,2,0,B|152:192|188:284|144:344,1,200,2|2
228,344,120870,2,0,B|244:288|228:240,1,100,0|2
308,248,121415,2,0,B|324:296|308:360,1,100,0|2
392,344,121961,2,0,B|408:280|384:232,1,100,0|2
352,176,122506,1,0
272,176,122779,2,0,B|272:104|352:96,1,100,2|0
96,72,123324,5,4
96,280,123733,1,4
272,176,124142,1,4
352,176,124415,6,0,B|352:120|292:100,1,100,6|0
272,176,124961,1,2
192,168,125233,1,0
192,168,125370,2,0,B|184:224|236:248,1,100,2|0
236,248,125779,1,0
324,324,126051,5,2
396,360,126324,1,0
468,324,126597,1,2
396,292,126870,1,0
328,248,127142,2,0,B|280:216|236:248,1,100,2|0
196,248,127551,2,0,B|156:232|156:128|196:120,1,150,2|0
376,32,128233,6,0,B|404:88|360:124,1,100,2|0
288,92,128779,2,0,B|272:152|316:184,1,100,6|0
300,260,129324,2,0,B|360:268|384:216,1,100,2|0
388,180,129733,2,0,B|484:180|484:272,1,150,2|0
420,316,130415,6,0,B|456:364|512:344,2,100,2|0|6
340,312,131233,1,0
300,312,131370,1,2
224,332,131642,1,2
184,332,131779,1,0
108,312,132051,1,6
40,96,132597,6,0,B|88:48|160:104,1,100,2|0
152,164,133142,2,0,B|208:148|212:88,2,100,6|0|2
72,168,133961,1,0
80,208,134097,2,0,B|112:256|176:256|216:224,1,150,2|0
264,164,134779,5,2
316,224,135051,2,0,B|332:264|372:264|388:224,1,100,2|6
440,164,135597,2,0,B|440:60,1,100,0|2
364,92,136142,1,0
332,68,136279,2,0,B|268:0|200:68,1,150,2|0
268,112,136961,6,0,B|268:224,1,100,2|0
300,284,137506,2,0,B|348:324|404:276,1,100,6|0
440,220,138051,2,0,B|396:184|348:216,1,100,2|0
308,216,138461,2,0,B|236:164|168:216,1,150,6|0
256,192,139142,12,4,140779
300,256,141324,6,0,B|256:232|256:232|208:256,1,100,2|0
212,336,141870,2,4,B|256:354|256:354|304:334,1,100,6|0
376,300,142415,2,0,B|408:292|424:316,4,50,2|0|0|0|2
376,220,143233,2,0,B|340:176|292:164,1,100,0|2
216,164,143779,2,0,B|170:175|136:220,1,100,0|2
136,220,144324,1,0
256,192,144461,12,0,145415
484,148,145688,6,0,B|444:148|444:148|428:132|428:132|396:132|396:132|390:133,1,100,2|0
392,212,146233,2,0,B|434:254|386:326|298:302|306:235,1,200,6|2
328,156,147052,1,0
252,176,147324,2,0,B|212:212|224:268,1,100,2|0
144,268,147870,2,0,B|155:213|116:176,1,100,2|0
68,240,148415,1,2
116,176,148688,1,0
116,176,148824,1,0
256,192,149097,12,2,150052
88,224,150324,5,0
152,176,150597,1,6
216,224,150870,1,0
248,200,151006,1,0
296,264,151279,1,0
360,304,151552,1,0
344,184,151961,6,0,B|344:80,1,100,0|2
424,80,152506,2,0,B|496:160,1,100,0|2
464,228,153052,2,0,B|408:228|408:228|384:264|304:264|280:228|280:228|224:228,1,250,0|4
344,184,154142,1,0
100,164,154415,6,0,B|144:204|192:168,1,100,2|2
268,148,154961,2,0,B|256:92|196:88,1,100,6|2
156,88,155370,2,0,B|96:80|92:20,1,100,2|2
16,48,155915,2,0,B|24:132|104:164,1,150,2|2
136,232,156597,1,2
216,232,156870,1,2
280,324,157142,5,6
360,232,157552,1,4
280,144,157961,1,4
280,64,158233,5,6
32,248,158779,5,2
64,200,159052,1,0
120,208,159324,2,0,B|168:136|256:168,1,149.999995529652,6|2
288,216,160142,1,0
280,276,160415,2,0,B|232:348|144:308,1,149.999995529652,2|2
88,300,161233,6,0,B|40:308|31:263,1,74.9999977648259,0|2
64,208,161779,1,0
112,168,162052,1,2
120,136,162188,1,0
104,48,162597,1,2
464,312,163142,6,0,B|476:260|428:248,1,74.9999977648259,2|0
376,244,163688,2,0,B|312:220|340:132|400:140,1,149.999995529652,2|2
452,140,164506,1,0
444,80,164779,6,0,B|368:40|304:100,1,149.999995529652,2|2
300,160,165597,1,0
244,176,165870,1,2
188,168,166142,1,0
148,128,166415,1,2
148,128,166552,2,0,B|116:112|116:40|148:24,1,112.499996647239,0|2
476,192,167506,6,0,B|316:192,1,149.999995529652,2|6
296,308,168597,1,2
236,296,168870,1,0
196,252,169142,1,6
192,192,169415,5,0
224,144,169688,1,2
192,96,169961,1,0
136,96,170233,1,6
104,144,170506,1,0
136,192,170779,1,2
136,192,171052,2,0,B|112:232|136:264,1,74.9999977648259,0|6
312,288,172142,5,0
372,288,172415,1,6
400,236,172688,1,0
400,236,172824,1,0
372,180,173097,1,0
372,180,173233,1,0
312,180,173506,5,6
288,236,173779,1,0
288,236,173915,1,0
312,288,174188,1,0
312,288,174324,1,0
252,288,174597,6,0,B|252:336|204:336,1,74.9999977648259,6|0
176,336,175006,2,0,B|128:336|128:288,1,74.9999977648259,2|0
128,260,175415,1,0
148,204,175688,1,6
336,56,176233,5,2
392,48,176506,1,0
440,80,176779,2,0,B|520:120|336:176|536:224|432:272,1,200,6|2
376,224,177597,2,0,B|360:168|376:120,1,100,0|6
296,124,178142,2,0,B|280:180|296:228,1,100,0|6
216,224,178688,2,0,B|200:168|216:120,2,100,0|6|0
136,224,179506,1,2
96,224,179642,2,0,B|32:220|32:116|72:104,1,150,0|6
440,48,180597,6,0,B|400:48|400:48|352:64|384:112,1,100,2|0
440,136,181142,2,0,B|416:176|376:192|288:176|296:80,1,200,6|2
216,104,181961,2,0,B|216:176|264:208,1,100,0|6
248,195,182506,1,0
312,240,182779,2,0,B|384:280|448:224,1,100,2|0
408,249,183324,1,6
400,328,183597,2,0,B|344:344|296:312,1,100,0|2
264,320,184006,2,0,B|216:320|216:320|200:336|176:336|160:320|160:320|112:320,1,150,0|6
224,72,184961,5,2
156,32,185233,1,0
88,72,185506,2,0,B|24:128|24:128|96:200|32:248,1,200,6|2
132,240,186324,2,0,B|152:172|112:128,1,100,0|6
204,152,186870,1,0
204,232,187142,5,2
276,192,187415,1,0
276,272,187688,1,6
348,232,187961,1,0
348,152,188233,1,2
276,112,188506,1,2
276,192,188779,2,0,B|196:192|168:88|232:44,1,200,6|2
16,192,189597,6,0,B|8:256|64:280,1,100,0|6
96,208,190142,1,0
96,208,190279,1,2
136,280,190552,1,2
136,280,190688,1,0
200,232,190961,5,6
160,160,191233,1,0
160,160,191370,2,0,B|176:96|224:88,1,100,2|0
221,88,191779,1,2
248,168,192052,5,6
312,120,192324,1,0
312,120,192461,1,2
376,168,192733,1,2
376,168,192870,1,0
440,120,193142,1,6
376,280,193688,5,2
400,352,193961,1,0
456,296,194233,2,0,B|500:256|464:184|404:164|364:200,1,200,6|2
376,280,195052,1,0
364,200,195324,2,0,B|322:234|262:214|226:142|272:104,1,200,6|2
348,120,196142,5,0
424,140,196415,1,6
404,64,196688,1,0
328,40,196961,2,0,B|276:8|232:32,1,100,2|2
272,104,197506,1,6
64,304,198052,6,0,B|32:264|32:264|88:208,1,100,2|0
136,272,198597,2,0,B|176:224|176:224|84:124,1,200,6|2
4,112,199415,1,0
52,48,199688,2,0,B|116:48|132:40|132:40|172:40|172:40|188:48|268:48,1,200,6|2
332,48,200506,1,0
292,116,200779,1,6
372,116,201052,1,0
412,48,201324,1,2
452,116,201597,1,0
372,116,201870,1,6
328,264,202415,5,2
360,192,202688,1,0
440,192,202961,2,0,B|504:240|456:348|376:328,1,200,6|2
388,248,203779,1,0
320,208,204052,1,6
252,248,204324,1,0
252,168,204597,5,2
320,124,204870,1,0
388,168,205142,1,6
320,208,205415,1,0
320,288,205688,1,2
320,288,205824,2,0,B|280:344|280:344|160:344,1,150,0|6
48,160,207052,6,0,B|52:100|108:84,1,100,0|6
128,160,207597,1,0
128,160,207733,1,2
184,104,208006,1,2
184,104,208142,1,2
244,160,208415,5,6
184,104,208688,1,0
184,104,208824,1,2
244,160,209097,1,2
244,160,209233,1,2
184,216,209506,5,6
244,268,209779,1,0
244,268,209915,1,2
304,216,210188,1,2
304,216,210324,1,2
244,160,210597,1,4
256,192,210870,12,4,213870
