osu file format v9

[General]
AudioFilename: MUGEN MIRAI.mp3
AudioLeadIn: 3000
PreviewTime: 80500
Countdown: 0
SampleSet: Soft
StackLeniency: 0.7
Mode: 0
LetterboxInBreaks: 1

[Editor]
DistanceSpacing: 1.4
BeatDivisor: 4
GridSize: 8

[Metadata]
Title:MUGEN MIRAI
Artist:Kamishiro Ami
Creator:Minette
Version:Sana
Source:
Tags:

[Difficulty]
HPDrainRate:5
CircleSize:4
OverallDifficulty:7
ApproachRate:8
SliderMultiplier:1.8
SliderTickRate:0.5

[Events]
//Background and Video events
0,0,"Konachan.com - 60437 sample.jpg"
//Break Periods
2,114936,127367
2,222850,228374
//Storyboard Layer 0 (Background)
//Storyboard Layer 1 (Fail)
//Storyboard Layer 2 (Pass)
//Storyboard Layer 3 (Foreground)
//Storyboard Sound Samples
//Background Colour Transformations
3,100,163,162,255

[TimingPoints]
348,431.654676258993,4,2,0,100,1,0
50285,-200,4,2,0,100,0,0
63990,-100,4,2,0,100,0,0
157254,-200,4,2,0,100,0,0
171175,-100,4,2,0,100,0,0

[Colours]
Combo1 : 128,128,128
Combo2 : 128,128,255
Combo3 : 0,0,160
Combo4 : 128,128,192
Combo5 : 192,192,192

[HitObjects]
64,136,349,2,0,B|176:136,1,90
224,240,780,1,0
296,136,996,1,0
448,184,1428,5,0
352,104,1643,1,0
256,184,1859,1,0
96,128,2291,6,0,B|192:128,1,90
186,128,2723,1,0
128,240,2938,1,0
256,240,3153,1,0
320,128,3370,2,0,B|224:128,1,90
230,128,3802,5,0
344,80,4018,1,0
400,192,4233,1,0
288,240,4449,1,0
160,240,4665,2,0,B|72:240,1,90
70,240,5097,1,0
70,240,5313,1,0
408,128,5744,5,0
288,80,5960,2,0,B|192:80,1,90
80,128,6392,1,0
144,232,6607,1,0
256,176,6823,1,0
256,176,6931,1,0
256,176,7039,1,0
256,176,7147,1,0
256,176,7255,1,0
384,104,7687,5,0
136,152,8118,1,0
384,208,8550,2,0,B|280:208,1,90
294,208,8982,1,0
184,272,9197,1,0
112,168,9413,1,0
216,96,9629,1,0
392,136,10708,5,0
392,136,10924,1,0
336,248,11140,2,0,B|240:248,1,90
246,248,11572,1,0
136,312,11787,1,0
64,208,12003,1,0
176,152,12219,1,0
176,280,12866,5,0
352,104,13298,1,0
256,192,14161,6,0,B|176:152|80:192,1,180
256,192,14809,1,0
256,192,15025,2,0,B|360:160|440:200,1,180
431,196,15672,1,0
344,288,15888,1,0
224,248,16104,1,0
112,192,16320,1,0
112,192,16536,2,0,B|208:144|312:200,1,180
286,187,17183,1,0
432,96,17615,5,0
320,48,17831,1,0
280,168,18046,1,0
392,216,18262,1,0
304,304,18478,2,0,B|208:320|104:296,1,180
56,192,19125,1,0
256,192,19341,12,0,22363
80,104,22795,5,0
168,256,23226,1,0
200,136,23442,2,0,B|296:112|384:144,1,180
377,141,24090,1,0
352,264,24305,1,0
232,240,24521,1,0
256,120,24737,1,0
128,104,24953,5,0
96,224,25169,2,0,B|176:264|296:224,1,180
271,231,25816,1,0
304,112,26032,2,0,B|400:112,1,90
394,112,26464,1,0
232,176,26679,2,0,B|128:176,1,90
304,240,27111,2,0,B|392:240,1,90
394,240,27543,1,0
120,288,27759,2,0,B|264:320|392:288,1,270
315,257,28622,5,0
432,216,28838,1,0
376,104,29054,1,0
256,144,29269,1,0
40,272,29701,5,0
112,168,29917,1,0
184,272,30133,1,0
256,168,30349,2,0,B|344:128|440:176,1,180
430,171,30996,1,0
360,272,31212,1,0
288,168,31428,1,0
288,168,31643,2,0,B|192:120|96:176,1,180
114,166,32291,5,0
114,166,32507,1,0
168,280,32723,1,0
400,192,32938,1,0
400,192,33046,1,0
400,192,33154,2,0,B|264:128|136:184,1,270
138,182,33910,1,0
138,182,34018,2,0,B|272:256|408:184,1,270
128,104,35097,5,0
192,208,35313,1,0
264,312,35528,1,0
336,208,35744,2,0,B|224:208,1,90
152,120,36176,2,0,B|240:120,1,90
242,120,36607,5,0
352,64,36823,1,0
432,168,37039,1,0
320,232,37255,1,0
192,232,37471,2,0,B|104:232,1,90
102,232,37902,1,0
96,104,38118,2,0,B|192:104,1,90
186,104,38550,1,0
432,160,38982,1,0
192,232,39413,1,0
432,264,39845,6,0,B|336:264,1,90
256,192,40277,1,0
88,120,40492,2,0,B|208:120,1,90
304,120,40924,1,0
432,120,41140,1,0
392,240,41356,2,0,B|176:240,1,180
80,136,42651,6,0,B|184:136,1,90
168,136,43082,1,0
256,184,43298,1,0
424,240,43514,2,0,B|320:240,1,90
336,240,43946,1,0
288,128,44161,1,0
168,176,44377,1,0
224,288,44593,1,0
336,240,44809,6,0,B|440:240,1,90
256,192,45241,1,0
192,136,45456,2,0,B|104:136,1,90
102,136,45888,1,0
352,120,46104,1,0
232,72,46320,1,0
176,184,46536,1,0
288,240,46751,1,0
256,192,46967,12,0,48478
400,96,48910,5,0
336,208,49125,1,0
264,312,49341,1,0
192,208,49557,2,0,B|304:208,1,90
344,96,49989,2,0,B|248:96,1,90
64,208,50420,6,0,B|184:240|256:200,1,180
240,207,51500,1,0
240,207,51715,2,0,B|328:168|424:216,1,180
352,104,53010,1,0
256,184,53442,1,0
160,264,53874,2,0,B|320:296|432:264,1,270
424,200,55384,2,0,B|288:168|152:200,1,270
64,128,57327,6,0,B|184:96|304:136,1,225
286,130,58622,1,0
286,130,58838,2,0,B|360:104|424:136,1,135
328,224,59917,1,0
224,296,60349,1,0
224,296,60564,1,0
176,168,61212,5,0
352,168,61643,1,0
208,272,62075,1,0
256,96,62507,1,0
304,272,62938,1,0
256,192,63370,1,0
256,192,63802,1,0
96,144,64233,6,0,B|192:112|272:144,1,180
272,144,64881,2,0,B|376:144,1,90
448,232,65313,1,0
328,280,65528,1,0
208,232,65744,2,0,B|104:232,1,90
118,232,66176,1,0
320,96,66392,6,0,B|408:96,1,90
192,160,66823,2,0,B|104:160,1,90
320,240,67255,2,0,B|408:240,1,90
410,240,67687,2,0,B|240:304|56:240,1,360
56,208,68766,2,0,B|120:192|176:216,1,90
176,208,69197,2,0,B|312:176|456:216,1,270
112,96,70277,5,0
112,96,70492,2,0,B|208:96,1,90
400,168,70924,2,0,B|288:168,1,90
208,248,71356,1,0
128,152,71572,1,0
232,80,71787,2,0,B|352:80,1,90
408,256,72219,6,0,B|320:256,1,90
318,256,72651,1,0
200,304,72866,1,0
136,192,73082,1,0
240,128,73298,1,0
400,288,73730,5,0
152,256,74161,1,0
376,152,74593,1,0
128,96,75025,2,0,B|240:96,1,90
218,96,75456,1,0
344,96,75672,1,0
264,192,75888,1,0
176,280,76104,2,0,B|56:280|48:280,1,90
128,136,77183,6,0,B|224:136,1,90
384,232,77615,2,0,B|264:232,1,90
256,192,78046,12,0,79557
256,56,79773,5,0
256,336,80205,1,0
256,336,80420,1,0
64,192,80635,5,0
64,192,80851,2,0,B|176:208|224:184,1,135
200,192,81283,2,0,B|321:223|425:191,1,225
422,192,81930,1,0
336,192,82146,2,0,B|280:192,1,45
168,192,82578,1,0
80,256,83010,6,0,B|272:256,1,180
376,200,83658,6,0,B|240:200,1,135
241,200,84090,1,0
112,200,84305,1,0
256,192,84628,12,0,86355
96,136,87542,6,0,B|192:136,1,90
416,240,88189,2,0,B|224:240,1,180
112,240,88837,1,0
208,160,89053,1,0
208,160,89160,1,0
208,160,89268,2,0,B|320:160,1,90
56,104,89916,6,0,B|296:104,1,225
280,104,90563,1,0
360,200,90887,1,0
360,200,90995,2,0,B|256:200|256:200|272:216,1,90
144,200,91427,1,0
96,296,91642,2,0,B|288:296,1,180
384,232,92290,2,0,B|272:232,1,90
296,104,92722,2,0,B|392:104,1,90
224,168,93153,2,0,B|128:168,1,90
400,296,93585,5,0
152,240,94017,1,0
400,192,94448,1,0
152,136,94880,1,0
264,192,95096,5,0
384,240,95312,2,0,B|328:320,1,90
304,192,95743,2,0,B|360:112,1,90
232,136,96175,1,0
144,224,96391,1,0
224,320,96606,1,0
320,240,96822,2,0,B|192:240,1,90
104,144,97470,5,0
208,72,97686,1,0
280,176,97901,2,0,B|376:176,1,90
184,240,98333,2,0,B|288:240,1,90
96,304,98765,2,0,B|280:304,1,180
276,304,99412,1,0
352,200,99628,1,0
248,128,99844,1,0
168,224,100060,1,0
288,184,100276,6,0,B|160:184,1,90
104,264,100707,2,0,B|208:264,1,90
320,264,101139,2,0,B|232:264,1,90
72,184,101571,2,0,B|184:184,1,90
392,168,102002,5,0
272,120,102218,1,0
160,176,102434,1,0
56,248,102650,2,0,B|160:248,1,90
146,248,102973,1,0
146,248,103081,1,0
272,248,103297,1,0
400,248,103513,1,0
272,248,103729,1,0
120,96,103945,5,0
368,128,104376,1,0
120,176,104808,2,0,B|232:200,1,90
368,216,105240,1,0
240,232,105455,1,0
120,272,105671,2,0,B|304:272,1,180
408,208,106319,1,0
320,120,106535,1,0
232,208,106750,1,0
128,112,106966,6,0,B|232:112,2,90
360,184,107614,2,0,B|272:184,2,90
128,248,108261,2,0,B|232:248,2,90
144,104,109124,5,0
248,176,109340,1,0
248,176,109448,1,0
248,176,109556,1,0
352,256,109772,1,0
224,256,109988,1,0
352,256,110204,1,0
224,256,110419,2,0,B|128:256,1,90
144,104,111283,5,0
272,104,111499,1,0
184,192,111714,1,0
312,192,111930,1,0
224,280,112146,1,0
352,280,112362,1,0
256,192,112578,12,0,114736
256,192,128117,12,0,129628
128,136,129844,6,0,B|232:136,1,90
328,200,130276,2,0,B|232:200,1,90
112,200,130707,1,0
184,304,130923,1,0
296,248,131139,1,0
232,144,131355,2,0,B|328:144,1,90
336,272,131786,5,0
96,200,132218,2,0,B|208:200,1,90
186,200,132650,1,0
248,88,132865,1,0
312,200,133081,1,0
416,272,133297,1,0
208,128,133729,5,0
112,48,133945,1,0
408,256,134376,5,0
408,256,134592,1,0
408,256,134808,2,0,B|216:256|216:256,1,180
96,160,136750,6,0,B|192:160,1,90
360,88,137182,1,0
272,184,137398,2,0,B|400:184,1,90
362,184,137830,1,0
152,192,138261,5,0
256,120,138477,1,0
360,192,138693,1,0
104,192,139124,5,0
256,120,139340,1,0
400,192,139556,1,0
176,192,139988,5,0
256,120,140204,1,0
328,192,140419,1,0
248,192,140851,5,0
248,192,140959,1,0
248,192,141067,1,0
128,264,142146,5,0
232,200,142362,1,0
344,136,142578,1,0
328,264,142794,2,0,B|216:264,1,90
344,200,143225,2,0,B|448:200,1,90
104,112,143657,5,0
344,184,144089,1,0
216,184,144304,2,0,B|128:184,1,90
126,184,144736,1,0
360,272,145168,5,0
264,192,145383,1,0
264,192,145491,1,0
264,192,145599,1,0
168,112,145815,2,0,B|280:112,1,90
384,112,146247,1,0
384,112,146463,1,0
136,128,146894,5,0
264,128,147110,1,0
392,248,147542,5,0
264,248,147758,1,0
96,224,148189,6,0,B|168:152,1,90
288,168,148621,2,0,B|208:256,1,90
88,192,149700,5,0
176,104,149916,1,0
176,104,150024,1,0
176,104,150132,1,0
256,200,150348,1,0
344,104,150563,1,0
424,200,150779,2,0,B|320:200,1,90
240,288,151211,2,0,B|352:288,1,90
456,288,151642,1,0
456,288,151750,1,0
456,288,151858,1,0
96,224,152074,6,0,B|192:224,1,90
272,128,152506,2,0,B|184:128,1,90
344,232,152937,1,0
240,304,153153,1,0
168,200,153369,1,0
280,144,153585,1,0
280,144,153693,1,0
280,144,153801,2,0,B|392:144,1,90
96,64,154448,5,0
416,128,154880,1,0
96,176,155312,1,0
416,216,155743,1,0
96,280,156175,1,0
416,320,156606,1,0
256,184,157038,1,0
96,280,157470,6,0,B|136:184|224:152,1,180
296,152,158549,1,0
376,152,158765,1,0
376,232,158981,2,0,B|336:144|288:112,1,135
300,121,159844,1,0
216,120,160060,1,0
104,240,160491,5,0
184,240,160707,1,0
264,240,160923,2,0,B|336:240|384:168,1,135
377,177,161786,2,0,B|272:176,1,90
96,264,162434,6,0,B|336:264,1,225
416,136,164376,6,0,B|232:136,1,180
200,208,165455,1,0
280,208,165671,1,0
360,208,165887,2,0,B|456:208,1,90
120,296,166535,6,0,B|160:248,1,45
232,256,166966,2,0,B|272:208,1,45
344,208,167398,1,0
416,168,167614,2,0,B|328:168,1,90
120,120,168261,6,0,B|176:120,1,45
216,184,168693,2,0,B|152:184,1,45
120,248,169124,2,0,B|184:248,1,45
232,296,169556,2,0,B|288:296,1,45
344,248,169988,2,0,B|288:248,1,45
344,184,170419,2,0,B|400:184,1,45
344,120,170851,2,0,B|288:120,1,45
56,200,171283,6,0,B|192:160|328:200,1,270
322,198,172146,1,0
384,304,172362,1,0
312,200,172578,1,0
240,304,172794,2,0,B|136:304,1,90
150,304,173225,1,0
104,184,173441,1,0
224,136,173657,1,0
280,248,173873,2,0,B|368:248,1,90
370,248,174196,1,0
370,248,174304,2,0,B|472:248,1,90
136,120,174736,6,0,B|240:120,1,90
328,200,175168,2,0,B|232:200,1,90
136,272,175599,2,0,B|240:272,1,90
226,272,176031,1,0
352,272,176247,1,0
272,176,176463,1,0
96,104,176894,5,0
176,200,177110,1,0
264,288,177326,2,0,B|352:288,1,90
354,288,177758,1,0
424,184,177973,6,0,B|320:184,1,90
334,184,178297,1,0
334,184,178405,1,0
224,112,178621,1,0
216,240,178837,1,0
136,208,179268,5,0
256,168,179484,1,0
376,208,179700,1,0
96,112,180779,5,0
344,160,181211,1,0
96,208,181642,2,0,B|192:208,1,90
312,208,182074,1,0
184,208,182290,1,0
56,208,182506,1,0
144,296,182722,1,0
272,296,182937,1,0
400,296,183153,1,0
224,192,184232,5,0
288,192,184448,1,0
184,192,184664,1,0
328,192,184880,1,0
256,192,185096,12,0,186606
256,328,186822,5,0
256,48,187254,1,0
256,48,187470,1,0
88,128,187686,5,0
144,240,187901,2,0,B|240:240,1,90
234,240,188225,1,0
234,240,188333,1,0
336,168,188549,2,0,B|224:168,1,90
246,168,188873,1,0
246,168,188981,1,0
408,272,189412,5,0
280,272,189628,1,0
72,168,190060,6,0,B|176:120|264:112,1,180
352,176,190707,2,0,B|256:176,1,90
262,176,191031,1,0
262,176,191139,1,0
262,176,191355,1,0
256,192,191786,12,0,193297
88,184,194592,5,0
216,184,194808,1,0
448,288,195240,2,0,B|400:208|312:176,1,180
264,288,195887,1,0
136,288,196211,2,0,B|192:288,1,45
264,288,196517,1,0
416,192,196966,6,0,B|328:144|224:144,1,180
244,144,197506,1,0
244,144,197614,1,0
104,264,197937,2,0,B|176:264,1,45
272,264,198261,1,0
256,192,198693,12,0,200635
144,104,201067,5,0
376,200,201499,1,0
144,296,201930,1,0
240,216,202146,1,0
336,136,202362,1,0
336,136,202470,1,0
336,136,202578,1,0
216,168,202794,1,0
104,224,203009,2,0,B|200:224,1,90
320,224,203441,1,0
216,152,203657,1,0
112,224,203873,1,0
424,224,204520,5,0
320,152,204736,1,0
248,256,204952,2,0,B|328:200,1,90
200,168,205383,2,0,B|112:232,1,90
376,232,205815,2,0,B|288:200|184:216,1,180
198,213,206463,1,0
80,248,206678,1,0
104,120,206894,1,0
224,88,207110,1,0
392,272,207326,6,0,B|304:272,1,90
200,192,207758,2,0,B|104:192,1,90
184,288,208189,1,0
264,192,208405,1,0
344,96,208621,1,0
344,96,208729,1,0
344,96,208837,1,0
96,280,209053,6,0,B|192:272|272:224,1,180
266,227,209592,1,0
266,227,209700,1,0
384,176,209916,1,0
384,176,210024,2,0,B|328:176,1,45
224,120,210348,1,0
112,176,210563,1,0
224,224,210779,2,0,B|336:224,1,90
112,280,211427,5,0
208,200,211642,1,0
296,112,211858,2,0,B|384:112,1,90
360,232,212290,2,0,B|272:232,1,90
152,192,212722,2,0,B|248:160|336:176,1,180
416,264,213369,1,0
304,208,213585,1,0
192,264,213801,1,0
192,264,213909,1,0
192,264,214017,1,0
400,144,214232,6,0,B|280:144,1,90
310,144,214664,1,0
376,256,214880,1,0
264,320,215096,1,0
200,208,215312,1,0
200,208,215419,1,0
200,208,215527,2,0,B|320:208|312:208,1,90
72,264,216175,6,0,B|144:192|248:160,1,180
104,128,216822,2,0,B|208:128,1,90
296,48,217254,1,0
392,128,217470,1,0
304,216,217686,1,0
192,224,218333,5,0
256,112,218549,1,0
320,224,218765,1,0
208,160,218981,2,0,B|312:160,2,90
256,192,219628,12,0,222650
256,288,229124,5,0
256,280,229232,1,0
256,272,229340,1,0
256,264,229448,1,0
256,256,229556,1,0
256,248,229664,1,0
256,240,229772,1,0
256,232,229880,1,0
256,224,229988,1,0
200,112,230204,5,0
312,56,230419,1,0
368,168,230635,2,0,B|280:168,1,90
72,224,231283,5,0
200,224,231499,2,0,B|256:224,2,45
416,192,232146,5,0
304,128,232362,1,0
192,192,232578,1,0
80,192,233009,5,0
192,128,233225,1,0
304,192,233441,1,0
176,248,233873,6,0,B|272:248,2,90
72,128,235168,6,0,B|160:128,1,90
144,168,235491,2,0,B|232:168,1,90
216,208,235815,1,0
192,248,235923,1,0
208,288,236031,2,0,B|320:288,1,90
328,256,236355,1,0
360,224,236463,1,0
384,192,236571,2,0,B|280:192,1,90
256,192,236894,12,0,239053
104,184,239484,5,0
104,184,239700,2,0,B|240:184,1,135
248,184,240132,1,0
256,184,240240,2,0,B|360:184,1,90
168,272,240671,1,0
168,272,240779,1,0
360,120,241103,1,0
360,120,241211,1,0
360,120,241319,1,0
88,248,241858,6,0,B|192:160|296:160,1,225
290,160,242506,2,0,B|408:160,1,90
