osu file format v7

[General]
AudioFilename: Cherry My Heart.mp3
AudioLeadIn: 0
PreviewTime: 54170
Countdown: 0
SampleSet: Soft
StackLeniency: 0.7
Mode: 0
LetterboxInBreaks: 1

[Editor]
DistanceSpacing: 0.800000011920929
BeatDivisor: 2
GridSize: 8

[Metadata]
Title:Cherry My Heart
Artist:Kamishiro Ami
Creator:digiaria
Version:Easy
Source:Lovedere-shon!
Tags:Game OP

[Difficulty]
HPDrainRate:2
CircleSize:3
OverallDifficulty:1
SliderMultiplier:1
SliderTickRate:1

[Events]
//Background and Video events
0,0,"3.jpg"
//Break Periods
2,80772,85603
//Storyboard Layer 0 (Background)
//Storyboard Layer 1 (Fail)
//Storyboard Layer 2 (Pass)
//Storyboard Layer 3 (Foreground)
//Storyboard Sound Samples
//Background Colour Transformations
3,100,255,128,192

[TimingPoints]
3994,394.736842105263,4,2,1,100,1,0
40901,-100,4,2,0,81,0,0
47020,-100,4,2,1,100,0,0
54125,-100,4,2,1,70,0,1
54520,-100,4,2,1,80,0,0
54915,-100,4,2,1,91,0,0
55309,-100,4,2,1,100,0,0
57678,-100,4,1,0,50,0,0
57776,-100,4,2,1,100,0,0
58467,-100,4,1,0,50,0,0
58665,-100,4,2,1,100,0,0
60836,-100,4,1,0,50,0,0
60934,-100,4,2,1,100,0,0
61625,-100,4,1,0,50,0,0
61773,-100,4,2,1,100,0,0
66954,-100,4,1,0,51,0,0
68138,-100,4,2,1,100,0,0
70309,-100,4,1,0,50,0,0
70408,-100,4,2,1,100,0,0
71099,-100,4,1,0,51,0,0
71247,-100,4,2,1,100,0,0
73467,-100,4,1,0,51,0,0
73566,-100,4,2,1,100,0,0
74257,-100,4,1,0,51,0,0
74405,-100,4,2,1,100,0,0
80572,-100,4,1,0,51,0,0
86691,-100,4,2,1,100,0,0
111954,-100,4,2,0,80,0,0
118467,-100,4,2,1,100,0,0
125178,-100,4,2,1,70,0,1
125572,-100,4,2,1,80,0,0
125967,-100,4,2,1,90,0,0
126362,-100,4,2,1,100,0,0
128730,-100,4,1,0,50,0,0
129125,-100,4,2,1,100,0,0
129520,-100,4,1,0,50,0,0
129915,-100,4,2,1,90,0,0
131888,-100,4,1,0,50,0,0
132283,-100,4,2,1,90,0,0
132678,-100,4,1,0,50,0,0
133072,-100,4,2,1,90,0,0
138007,-100,4,1,0,50,0,0
139388,-100,4,2,1,90,0,0
141362,-100,4,1,0,50,0,0
141757,-100,4,2,1,90,0,0
142151,-100,4,1,0,50,0,0
142546,-100,4,2,1,90,0,0
144520,-100,4,1,0,50,0,0
144915,-100,4,2,1,90,0,0
145309,-100,4,1,0,50,0,0
145704,-100,4,2,1,90,0,0
151625,-100,4,1,0,51,0,0

[Colours]
Combo1 : 79,120,244
Combo2 : 255,255,179
Combo3 : 155,255,255
Combo4 : 253,172,172
Combo5 : 255,255,255

[HitObjects]
472,192,16230,2,0,B|360:192,1,100,0|4
256,48,17415,1,4
256,224,18204,2,2,B|112:224,1,100
16,344,19388,6,0,B|128:344,1,100,0|4
176,176,20572,1,4
312,64,21362,2,2,B|456:64,1,100
144,64,22941,5,4
264,200,23730,1,4
408,312,24520,1,4
464,144,25309,1,4
336,16,26099,2,0,B|312:128|136:160,1,250,4|2
232,320,27875,5,2
128,256,28467,2,0,B|24:256,2,100,2|0|4
128,96,30046,5,4
280,40,30836,2,2,B|280:152,1,100
384,264,32020,6,0,B|496:264,1,100,0|4
432,112,33204,1,4
440,272,33993,2,2,B|320:272,1,100
184,232,35178,6,0,B|72:280,1,100,0|4
112,112,36362,1,4
256,40,37151,1,4
416,72,37941,2,0,B|416:136,1,50,4|0
416,240,38730,5,2
256,240,39520,1,2
136,240,40112,2,2,B|24:240,1,100
40,120,41099,5,4
40,120,41494,1,4
312,40,42875,2,0,B|424:40,1,100
416,240,44257,5,4
416,240,44651,1,4
152,344,46033,2,0,B|40:344,1,100
256,152,47809,6,0,B|256:256,1,100,0|4
112,184,48994,1,4
208,312,49783,1,4
152,160,50572,1,4
232,24,51362,2,0,B|16:24,2,200,4|4|4
408,192,54125,6,4,B|296:192,3,100
384,328,56099,1,4
232,368,56888,1,4
232,368,57283,2,0,B|128:368,3,100,0|8|0|8
128,208,59257,5,4
256,80,60046,1,4
256,80,60441,2,0,B|360:80,3,100,0|8|0|8
440,216,62415,5,4
280,216,63204,1,4
168,328,63994,1,4
56,208,64783,1,4
144,80,65572,1,4
272,176,66362,1,4
208,320,67151,6,0,B|320:320,2,100,8|8|8
104,200,68730,5,4
56,48,69520,1,4
56,48,69915,2,0,B|168:48,3,100,0|8|0|8
320,48,71888,5,4
400,184,72678,1,4
400,184,73072,2,0,B|288:184,3,100,0|8|0|8
144,232,75046,5,4
88,80,75836,1,4
240,32,76625,1,4
264,192,77415,1,4
256,192,77612,12,4,80572
168,56,87283,6,0,B|168:112,2,50,0|0|4
96,200,88467,1,4
256,248,89257,2,2,B|256:376,1,100
400,280,90441,6,0,B|496:280,2,50,0|0|4
384,120,91625,1,4
264,16,92415,2,2,B|152:16,1,100
168,176,93599,6,0,B|168:296,1,100,0|4
328,240,94783,1,4
416,104,95572,1,4
416,104,95967,1,0
312,40,96559,2,0,B|264:104|320:192,1,150,0|4
192,336,98138,5,2
104,200,98928,1,2
184,112,99520,1,2
240,168,99915,6,0,B|288:208,2,50,0|0|4
400,184,101099,1,4
344,32,101888,2,2,B|224:32,1,100
248,192,103072,6,0,B|320:192,2,50,0|0|4
192,344,104257,1,4
96,216,105046,1,2
96,216,105441,1,2
136,64,106230,6,0,B|248:64,2,100,0|4|0
80,120,107415,1,4
216,208,108204,1,4
360,136,108993,2,0,B|360:192,1,50,4|0
296,80,109783,5,2
168,176,110572,1,2
248,264,111165,1,2
248,264,111559,1,2
344,192,112151,5,4
344,192,112546,1,4
112,40,113928,2,0,B|216:96,1,100
256,312,115309,5,4
256,312,115704,1,4
392,24,117086,2,0,B|336:128,1,100
72,48,118862,6,0,B|72:160,1,100,0|4
64,304,120046,1,4
208,232,120836,1,4
144,88,121625,1,4
288,24,122415,2,0,B|456:152,1,200,4|4
288,160,123993,1,4
472,296,124783,1,4
392,296,125178,6,4,B|272:296,3,100
104,272,127151,1,4
104,88,127941,1,4
104,88,128336,2,0,B|208:88,3,100,0|8|0|8
128,248,130309,5,4
280,160,131099,1,4
280,160,131493,2,0,B|384:160,3,100,0|8|0|8
248,32,133467,5,4
240,168,134257,1,4
416,176,135046,1,4
416,176,135441,2,0,B|416:280,1,100,0|4
416,96,136625,1,6
232,96,137415,1,6
256,272,138204,6,8,B|256:160,2,100
96,192,139783,1,4
272,192,140572,1,4
272,192,140967,2,0,B|272:72,3,100,0|8|0|8
96,48,142941,5,4
232,160,143730,1,4
232,160,144125,2,0,B|312:232,3,100,0|8|0|8
128,192,146099,5,4
128,192,146888,1,4
312,192,147678,1,4
312,192,148467,1,4
256,192,148665,12,4,151625
