osu file format v9

[General]
AudioFilename: .mp3
AudioLeadIn: 0
PreviewTime: 55959
Countdown: 0
SampleSet: Soft
StackLeniency: 0.6
Mode: 0
LetterboxInBreaks: 0

[Editor]
Bookmarks: 65032
DistanceSpacing: 1.5
BeatDivisor: 4
GridSize: 4

[Metadata]
Title:Cherry My Heart (Short Ver.)
Artist:Kamishiro Ami
Creator:R a r e
Version:Insane
Source:Love Delation!
Tags:game KSHR

[Difficulty]
HPDrainRate:8
CircleSize:4
OverallDifficulty:7
ApproachRate:8
SliderMultiplier:1.70000000596046
SliderTickRate:1

[Events]
//Background and Video events
Video,0,"Love Delation.avi"
0,0,"BG.png"
//Break Periods
//Storyboard Layer 0 (Background)
//Storyboard Layer 1 (Fail)
//Storyboard Layer 2 (Pass)
//Storyboard Layer 3 (Foreground)
//Storyboard Sound Samples
//Background Colour Transformations
3,100,163,162,255

[TimingPoints]
1485,394.736842105263,4,2,1,80,1,0
15893,-100,4,2,0,55,0,0
17274,-100,4,2,1,60,0,0
41945,-100,4,2,1,70,0,0
56748,-100,4,2,0,80,0,1
63063,-100,4,2,1,70,0,1
63064,-100,4,2,1,80,0,1
69380,-100,4,2,0,80,0,1
76090,-100,4,2,1,80,0,1
78853,-200,4,2,0,80,0,1
80055,-100,4,2,0,80,0,1
80334,-100,4,2,1,60,0,1
80629,-100,4,2,1,80,0,1
82011,-100,4,2,0,80,0,0
88327,-100,4,2,1,40,0,0
89116,-100,4,2,1,50,0,0
89906,-100,4,2,1,60,0,0
90695,-100,4,2,1,70,0,0
91305,-100,4,2,2,80,0,0
93853,-100,4,2,2,70,0,0
94248,-100,4,2,2,60,0,0
94643,-100,4,2,2,50,0,0
95038,-100,4,2,2,40,0,0
95432,-100,4,2,2,30,0,0
95827,-100,4,2,2,20,0,0
96222,-100,4,2,2,15,0,0
96616,-100,4,2,2,10,0,0
97011,-100,4,2,2,5,0,0

[Colours]
Combo1 : 0,128,255
Combo2 : 255,128,128
Combo3 : 128,255,255
Combo4 : 128,255,128
Combo5 : 255,255,128

[HitObjects]
440,88,3063,2,0,B|416:48|360:48,1,85.000000298023,4|0
296,120,3458,1,0
200,80,3656,1,2
168,176,3853,2,0,B|144:216|88:216,1,85.000000298023,0|2
56,312,4248,1,8
160,320,4445,2,0,B|192:352,1,42.5000001490115,8|8
224,356,4642,6,0,B|264:372|320:364,1,85.000000298023,4|0
404,328,5037,2,0,B|364:311|336:268,1,85.000000298023,8|0
424,212,5432,1,0
424,212,5629,1,0
400,112,5827,2,8,B|392:64|336:56,1,85.000000298023,8|0
244,84,6221,2,0,B|204:108|132:116|76:84,1,170.000000596046,0|8
80,86,6813,1,0
80,192,7011,5,0
92,208,7110,1,0
104,224,7208,2,0,B|116:252|128:264|143:279|160:288,1,85.000000298023,8|8
400,120,7800,5,0
400,120,7998,1,0
464,208,8195,2,0,B|464:264|424:288,1,85.000000298023,8|0
328,320,8590,1,0
328,320,8787,1,0
224,288,8984,2,0,B|168:272|120:304,1,85.000000298023,8|0
56,336,9379,2,0,B|17:296|13:223|32:176,1,170.000000596046,0|8
32,175,9971,1,0
140,204,10169,5,0
156,216,10267,1,0
172,228,10366,2,0,B|200:240|212:252|227:267|236:284,1,85.000000298023,8|8
456,344,10958,5,0
456,344,11156,1,0
352,312,11353,2,0,B|324:272|344:230,1,85.000000298023,8|0
448,200,11748,1,0
448,200,11945,1,0
384,112,12142,2,0,B|368:77|313:71,1,85.000000298023,8|0
264,168,12537,5,0
264,168,12734,1,0
200,256,12932,2,0,B|160:256|128:208,1,85.000000298023,8|0
24,192,13327,1,0
24,192,13425,1,0
24,192,13524,1,8
128,152,13721,2,0,B|128:56,1,85.000000298023,8|0
248,80,14116,5,0
352,128,14313,1,0
304,232,14511,1,8
200,180,14708,1,0
192,56,14906,5,0
296,104,15103,1,0
248,208,15300,1,8
144,156,15498,2,0,B|144:328,1,170.000000596046,0|8
144,326,16090,1,8
312,352,16484,6,0,B|341:347|360:336,1,42.5000001490115
384,328,16682,1,8
448,248,16879,1,8
464,160,17077,1,0
473,148,17175,1,0
480,136,17274,6,0,B|448:96|400:80,1,85.000000298023,4|0
328,64,17669,1,8
312,152,17866,1,0
232,112,18063,2,0,B|186:94|173:39,2,85.000000298023,0|0|8
240,200,18656,2,0,B|225:272|160:260|165:368,1,170.000000596046
256,344,19248,1,8
256,344,19445,1,0
336,312,19642,5,2
360,304,19741,1,8
384,296,19840,2,0,B|410:280|426:276|436:261|456:240,1,85.000000298023,8|8
392,184,20234,1,0
456,128,20432,5,4
456,128,20629,1,0
424,48,20827,2,0,B|384:24|336:40,1,85.000000298023,8|0
272,88,21221,1,0
272,88,21419,1,0
360,128,21616,2,0,B|335:168|293:176,1,85.000000298023,8|0
200,160,22011,1,0
200,160,22208,1,0
176,72,22406,2,0,B|130:85|110:131,1,85.000000298023,8|0
40,186,22800,5,2
40,208,22899,1,8
40,231,22998,2,0,B|29:259|28:276|29:297|34:315,1,85.000000298023,8|8
128,320,23392,5,0
208,328,23590,1,2
264,272,23787,1,0
264,192,23985,1,8
208,136,24182,1,0
136,184,24379,2,0,B|142:263|237:247|212:363,1,170.000000596046,0|8
216,327,24971,1,0
304,336,25169,5,2
392,336,25366,1,0
448,272,25563,1,8
400,200,25761,1,0
336,256,25958,2,0,B|296:224|224:240,1,85.000000298023,0|0
255,235,26353,1,8
179,198,26550,2,0,B|202:154|244:150,1,85.000000298023,0|2
256,192,26945,12,12,27932
264,352,28129,5,2
160,176,28524,1,0
84,140,28721,1,8
76,56,28919,1,2
256,116,29313,1,0
340,132,29511,1,10
384,204,29708,1,0
344,288,29906,6,0,B|281:301|226:272,3,85.000000298023,4|0|8|0
184,208,30695,1,0
184,208,30892,1,0
88,264,31090,2,0,B|88:320|144:360,1,85.000000298023,8|0
216,288,31485,5,2
272,344,31682,1,0
344,312,31879,1,8
352,232,32077,1,0
296,176,32274,1,0
296,176,32373,2,0,B|231:175|199:102,1,127.500000447035,8|8
296,64,32866,1,0
376,136,33063,5,4
376,136,33261,1,0
448,160,33458,2,0,B|456:200|420:237,1,85.000000298023,8|0
384,304,33853,1,0
384,304,34050,1,0
312,280,34248,2,0,B|304:240|340:203,1,85.000000298023,8|0
384,112,34642,5,2
312,72,34840,1,0
240,120,35037,1,8
176,64,35235,1,0
120,128,35432,1,0
120,128,35531,2,0,B|102:197|120:256,1,127.500000447035,8|8
168,320,36024,1,0
208,248,36221,6,0,B|176:216|166:168,2,85.000000298023,2|0|8
264,304,36813,1,0
320,248,37011,1,0
392,208,37208,1,0
440,272,37406,1,8
392,336,37603,6,0,B|312:352|296:288|208:328,1,170.000000596046,4|0
152,288,38195,2,0,B|104:264|96:208,1,85.000000298023,8|0
160,144,38590,1,0
80,80,38787,2,0,B|104:40|168:48,1,85.000000298023,0|8
256,56,39182,2,0,B|280:96|344:88,1,85.000000298023,0|4
256,192,39774,5,2
304,376,40169,2,0,B|400:360|437:273,1,170.000000596046,2|0
368,216,40761,1,6
464,64,41156,5,0
328,80,41353,1,8
240,184,41550,1,4
80,80,41945,5,0
232,80,42142,2,0,B|144:80,1,85.000000298023,8|8
60,80,42537,2,0,B|12:128|20:208|68:248,1,170.000000596046,4|8
224,184,43129,2,0,B|264:224|264:312|200:352,1,170.000000596046
88,248,43721,1,0
31,97,43919,2,0,B|215:97,1,170.000000596046,4|0
344,160,44511,2,0,B|256:160,2,85.000000298023,8|0|0
272,272,45103,5,0
424,272,45300,2,0,B|328:272,1,85.000000298023,8|8
252,272,45695,2,0,B|217:244|209:164|257:116,1,170.000000596046,4|8
412,40,46287,2,0,B|449:78|449:166|372:224,1,170.000000596046,0|0
352,280,46879,1,8
256,312,47077,2,0,B|64:312,1,170.000000596046,4|0
120,160,47669,1,8
296,144,47866,2,0,B|480:144,1,170.000000596046,4|0
376,272,48458,1,8
72,240,48853,5,4
72,240,49050,1,0
224,272,49248,2,0,B|224:184,1,85.000000298023,8|0
360,112,49642,1,0
360,112,49840,1,0
208,144,50037,2,0,B|208:56,2,85.000000298023,8|4|0
352,200,50629,6,0,B|472:200,1,85.000000298023,0|8
312,288,51024,2,0,B|192:288,1,85.000000298023
96,208,51419,2,0,B|216:208,1,85.000000298023,0|8
384,216,51813,5,4
384,216,51912,1,0
384,216,52011,1,0
360,304,52208,2,0,B|401:328|443:287,1,85.000000298023,0|8
480,179,52603,2,0,B|476:132|426:122,1,85.000000298023
309,150,52998,2,0,B|271:179|293:233,1,85.000000298023,0|8
256,192,53392,12,2,54774
48,208,55169,5,2
168,88,55366,1,0
336,104,55563,2,0,B|384:192,1,85.000000298023,12|0
464,320,55958,1,2
377,179,56156,1,0
224,248,56353,2,0,B|152:320,1,85.000000298023,12|0
96,248,56748,5,4
56,168,56945,1,0
56,80,57142,2,0,B|104:64|168:96,1,85.000000298023,8|2
224,96,57537,1,2
176,168,57734,1,0
224,240,57932,2,0,B|266:259|306:243,1,85.000000298023,8|2
352,184,58327,5,2
344,320,58524,1,8
480,328,58721,1,8
488,192,58919,1,2
352,184,59116,1,2
244,248,59313,2,0,B|156:248,1,85.000000298023,8|8
64,152,59708,5,2
168,152,59906,1,2
128,248,60103,2,0,B|200:320,1,85.000000298023,0|8
240,216,60498,5,2
304,136,60695,1,2
360,224,60892,2,0,B|360:312,1,85.000000298023,0|8
168,320,61287,5,2
160,184,61484,1,2
24,192,61682,1,8
32,328,61879,1,8
168,320,62077,1,2
160,184,62274,1,2
32,328,62471,5,8
136,256,62669,2,0,B|176:236|228:244,1,85.000000298023,8|0
296,272,63063,6,0,B|325:246|325:158|296:112,1,170.000000596046,4|8
136,152,63656,1,0
136,152,63853,2,0,B|107:178|107:266|136:312,1,170.000000596046,0|8
233,287,64445,6,0,B|276:304|320:280,1,85.000000298023,4|0
384,236,64840,1,0
364,156,65037,2,0,B|321:139|277:163,1,85.000000298023,8|0
208,204,65432,2,0,B|176:236|128:228,1,85.000000298023
80,160,65827,1,8
60,76,66024,2,0,B|132:60|148:124|244:76,1,170.000000596046,4|0
300,132,66616,1,8
256,192,66813,12,0,68195
352,240,68590,6,0,B|432:320,1,85.000000298023,2|0
360,120,68984,2,0,B|424:56,1,85.000000298023,2|0
256,72,69379,5,4
176,160,69577,1,0
96,72,69774,2,0,B|48:152,1,85.000000298023,8|2
48,248,70169,1,2
128,336,70366,1,0
208,248,70563,2,0,B|304:248,1,85.000000298023,8|2
360,296,70958,5,2
472,256,71156,1,8
384,176,71353,1,8
360,296,71550,1,2
472,256,71748,1,2
384,176,71945,2,0,B|296:176,1,85.000000298023,8|8
192,64,72340,5,2
192,64,72537,2,0,B|136:96|136:208|240:216,1,170.000000596046,6|8
240,136,73129,1,2
240,136,73327,2,0,B|296:168|296:280|192:288,1,170.000000596046,2|8
144,280,73919,6,0,B|80:344,1,85.000000298023,2|2
64,240,74313,1,8
64,240,74511,1,8
144,176,74708,2,0,B|80:112,1,85.000000298023,2|2
184,104,75103,1,8
184,104,75300,1,8
336,28,75695,5,4
336,28,75892,1,0
396,88,76090,2,0,B|468:160,1,85.000000298023,8|0
380,188,76484,1,0
380,188,76682,1,0
316,132,76879,2,0,B|256:192,1,85.000000298023,8|0
216,112,77274,5,4
184,112,77373,1,0
152,112,77471,1,0
92,172,77669,1,0
60,172,77767,1,0
28,172,77866,1,0
96,248,78063,2,0,B|85:296|96:336,1,85.000000298023,0|0
176,288,78458,2,0,B|202:329|238:350,1,85.000000298023,0|0
320,320,78853,6,0,B|320:224,1,85.000000298023,4|8
432,64,79642,2,0,B|432:152,1,85.000000298023,0|8
440,296,80333,6,0,B|408:264,1,42.5000001490115,0|4
368,192,80629,1,8
304,248,80827,1,8
240,304,81024,1,0
240,304,81123,1,0
240,304,81221,1,0
160,272,81419,1,0
80,216,81616,2,0,B|80:272,2,42.5000001490115,8|8|0
109,125,82011,6,0,B|126:80|126:80|157:42,1,85.000000298023,6|0
256,192,82406,1,8
256,192,82603,1,2
403,259,82800,2,0,B|386:304|386:304|355:342,1,85.000000298023,2|0
256,192,83195,1,8
256,192,83392,1,2
296,96,83590,6,0,B|368:144,1,85.000000298023,2|10
464,192,83985,1,8
368,248,84182,1,2
464,312,84379,1,2
368,248,84577,5,8
248,44,84774,1,8
249,44,84971,5,0
248,44,85169,2,0,B|213:141|255:208,1,170.000000596046,2|8
458,267,85761,1,0
458,267,85958,2,0,B|499:200|464:104,1,170.000000596046,2|8
376,192,86550,6,0,B|272:192,1,85.000000298023,2|2
208,264,86945,2,0,B|312:264,1,85.000000298023,8|8
200,336,87340,2,0,B|96:336,1,85.000000298023,2|2
16,328,87735,5,8
72,96,87932,1,8
72,96,88327,6,0,B|120:72|160:96,1,85.000000298023,4|0
128,264,88721,2,0,B|176:280|216:256,1,85.000000298023,8|0
288,104,89116,2,0,B|336:80|376:104,1,85.000000298023,4|0
344,272,89511,2,0,B|392:288|432:264,1,85.000000298023,8|0
472,104,89906,6,0,B|472:200,1,85.000000298023,4|0
328,280,90300,2,0,B|328:168,1,85.000000298023,8|0
184,104,90695,2,0,B|184:192,1,85.000000298023,4|0
40,280,91090,2,0,B|40:192,1,85.000000298023,8|0
48,168,91386,6,0,B|80:112,1,42.5000001490115,0|4
128,32,91682,1,0
240,40,91879,1,2
264,152,92077,2,0,B|296:120,2,42.5000001490115,0|0|0
192,248,92471,1,2
304,296,92669,1,0
352,296,92767,1,0
400,280,92866,1,0
464,176,93063,1,4
256,192,93261,12,0,97011
