osu file format v12

[General]
AudioFilename: cherry my heart.mp3
AudioLeadIn: 0
PreviewTime: 55958
Countdown: 0
SampleSet: None
StackLeniency: 0.7
Mode: 1
LetterboxInBreaks: 0
WidescreenStoryboard: 1

[Editor]
Bookmarks: 4642,17274,42537,56747,82010,93063
DistanceSpacing: 1.5
BeatDivisor: 2
GridSize: 16

[Metadata]
Title:Cherry My Heart (Short Ver.)
TitleUnicode:Cherry My Heart (Short Ver.)
Artist:Kamishiro Ami
ArtistUnicode:Kamishiro Ami
Creator:Haruka
Version:Futsuu
Source:Love Delation!
Tags:sweet_serenitee makar makar8000 SMEE game
BeatmapID:344123
BeatmapSetID:137724

[Difficulty]
HPDrainRate:5
CircleSize:2
OverallDifficulty:4
ApproachRate:0
SliderMultiplier:1.2
SliderTickRate:1

[Events]
//Background and Video events
0,0,"Kohinata.Hinano.full.950564.jpg",0,120
//Break Periods
//Storyboard Layer 0 (Background)
//Storyboard Layer 1 (Fail)
//Storyboard Layer 2 (Pass)
//Storyboard Layer 3 (Foreground)
//Storyboard Sound Samples
//Background Colour Transformations
3,100,163,162,255

[TimingPoints]
1485,394.733603260155,4,1,0,80,1,0
56747,-100,4,1,0,80,0,1
82010,-100,4,1,0,80,0,0

[Colours]
Combo1 : 255,0,128
Combo2 : 255,128,192

[HitObjects]
256,192,3063,1,0,0:0:0:0:
256,192,4642,1,0,0:0:0:0:
256,192,5037,1,8,0:0:0:0:
256,192,5432,1,0,0:0:0:0:
256,192,5629,1,0,0:0:0:0:
256,192,5827,1,8,0:0:0:0:
256,192,6616,1,8,0:0:0:0:
256,192,7011,1,0,0:0:0:0:
256,192,7208,1,0,0:0:0:0:
256,192,7406,1,8,0:0:0:0:
256,192,7800,1,0,0:0:0:0:
256,192,8195,1,8,0:0:0:0:
256,192,8590,1,0,0:0:0:0:
256,192,8787,1,0,0:0:0:0:
256,192,8984,1,8,0:0:0:0:
256,192,9774,1,8,0:0:0:0:
256,192,10169,1,0,0:0:0:0:
256,192,10366,1,8,0:0:0:0:
256,192,10563,1,8,0:0:0:0:
256,192,10958,1,0,0:0:0:0:
256,192,11353,1,8,0:0:0:0:
256,192,11748,1,0,0:0:0:0:
256,192,11945,1,0,0:0:0:0:
256,192,12143,1,8,0:0:0:0:
256,192,12932,1,8,0:0:0:0:
256,192,13327,1,0,0:0:0:0:
256,192,13524,1,0,0:0:0:0:
256,192,13722,1,8,0:0:0:0:
256,192,14116,1,0,0:0:0:0:
256,192,14511,1,8,0:0:0:0:
256,192,14906,1,0,0:0:0:0:
256,192,15103,1,0,0:0:0:0:
256,192,15300,1,8,0:0:0:0:
256,192,15892,1,8,0:0:0:0:
256,192,16090,1,8,0:0:0:0:
256,192,16484,1,0,0:0:0:0:
256,192,16682,1,8,0:0:0:0:
256,192,16879,1,8,0:0:0:0:
256,192,17274,5,0,0:0:0:0:
256,192,17669,1,8,0:0:0:0:
256,192,17866,1,0,0:0:0:0:
256,192,18063,1,0,0:0:0:0:
256,192,18458,1,8,0:0:0:0:
256,192,19050,1,0,0:0:0:0:
256,192,19248,1,8,0:0:0:0:
256,192,19445,1,0,0:0:0:0:
256,192,19642,1,0,0:0:0:0:
256,192,20037,1,8,0:0:0:0:
256,192,20432,1,0,0:0:0:0:
256,192,20826,1,8,0:0:0:0:
256,192,21024,1,0,0:0:0:0:
256,192,21221,1,0,0:0:0:0:
256,192,21616,1,8,0:0:0:0:
256,192,22208,1,0,0:0:0:0:
256,192,22405,1,8,0:0:0:0:
256,192,22603,1,8,0:0:0:0:
256,192,22800,1,0,0:0:0:0:
256,192,23195,1,8,0:0:0:0:
256,192,23590,1,0,0:0:0:0:
256,192,23984,1,8,0:0:0:0:
256,192,24182,1,0,0:0:0:0:
256,192,24379,1,0,0:0:0:0:
256,192,24774,1,8,0:0:0:0:
256,192,25366,1,0,0:0:0:0:
256,192,25563,1,8,0:0:0:0:
256,192,25761,1,0,0:0:0:0:
256,192,25958,1,0,0:0:0:0:
256,192,26353,1,8,0:0:0:0:
256,192,26747,1,0,0:0:0:0:
256,192,27142,1,8,0:0:0:0:
256,192,27340,1,0,0:0:0:0:
256,192,27537,1,0,0:0:0:0:
256,192,27932,1,8,0:0:0:0:
256,192,28524,1,0,0:0:0:0:
256,192,28721,1,8,0:0:0:0:
256,192,28918,1,8,0:0:0:0:
256,192,29116,1,0,0:0:0:0:
256,192,29511,1,8,0:0:0:0:
256,192,29708,1,8,0:0:0:0:
256,192,29905,1,0,0:0:0:0:
256,192,30300,1,8,0:0:0:0:
256,192,30497,1,0,0:0:0:0:
256,192,30694,1,0,0:0:0:0:
256,192,31089,1,8,0:0:0:0:
256,192,31287,1,0,0:0:0:0:
256,192,31681,1,0,0:0:0:0:
256,192,31879,1,8,0:0:0:0:
256,192,32076,1,0,0:0:0:0:
256,192,32274,1,0,0:0:0:0:
256,192,32668,1,8,0:0:0:0:
256,192,33063,1,0,0:0:0:0:
256,192,33457,1,8,0:0:0:0:
256,192,33655,1,0,0:0:0:0:
256,192,33852,1,0,0:0:0:0:
256,192,34247,1,8,0:0:0:0:
256,192,34445,1,0,0:0:0:0:
256,192,34839,1,0,0:0:0:0:
256,192,35036,1,8,0:0:0:0:
256,192,35234,1,8,0:0:0:0:
256,192,35431,1,0,0:0:0:0:
256,192,35826,1,8,0:0:0:0:
256,192,36221,1,0,0:0:0:0:
256,192,36615,1,8,0:0:0:0:
256,192,36813,1,0,0:0:0:0:
256,192,37010,1,0,0:0:0:0:
256,192,37405,1,8,0:0:0:0:
256,192,37603,1,0,0:0:0:0:
256,192,37997,1,0,0:0:0:0:
256,192,38194,1,8,0:0:0:0:
256,192,38392,1,0,0:0:0:0:
256,192,38589,1,0,0:0:0:0:
256,192,38984,1,8,0:0:0:0:
256,192,39378,1,0,0:0:0:0:
256,192,39773,1,8,0:0:0:0:
256,192,39971,1,0,0:0:0:0:
256,192,40168,1,0,0:0:0:0:
256,192,40563,1,8,0:0:0:0:
256,192,40760,1,0,0:0:0:0:
256,192,41155,1,0,0:0:0:0:
256,192,41352,1,8,0:0:0:0:
256,192,41549,1,8,0:0:0:0:
256,192,41747,1,0,0:0:0:0:
256,192,42142,1,8,0:0:0:0:
256,192,42339,1,8,0:0:0:0:
256,192,42536,5,0,0:0:0:0:
256,192,42932,1,8,0:0:0:0:
256,192,43326,1,0,0:0:0:0:
256,192,43721,1,8,0:0:0:0:
256,192,43918,1,0,0:0:0:0:
256,192,44313,1,0,0:0:0:0:
256,192,44510,1,8,0:0:0:0:
256,192,44905,1,0,0:0:0:0:
256,192,45103,1,0,0:0:0:0:
256,192,45300,1,8,0:0:0:0:
256,192,45695,1,0,0:0:0:0:
256,192,46089,1,8,0:0:0:0:
256,192,46484,1,0,0:0:0:0:
256,192,46879,1,8,0:0:0:0:
256,192,47076,1,0,0:0:0:0:
256,192,47471,1,0,0:0:0:0:
256,192,47668,1,8,0:0:0:0:
256,192,48063,1,0,0:0:0:0:
256,192,48260,1,8,0:0:0:0:
256,192,48458,1,8,0:0:0:0:
256,192,48853,1,0,0:0:0:0:
256,192,49247,1,8,0:0:0:0:
256,192,49445,1,0,0:0:0:0:
256,192,49839,1,0,0:0:0:0:
256,192,50037,1,8,0:0:0:0:
256,192,50234,1,0,0:0:0:0:
256,192,50629,1,0,0:0:0:0:
256,192,50826,1,8,0:0:0:0:
256,192,51221,1,0,0:0:0:0:
256,192,51418,1,0,0:0:0:0:
256,192,51616,1,8,0:0:0:0:
256,192,51813,1,0,0:0:0:0:
256,192,52208,1,0,0:0:0:0:
256,192,52405,1,8,0:0:0:0:
256,192,52800,1,0,0:0:0:0:
256,192,52997,1,8,0:0:0:0:
256,192,53195,1,8,0:0:0:0:
256,192,53392,1,0,0:0:0:0:
256,192,53787,1,0,0:0:0:0:
256,192,53984,1,8,0:0:0:0:
256,192,54181,1,0,0:0:0:0:
256,192,54379,1,0,0:0:0:0:
256,192,54774,1,8,0:0:0:0:
256,192,55168,1,0,0:0:0:0:
256,192,55958,1,8,0:0:0:0:
256,192,56352,1,8,0:0:0:0:
256,192,56550,1,8,0:0:0:0:
256,192,56747,5,0,0:0:0:0:
256,192,57142,1,8,0:0:0:0:
256,192,57339,1,0,0:0:0:0:
256,192,57537,1,0,0:0:0:0:
256,192,57931,1,8,0:0:0:0:
256,192,58129,1,0,0:0:0:0:
256,192,58524,1,8,0:0:0:0:
256,192,58721,1,8,0:0:0:0:
256,192,58918,1,0,0:0:0:0:
256,192,59313,1,0,0:0:0:0:
256,192,59510,1,8,0:0:0:0:
256,192,59905,1,0,0:0:0:0:
256,192,60300,1,8,0:0:0:0:
256,192,60497,1,0,0:0:0:0:
256,192,60695,1,0,0:0:0:0:
256,192,61089,1,8,0:0:0:0:
256,192,61287,1,0,0:0:0:0:
256,192,61682,1,8,0:0:0:0:
256,192,61879,1,8,0:0:0:0:
256,192,62076,1,0,0:0:0:0:
256,192,62273,1,0,0:0:0:0:
256,192,62668,1,8,0:0:0:0:
256,192,62866,1,0,0:0:0:0:
256,192,63063,1,0,0:0:0:0:
256,192,63458,1,8,0:0:0:0:
256,192,63655,1,0,0:0:0:0:
256,192,63853,1,0,0:0:0:0:
256,192,64247,1,8,0:0:0:0:
256,192,64445,1,0,0:0:0:0:
256,192,64839,1,0,0:0:0:0:
256,192,65037,1,8,0:0:0:0:
256,192,65234,1,0,0:0:0:0:
256,192,65431,1,0,0:0:0:0:
256,192,65826,1,8,0:0:0:0:
256,192,66023,1,0,0:0:0:0:
256,192,66418,1,0,0:0:0:0:
256,192,66616,1,8,0:0:0:0:
256,192,67010,1,0,0:0:0:0:
256,192,67208,1,0,0:0:0:0:
256,192,67405,1,8,0:0:0:0:
256,192,67602,1,0,0:0:0:0:
256,192,67997,1,0,0:0:0:0:
256,192,68194,1,8,0:0:0:0:
256,192,68392,1,0,0:0:0:0:
256,192,68589,1,8,0:0:0:0:
256,192,68984,1,8,0:0:0:0:
256,192,69181,1,8,0:0:0:0:
256,192,69379,1,0,0:0:0:0:
256,192,69773,1,8,0:0:0:0:
256,192,69970,1,0,0:0:0:0:
256,192,70168,1,0,0:0:0:0:
256,192,70562,1,8,0:0:0:0:
256,192,70760,1,0,0:0:0:0:
256,192,71155,1,8,0:0:0:0:
256,192,71352,1,8,0:0:0:0:
256,192,71549,1,0,0:0:0:0:
256,192,71944,1,0,0:0:0:0:
256,192,72141,1,8,0:0:0:0:
256,192,72536,1,0,0:0:0:0:
256,192,72931,1,8,0:0:0:0:
256,192,73128,1,0,0:0:0:0:
256,192,73326,1,0,0:0:0:0:
256,192,73720,1,8,0:0:0:0:
256,192,73918,1,0,0:0:0:0:
256,192,74313,1,8,0:0:0:0:
256,192,74510,1,8,0:0:0:0:
256,192,74707,1,0,0:0:0:0:
256,192,74905,1,0,0:0:0:0:
256,192,75299,1,8,0:0:0:0:
256,192,75497,1,0,0:0:0:0:
256,192,75694,1,0,0:0:0:0:
256,192,76089,1,8,0:0:0:0:
256,192,76287,1,0,0:0:0:0:
256,192,76484,1,0,0:0:0:0:
256,192,76681,1,0,0:0:0:0:
256,192,76879,1,8,0:0:0:0:
256,192,77273,1,0,0:0:0:0:
256,192,77668,1,8,0:0:0:0:
256,192,77865,1,0,0:0:0:0:
256,192,78063,1,0,0:0:0:0:
256,192,78458,1,8,0:0:0:0:
256,192,78655,1,8,0:0:0:0:
256,192,78852,1,0,0:0:0:0:
256,192,79247,1,8,0:0:0:0:
256,192,79444,1,0,0:0:0:0:
256,192,79642,1,0,0:0:0:0:
256,192,80036,1,8,0:0:0:0:
256,192,80234,1,0,0:0:0:0:
256,192,80629,1,8,0:0:0:0:
256,192,80826,1,8,0:0:0:0:
256,192,81023,1,0,0:0:0:0:
256,192,81221,1,8,0:0:0:0:
256,192,81615,1,8,0:0:0:0:
256,192,81813,1,8,0:0:0:0:
256,192,82010,5,0,0:0:0:0:
256,192,82405,1,8,0:0:0:0:
256,192,82800,1,0,0:0:0:0:
256,192,82997,1,0,0:0:0:0:
256,192,83194,1,8,0:0:0:0:
256,192,83589,1,0,0:0:0:0:
256,192,83786,1,8,0:0:0:0:
256,192,83984,1,8,0:0:0:0:
256,192,84379,1,0,0:0:0:0:
256,192,84773,1,8,0:0:0:0:
256,192,85168,1,0,0:0:0:0:
256,192,85563,1,8,0:0:0:0:
256,192,85957,1,0,0:0:0:0:
256,192,86155,1,0,0:0:0:0:
256,192,86352,1,8,0:0:0:0:
256,192,86747,1,0,0:0:0:0:
256,192,86944,1,8,0:0:0:0:
256,192,87142,1,8,0:0:0:0:
256,192,87536,1,8,0:0:0:0:
256,192,87931,1,8,0:0:0:0:
256,192,88326,1,0,0:0:0:0:
256,192,88721,1,8,0:0:0:0:
256,192,89115,1,0,0:0:0:0:
256,192,89313,1,0,0:0:0:0:
256,192,89510,1,8,0:0:0:0:
256,192,89905,1,0,0:0:0:0:
256,192,90300,1,8,0:0:0:0:
256,192,90694,1,0,0:0:0:0:
256,192,90892,1,0,0:0:0:0:
256,192,91089,1,8,0:0:0:0:
256,192,91286,1,8,0:0:0:0:
256,192,91484,1,0,0:0:0:0:
256,192,91878,1,8,0:0:0:0:
256,192,92273,1,8,0:0:0:0:
256,192,92668,1,8,0:0:0:0:
256,192,92865,1,8,0:0:0:0:
256,192,93063,1,0,0:0:0:0:
