osu file format v12

[General]
AudioFilename: Cherry My Heart.mp3
AudioLeadIn: 2000
PreviewTime: 125938
Countdown: 0
SampleSet: Soft
StackLeniency: 0.7
Mode: 0
LetterboxInBreaks: 1

[Editor]
Bookmarks: 16300
DistanceSpacing: 1.1
BeatDivisor: 4
GridSize: 4

[Metadata]
Title:Cherry My Heart
TitleUnicode:Cherry My Heart
Artist:Kamishiro Ami
ArtistUnicode:Kamishiro Ami
Creator:Rare
Version:Hard
Source:Love Delation!
Tags:SMEE game Cilvery
BeatmapID:220107
BeatmapSetID:71963

[Difficulty]
HPDrainRate:5
CircleSize:4
OverallDifficulty:6
ApproachRate:7
SliderMultiplier:1.5
SliderTickRate:2

[Events]
//Background and Video events
0,0,"moe.jpg",0,0
//Break Periods
2,81237,86453
//Storyboard Layer 0 (Background)
//Storyboard Layer 1 (Fail)
//Storyboard Layer 2 (Pass)
//Storyboard Layer 3 (Foreground)
//Storyboard Sound Samples
//Background Colour Transformations
3,100,163,162,255

[TimingPoints]
2090,394.736842105263,4,2,1,100,1,0
5642,-100,4,2,4,80,0,0
5839,-100,4,2,1,100,0,0
55774,-100,4,2,1,100,0,1
57550,-100,4,2,5,100,0,1
58734,-100,4,2,1,100,0,1
60313,-100,4,2,5,100,0,1
61497,-100,4,2,5,80,0,1
62089,-100,4,2,1,100,0,1
68405,-100,4,2,1,100,0,1
69787,-100,4,2,5,100,0,1
70971,-100,4,2,5,80,0,1
71168,-100,4,2,5,100,0,1
71563,-100,4,2,1,100,0,1
73339,-100,4,2,5,80,0,1
73537,-100,4,2,5,100,0,1
74721,-100,4,2,1,100,0,1
77879,-100,4,2,1,100,0,0
126826,-100,4,2,1,100,0,1
128405,-100,4,2,5,100,0,1
129392,-100,4,2,5,80,0,1
129589,-100,4,2,5,100,0,1
129787,-100,4,2,1,100,0,1
131366,-100,4,2,5,100,0,1
133142,-100,4,2,1,100,0,1
140839,-100,4,2,5,100,0,1
142024,-100,4,2,5,80,0,1
142221,-100,4,2,5,100,0,1
142418,-100,4,2,1,100,0,1
144195,-100,4,2,5,100,0,1
145774,-100,4,2,1,100,0,1
148932,-100,4,2,1,100,0,0
164524,-125,4,2,1,100,0,0
173997,-100,4,2,1,100,0,0
177353,-100,4,2,1,100,0,1
178734,-100,4,2,5,100,0,1
179918,-100,4,2,5,80,0,1
180313,-100,4,2,1,100,0,1
181892,-100,4,2,5,100,0,1
183668,-100,4,2,1,100,0,1
189984,-100,4,2,1,100,0,0
192550,-100,4,2,4,100,0,0
192747,-100,4,2,1,100,0,0
195708,-100,4,2,4,90,0,0
195905,-100,4,2,1,100,0,0
204195,-100,4,2,1,5,0,0

[Colours]
Combo1 : 255,128,192
Combo2 : 255,255,128
Combo3 : 0,128,255
Combo4 : 255,128,128

[HitObjects]
32,232,2090,1,4,0:0:0:0:
112,252,2287,1,0,0:0:0:0:
180,300,2484,2,0,P|216:308|260:300,1,75,2|0,0:0|0:0,0:0:0:0:
312,360,2879,2,0,P|343:340|368:303,1,75,2|0,0:0|0:0,0:0:0:0:
448,296,3274,2,0,P|452:252|444:208,1,75,8|0,0:0|0:0,0:0:0:0:
432,196,3570,1,2,0:0:0:0:
412,172,3668,6,0,P|408:128|416:84,1,75,4|0,0:0|0:0,0:0:0:0:
488,64,4063,2,0,P|492:108|484:152,1,75,10|0,0:0|0:0,0:0:0:0:
388,252,4458,1,2,0:0:0:0:
324,304,4655,2,0,P|288:312|244:304,1,75,2|8,0:0|0:0,0:0:0:0:
176,268,5050,2,0,P|116:224|44:232,2,150,2|2|2,0:0|0:0|0:0,0:0:0:0:
164,348,6037,1,0,0:0:0:0:
92,308,6234,1,2,0:0:0:0:
92,308,6432,1,8,0:0:0:0:
12,164,6826,6,0,L|16:84,1,75,2|0,0:0|0:0,0:0:0:0:
32,8,7221,2,0,P|96:56|168:48,1,150,2|2,0:0|0:0,0:0:0:0:
236,88,7813,2,0,L|312:84,1,75,2|8,0:0|0:0,0:0:0:0:
372,28,8208,2,0,P|400:84|356:156,1,150,2|2,0:0|0:0,0:0:0:0:
296,204,8800,2,0,L|300:292,1,75,8|2,0:0|0:0,0:0:0:0:
304,360,9195,1,0,0:0:0:0:
232,320,9392,1,8,0:0:0:0:
232,320,9589,1,8,0:0:0:0:
396,340,9984,6,0,P|468:324|492:244,2,150,2|10|2,0:0|0:0|0:0,0:0:0:0:
316,324,10971,1,2,0:0:0:0:
316,324,11168,1,8,0:0:0:0:
272,256,11366,2,0,P|236:248|196:252,1,75,2|0,0:0|0:0,0:0:0:0:
168,328,11761,2,0,P|130:331|94:323,1,75,2|8,0:0|0:0,0:0:0:0:
20,356,12155,2,0,P|12:284|72:244,1,150,2|8,0:0|0:0,0:0:0:0:
152,244,12747,1,10,0:0:0:0:
300,168,13142,5,2,0:0:0:0:
376,136,13339,1,2,0:0:0:0:
456,164,13537,2,0,P|463:208|456:248,1,75,10|2,0:0|0:0,0:0:0:0:
424,312,13932,1,0,0:0:0:0:
352,348,14129,2,0,P|344:304|352:264,1,75,2|10,0:0|0:0,0:0:0:0:
416,228,14524,6,0,P|344:248|288:200,1,150,2|8,0:0|0:0,0:0:0:0:
284,120,15116,1,8,0:0:0:0:
136,48,15511,2,0,L|168:20,2,37.5,0|0|8,0:0|0:0|0:0,0:0:0:0:
192,120,15905,1,8,0:0:0:0:
108,128,16103,5,0,0:0:0:0:
108,128,16201,1,0,0:0:0:0:
108,128,16300,2,0,P|92:164|88:204,1,75,4|0,0:0|0:0,0:0:0:0:
128,272,16695,2,0,P|188:316|264:292,2,150,8|0|8,0:0|0:0|0:0,0:0:0:0:
204,240,17682,2,0,P|144:196|68:220,1,150
12,264,18274,2,0,P|-4:228|0:180,1,75,8|0,0:0|0:0,0:0:0:0:
48,128,18668,2,0,L|36:84,2,37.5,0|8|0,0:0|0:0|0:0,0:0:0:0:
75,213,19063,1,8,0:0:0:0:
100,292,19261,5,0,0:0:0:0:
164,340,19458,2,0,P|216:352|300:312,1,150,0|8,0:0|0:0,0:0:0:0:
340,240,20050,1,0,0:0:0:0:
388,308,20247,2,0,P|424:312|464:304,1,75
504,236,20642,1,8,0:0:0:0:
480,156,20839,2,0,P|448:96|372:84,1,150
312,140,21432,2,0,P|276:148|236:144,1,75,8|0,0:0|0:0,0:0:0:0:
192,76,21826,2,0,L|176:40,2,37.5,0|8|0,0:0|0:0|0:0,0:0:0:0:
160,152,22221,1,8,0:0:0:0:
84,164,22418,5,0,0:0:0:0:
112,88,22616,1,0,0:0:0:0:
124,236,22813,2,0,P|120:276|128:312,1,75,0|8,0:0|0:0,0:0:0:0:
196,356,23208,2,0,P|264:372|328:316,1,150,0|0,0:0|0:0,0:0:0:0:
248,288,23800,1,8,0:0:0:0:
300,224,23997,2,0,P|232:208|168:264,1,150
120,316,24589,6,0,P|84:320|40:312,1,75,8|0,0:0|0:0,0:0:0:0:
8,240,24984,1,0,0:0:0:0:
8,240,25083,1,8,0:0:0:0:
8,240,25182,1,0,0:0:0:0:
24,160,25379,2,0,L|36:84,1,75,8|0,0:0|0:0,0:0:0:0:
80,16,25774,6,0,P|128:72|212:64,1,150,0|8,0:0|0:0,0:0:0:0:
276,40,26366,1,0,0:0:0:0:
208,164,26563,2,0,P|196:200|200:244,1,75
236,312,26958,1,8,0:0:0:0:
300,364,27155,6,0,P|392:376|432:336,1,150,2|0,0:0|0:0,0:0:0:0:
356,304,27747,1,8,0:0:0:0:
424,256,27945,1,2,0:0:0:0:
440,176,28142,2,0,L|464:140,2,37.5
359,196,28537,2,0,P|323:191|290:172,1,75,10|0,0:0|0:0,0:0:0:0:
248,100,28932,6,0,P|188:60|112:72,2,150,4|8|0,0:0|0:0|0:0,0:0:0:0:
196,164,29918,2,0,L|188:238,1,75,0|8,0:0|0:0,0:0:0:0:
136,300,30313,2,0,P|196:340|272:328,1,150,0|0,0:0|0:0,0:0:0:0:
324,256,30905,1,8,0:0:0:0:
396,296,31103,1,0,0:0:0:0:
396,216,31300,2,0,L|424:188,2,37.5,0|8|0,0:0|0:0|0:0,0:0:0:0:
324,176,31695,1,8,0:0:0:0:
304,96,31892,1,0,0:0:0:0:
244,152,32089,6,0,P|180:168|108:132,2,150,0|8|0,0:0|0:0|0:0,0:0:0:0:
304,96,33076,2,0,L|384:88,1,75,0|8,0:0|0:0,0:0:0:0:
460,72,33471,2,0,P|504:132|484:208,1,150
420,248,34063,1,8,0:0:0:0:
436,328,34261,1,0,0:0:0:0:
364,364,34458,2,0,L|324:372,2,37.5,0|8|0,0:0|0:0|0:0,0:0:0:0:
436,328,34853,1,8,0:0:0:0:
420,248,35050,5,0,0:0:0:0:
420,248,35247,1,0,0:0:0:0:
344,280,35445,2,0,P|308:292|264:284,1,75,0|8,0:0|0:0,0:0:0:0:
228,356,35839,2,0,P|188:296|208:224,1,150
264,164,36432,1,8,0:0:0:0:
338,204,36629,6,0,P|278:243|206:223,1,150,4|0,0:0|0:0,0:0:0:0:
136,268,37221,2,0,L|124:188,1,75,8|0,0:0|0:0,0:0:0:0:
116,112,37616,1,0,0:0:0:0:
116,112,37714,1,8,0:0:0:0:
116,112,37813,1,0,0:0:0:0:
188,156,38011,1,8,0:0:0:0:
104,32,38208,1,0,0:0:0:0:
44,88,38405,6,0,P|56:160|132:188,2,150,4|10|2,0:0|0:0|0:0,0:0:0:0:
104,32,39392,1,0,0:0:0:0:
116,112,39589,1,8,0:0:0:0:
188,152,39787,6,0,P|260:164|312:104,1,150,4|0,0:0|0:0,0:0:0:0:
232,84,40379,1,8,0:0:0:0:
280,20,40576,2,0,P|208:8|156:68,1,150,4|0,0:0|0:0,0:0:0:0:
160,140,41168,2,0,L|156:224,1,75,8|0,0:0|0:0,0:0:0:0:
152,296,41563,6,0,P|224:328|292:296,1,150,4|8,0:0|0:0,0:0:0:0:
324,228,42155,2,0,P|385:202|457:234,1,150,0|0,0:0|0:0,0:0:0:0:
504,304,42747,1,8,0:0:0:0:
432,348,42945,2,0,P|404:324|392:284,1,75,4|0,0:0|0:0,0:0:0:0:
324,228,43339,1,0,0:0:0:0:
304,148,43537,2,0,P|252:100|176:112,1,150,8|0,0:0|0:0,0:0:0:0:
152,140,44030,1,8,0:0:0:0:
120,172,44129,2,0,P|100:140|100:92,2,75,0|8|0,0:0|0:0|0:0,0:0:0:0:
200,188,44721,6,0,L|192:276,1,75
176,344,45116,2,0,P|108:360|44:320,2,150,8|0|8,0:0|0:0|0:0,0:0:0:0:
256,316,46103,2,0,P|324:300|388:340,1,150,4|0,0:0|0:0,0:0:0:0:
388,340,46695,1,8,0:0:0:0:
472,332,46892,2,0,P|456:264|496:200,1,150
496,199,47484,1,8,0:0:0:0:
508,116,47682,1,0,0:0:0:0:
432,144,47879,6,0,P|396:156|356:152,1,75,4|0,0:0|0:0,0:0:0:0:
284,120,48274,1,8,0:0:0:0:
224,64,48471,2,0,P|156:40|96:80,1,150
168,128,49063,1,8,0:0:0:0:
108,184,49261,2,0,P|176:208|236:168,1,150,4|0,0:0|0:0,0:0:0:0:
168,128,49853,1,8,0:0:0:0:
276,236,50050,2,0,P|313:174|286:107,1,150
236,167,50642,1,8,0:0:0:0:
196,240,50839,6,0,P|212:296|300:312,1,150,4|0,0:0|0:0,0:0:0:0:
364,356,51432,2,0,L|408:288,1,75,8|0,0:0|0:0,0:0:0:0:
488,304,51826,2,0,L|471:224,1,75
444,152,52221,1,8,0:0:0:0:
392,216,52418,6,0,P|304:216|264:168,1,150,4|0,0:0|0:0,0:0:0:0:
260,92,53011,2,0,L|184:92,1,75,8|0,0:0|0:0,0:0:0:0:
124,36,53405,2,0,P|92:100|140:168,1,150,0|8,0:0|0:0,0:0:0:0:
200,204,53997,5,8,0:0:0:0:
200,204,54096,1,0,0:0:0:0:
200,204,54195,2,0,L|193:278,1,75,4|0,0:0|0:0,0:0:0:0:
268,160,54589,2,0,L|274:85,1,75,10|0,0:0|0:0,0:0:0:0:
328,24,54984,2,0,P|368:16|404:20,1,75,2|0,0:0|0:0,0:0:0:0:
435,95,55379,1,10,0:0:0:0:
435,95,55478,1,0,0:0:0:0:
435,95,55576,1,0,0:0:0:0:
356,120,55774,5,4,0:0:0:0:
340,200,55971,2,0,P|304:216|260:212,1,75,0|8,0:0|0:0,0:0:0:0:
192,184,56366,1,2,0:0:0:0:
136,120,56563,1,2,0:0:0:0:
60,156,56761,2,0,P|52:120|60:80,1,75,0|8,0:0|0:0,0:0:0:0:
132,40,57155,1,2,0:0:0:0:
204,84,57353,6,0,P|212:120|204:160,1,75,2|10,0:0|0:0,0:0:0:0:
136,204,57747,1,10,0:0:0:0:
68,252,57945,2,0,P|60:288|66:325,1,75,2|2,0:0|0:0,0:0:0:0:
132,376,58339,2,0,P|168:384|205:377,1,75,8|8,0:0|0:0,0:0:0:0:
268,324,58734,5,2,0:0:0:0:
336,276,58932,2,0,P|373:269|409:277,1,75,2|0,0:0|0:0,0:0:0:0:
448,348,59326,1,8,0:0:0:0:
368,364,59524,1,2,0:0:0:0:
368,364,59721,1,2,0:0:0:0:
440,208,59918,2,0,P|471:229|490:260,1,75,0|8,0:0|0:0,0:0:0:0:
508,340,60313,5,2,0:0:0:0:
428,324,60511,2,0,L|348:320,1,75,2|10,0:0|0:0,0:0:0:0:
221,263,60905,2,0,L|296:260,1,75,10|2,0:0|0:0,0:0:0:0:
356,204,61300,2,0,P|388:140|356:68,1,150,2|8,0:0|0:0,0:0:0:0:
200,32,62089,6,0,P|168:96|200:168,1,150,4|8,0:0|0:0,0:0:0:0:
175,258,62682,2,0,P|215:250|244:232,1,75
276,156,63076,2,0,L|356:156,1,75,0|8,0:0|0:0,0:0:0:0:
404,92,63471,2,0,P|436:156|388:224,1,150,4|0,0:0|0:0,0:0:0:0:
320,236,64063,2,0,L|304:316,1,75,8|0,0:0|0:0,0:0:0:0:
240,360,64458,2,0,P|200:364|160:356,1,75
92,320,64853,1,8,0:0:0:0:
164,280,65050,6,0,P|120:240|36:260,1,150,4|0,0:0|0:0,0:0:0:0:
37,258,65642,2,0,L|16:180,1,75,8|0,0:0|0:0,0:0:0:0:
113,81,66037,2,0,L|94:154,1,75,0|0,0:0|0:0,0:0:0:0:
164,200,66432,2,0,L|240:204,1,75,8|0,0:0|0:0,0:0:0:0:
312,168,66826,2,0,P|320:204|312:244,1,75,2|0,0:0|0:0,0:0:0:0:
244,288,67221,2,0,P|308:328|376:296,2,150,8|8|8,0:0|0:0|0:0,0:0:0:0:
208,212,68208,1,0,0:0:0:0:
148,156,68405,6,0,P|112:144|72:148,1,75,4|0,0:0|0:0,0:0:0:0:
208,212,68800,2,0,P|244:224|284:220,1,75,8|2,0:0|0:0,0:0:0:0:
288,140,69195,2,0,P|347:97|422:117,1,150,2|8,0:0|0:0,0:0:0:0:
480,168,69787,1,2,0:0:0:0:
496,248,69984,2,0,L|484:324,1,75,2|10,0:0|0:0,0:0:0:0:
356,268,70379,2,0,L|367:193,1,75,10|2,0:0|0:0,0:0:0:0:
396,348,70774,2,0,P|328:356|276:300,1,150,2|8,0:0|0:0,0:0:0:0:
268,220,71366,1,2,0:0:0:0:
196,256,71563,6,0,P|160:260|120:248,1,75,2|0,0:0|0:0,0:0:0:0:
48,216,71958,1,8,0:0:0:0:
20,140,72155,1,2,0:0:0:0:
104,148,72353,2,0,P|140:144|180:156,1,75,2|0,0:0|0:0,0:0:0:0:
324,194,72747,2,0,P|288:198|252:188,1,75,8|2,0:0|0:0,0:0:0:0:
296,116,73142,6,0,P|368:120|408:180,1,150,2|8,0:0|0:0,0:0:0:0:
384,260,73734,1,0,0:0:0:0:
332,324,73932,2,0,P|292:332|256:324,1,75,0|8,0:0|0:0,0:0:0:0:
200,268,74326,2,0,P|160:260|124:268,1,75,8|0,0:0|0:0,0:0:0:0:
64,320,74721,6,0,P|24:256|44:180,1,150,4|8,0:0|0:0,0:0:0:0:
104,132,75313,1,0,0:0:0:0:
184,156,75511,2,0,P|268:168|316:120,1,150,0|8,0:0|0:0,0:0:0:0:
352,56,76103,1,0,0:0:0:0:
400,124,76300,2,0,L|408:200,1,75,4|0,0:0|0:0,0:0:0:0:
416,280,76695,2,0,P|352:312|280:280,2,150,0|0|8,0:0|0:0|0:0,0:0:0:0:
256,192,77879,12,4,81037,0:0:0:0:
224,120,87353,6,0,P|188:108|152:112,1,75,4|0,0:0|0:0,0:0:0:0:
108,184,87747,2,0,P|36:168|4:96,2,150,8|0|8,0:0|0:0|0:0,0:0:0:0:
184,220,88734,1,0,0:0:0:0:
264,196,88932,2,0,L|268:276,1,75
272,352,89326,1,8,0:0:0:0:
340,308,89524,1,0,0:0:0:0:
420,320,89721,1,0,0:0:0:0:
420,320,89820,1,8,0:0:0:0:
420,320,89918,2,0,P|432:272|428:240,1,75,0|8,0:0|0:0,0:0:0:0:
420,164,90313,5,0,0:0:0:0:
336,168,90511,2,0,L|260:168,1,75
220,240,90905,2,0,P|176:180|208:104,1,150,8|0,0:0|0:0,0:0:0:0:
276,88,91497,1,0,0:0:0:0:
256,168,91695,1,8,0:0:0:0:
220,240,91892,2,0,P|180:248|140:240,1,75
180,168,92287,1,0,0:0:0:0:
272,176,92484,2,0,P|296:208|300:248,1,75,8|0,0:0|0:0,0:0:0:0:
288,324,92879,2,0,P|352:356|420:324,1,150,0|8,0:0|0:0,0:0:0:0:
472,264,93471,5,0,0:0:0:0:
392,148,93668,1,0,0:0:0:0:
468,176,93866,2,0,P|471:131|462:102,1,75,0|8,0:0|0:0,0:0:0:0:
312,140,94261,2,0,P|324:203|405:223,1,150,0|0,0:0|0:0,0:0:0:0:
392,148,94853,1,8,0:0:0:0:
360,72,95050,6,0,P|268:68|236:108,1,150,0|0,0:0|0:0,0:0:0:0:
212,188,95642,1,8,0:0:0:0:
216,272,95839,1,0,0:0:0:0:
296,296,96037,2,0,L|288:336,2,37.5,0|8|0,0:0|0:0|0:0,0:0:0:0:
352,236,96432,2,0,L|432:236,1,75,8|0,0:0|0:0,0:0:0:0:
508,236,96826,6,0,P|516:172|452:112,1,150,0|8,0:0|0:0,0:0:0:0:
380,88,97418,1,0,0:0:0:0:
304,208,97616,2,0,P|268:216|228:208,1,75
160,168,98011,1,8,0:0:0:0:
164,252,98208,6,0,P|96:228|80:152,1,150,2|0,0:0|0:0,0:0:0:0:
160,168,98800,1,8,0:0:0:0:
156,84,98997,2,0,P|224:108|240:184,1,150,2|0,0:0|0:0,0:0:0:0:
248,260,99589,2,0,P|280:276|320:276,1,75,10|0,0:0|0:0,0:0:0:0:
340,264,99886,1,0,0:0:0:0:
364,252,99984,6,0,L|444:252,1,75,4|0,0:0|0:0,0:0:0:0:
464,172,100379,2,0,L|312:172,1,150,8|0,0:0|0:0,0:0:0:0:
232,172,100971,1,0,0:0:0:0:
180,236,101168,2,0,P|144:244|100:240,1,75,8|0,0:0|0:0,0:0:0:0:
28,212,101563,2,0,P|0:144|32:80,1,150,0|8,0:0|0:0,0:0:0:0:
112,60,102155,1,0,0:0:0:0:
104,144,102353,2,0,L|104:196,2,37.5,0|8|0,0:0|0:0|0:0,0:0:0:0:
176,108,102747,2,0,P|212:100|256:104,1,75,8|0,0:0|0:0,0:0:0:0:
312,156,103142,6,0,P|384:172|448:120,2,150,0|8|0,0:0|0:0|0:0,0:0:0:0:
232,180,104129,2,0,L|232:256,1,75,0|8,0:0|0:0,0:0:0:0:
228,336,104524,1,0,0:0:0:0:
228,336,104918,1,0,0:0:0:0:
300,292,105116,2,0,P|332:284|384:292,1,75,8|0,0:0|0:0,0:0:0:0:
440,336,105511,2,0,P|388:288|400:212,1,150,0|8,0:0|0:0,0:0:0:0:
464,168,106103,6,0,P|496:144|512:108,2,75
388,132,106695,1,8,0:0:0:0:
360,56,106892,2,0,P|296:24|224:56,1,150
292,104,107484,1,8,0:0:0:0:
228,52,107682,6,0,P|164:20|92:52,1,150,4|0,0:0|0:0,0:0:0:0:
160,100,108274,2,0,L|140:176,1,75,8|0,0:0|0:0,0:0:0:0:
116,252,108668,1,0,0:0:0:0:
116,252,108767,1,8,0:0:0:0:
116,252,108866,1,0,0:0:0:0:
68,320,109063,1,8,0:0:0:0:
32,244,109261,1,0,0:0:0:0:
152,328,109458,6,0,P|204:340|272:280,1,150,4|10,0:0|0:0,0:0:0:0:
280,200,110050,1,0,0:0:0:0:
340,144,110247,2,0,P|384:132|420:136,2,75,0|0|2,0:0|0:0|0:0,0:0:0:0:
200,196,110839,6,0,P|164:132|188:64,1,150,4|2,0:0|0:0,0:0:0:0:
248,124,111432,1,10,0:0:0:0:
359,233,111629,2,0,P|303:280|231:269,1,150,2|0,0:0|0:0,0:0:0:0:
280,200,112222,1,8,0:0:0:0:
200,188,112418,5,0,0:0:0:0:
200,188,112517,1,0,0:0:0:0:
200,188,112616,2,0,P|160:196|124:192,1,75,4|0,0:0|0:0,0:0:0:0:
76,124,113011,1,8,0:0:0:0:
76,124,113208,2,0,P|40:188|68:256,1,150
128,308,113800,1,8,0:0:0:0:
200,348,113997,6,0,L|360:344,1,150,4|0,0:0|0:0,0:0:0:0:
420,384,114589,2,0,P|428:344|424:308,1,75,8|0,0:0|0:0,0:0:0:0:
432,228,114984,2,0,L|456:200,2,37.5,0|8|0,0:0|0:0|0:0,0:0:0:0:
356,260,115379,2,0,P|332:228|324:184,1,75,8|0,0:0|0:0,0:0:0:0:
376,128,115774,6,0,P|320:176|244:152,1,150,0|8,0:0|0:0,0:0:0:0:
196,96,116366,1,0,0:0:0:0:
116,120,116563,1,0,0:0:0:0:
56,64,116761,1,0,0:0:0:0:
134,39,116958,1,8,0:0:0:0:
176,176,117155,6,0,P|136:200|48:160,1,150,4|0,0:0|0:0,0:0:0:0:
48,161,117747,2,0,L|40:240,1,75,8|0,0:0|0:0,0:0:0:0:
36,320,118142,2,0,L|12:348,2,37.5,0|8|0,0:0|0:0|0:0,0:0:0:0:
112,288,118537,2,0,P|148:284|188:288,1,75,8|0,0:0|0:0,0:0:0:0:
252,336,118932,6,0,P|324:352|388:300,1,150,4|8,0:0|0:0,0:0:0:0:
380,228,119524,1,0,0:0:0:0:
305,265,119721,2,0,P|300:228|309:189,1,75
376,144,120116,1,8,0:0:0:0:
304,108,120313,6,0,P|361:62|433:83,1,150,4|0,0:0|0:0,0:0:0:0:
460,160,120905,1,8,0:0:0:0:
480,240,121103,2,0,L|488:276,4,37.5,0|8|0|8|0,0:0|0:0|0:0|0:0|0:0,0:0:0:0:
460,160,121695,1,8,0:0:0:0:
400,216,121892,6,0,P|332:240|268:200,1,150,4|0,0:0|0:0,0:0:0:0:
208,132,122484,2,0,L|188:204,1,75,8|0,0:0|0:0,0:0:0:0:
160,284,122879,1,0,0:0:0:0:
160,284,122978,1,8,0:0:0:0:
160,284,123076,1,0,0:0:0:0:
108,220,123274,1,8,0:0:0:0:
24,224,123471,6,0,P|0:156|32:84,1,150,4|0,0:0|0:0,0:0:0:0:
92,32,124063,2,0,P|108:64|108:108,1,75,8|0,0:0|0:0,0:0:0:0:
108,128,124359,1,0,0:0:0:0:
108,156,124458,2,0,L|104:200,2,37.5,0|8|0,0:0|0:0|0:0,0:0:0:0:
188,124,124853,2,0,P|228:112|272:116,1,75,8|8,0:0|0:0,0:0:0:0:
284,120,125149,1,8,0:0:0:0:
304,132,125247,6,0,P|344:144|388:140,1,75,4|0,0:0|0:0,0:0:0:0:
448,100,125642,2,0,P|460:140|456:180,1,75,10|0,0:0|0:0,0:0:0:0:
496,244,126037,2,0,P|493:285|476:321,1,75,2|0,0:0|0:0,0:0:0:0:
396,308,126432,1,10,0:0:0:0:
396,308,126530,1,8,0:0:0:0:
396,308,126629,1,0,0:0:0:0:
324,348,126826,6,0,P|288:356|248:352,1,75,4|0,0:0|0:0,0:0:0:0:
204,284,127221,2,0,P|168:276|128:280,1,75,8|2,0:0|0:0,0:0:0:0:
56,312,127616,1,2,0:0:0:0:
8,244,127813,1,0,0:0:0:0:
4,160,128011,2,0,P|0:124|4:84,1,75,8|2,0:0|0:0,0:0:0:0:
68,32,128405,5,2,0:0:0:0:
80,200,128603,1,10,0:0:0:0:
88,116,128800,1,10,0:0:0:0:
152,64,128997,1,2,0:0:0:0:
232,40,129195,2,0,P|304:36|360:88,1,150,2|8,0:0|0:0,0:0:0:0:
380,164,129787,5,2,0:0:0:0:
300,140,129984,1,2,0:0:0:0:
448,208,130182,2,0,L|528:208,1,75,0|8,0:0|0:0,0:0:0:0:
376,248,130576,1,2,0:0:0:0:
300,140,130774,1,2,0:0:0:0:
296,224,130971,2,0,L|216:224,1,75,0|8,0:0|0:0,0:0:0:0:
140,224,131366,5,2,0:0:0:0:
140,90,131563,1,2,0:0:0:0:
188,157,131761,1,10,0:0:0:0:
61,198,131958,1,10,0:0:0:0:
61,116,132155,1,2,0:0:0:0:
192,32,132353,2,0,L|236:24,2,37.5,2|0|8,0:0|0:0|0:0,0:0:0:0:
188,157,132747,2,0,L|264:144,1,75,8|0,0:0|0:0,0:0:0:0:
316,80,133142,6,0,P|352:144|320:208,1,150,4|8,0:0|0:0,0:0:0:0:
256,260,133734,1,0,0:0:0:0:
320,207,133932,2,0,P|360:200|400:200,1,75,0|0,0:0|0:0,0:0:0:0:
480,208,134326,1,8,0:0:0:0:
420,268,134524,6,0,P|400:192|440:136,1,150,4|0,0:0|0:0,0:0:0:0:
508,92,135116,1,8,0:0:0:0:
436,52,135313,1,0,0:0:0:0:
360,88,135511,2,0,L|344:48,2,37.5,0|8|0,0:0|0:0|0:0,0:0:0:0:
328,164,135905,1,8,0:0:0:0:
248,176,136103,6,0,P|176:184|120:112,1,150,4|0,0:0|0:0,0:0:0:0:
204,104,136695,1,8,0:0:0:0:
204,104,136892,1,0,0:0:0:0:
248,176,137089,2,0,L|240:256,1,75
308,362,137484,2,0,L|316:288,1,75,8|0,0:0|0:0,0:0:0:0:
352,208,137879,5,4,0:0:0:0:
352,208,138076,1,0,0:0:0:0:
420,256,138274,2,0,P|432:220|428:180,1,75,0|0,0:0|0:0,0:0:0:0:
504,148,138668,2,0,P|487:114|455:88,1,75,8|0,0:0|0:0,0:0:0:0:
508,24,139063,2,0,P|472:11|432:15,1,75,8|0,0:0|0:0,0:0:0:0:
360,52,139458,5,4,0:0:0:0:
304,112,139655,2,0,P|268:125|228:121,1,75,0|8,0:0|0:0,0:0:0:0:
152,96,140050,1,2,0:0:0:0:
160,176,140247,2,0,P|96:156|76:76,1,150,2|8,0:0|0:0,0:0:0:0:
120,20,140839,5,2,0:0:0:0:
204,32,141037,2,0,P|228:64|232:100,1,75,2|10,0:0|0:0,0:0:0:0:
240,180,141432,2,0,P|232:216|240:264,1,75,10|2,0:0|0:0,0:0:0:0:
276,328,141826,2,0,P|344:360|412:304,1,150,2|8,0:0|0:0,0:0:0:0:
416,244,142418,5,2,0:0:0:0:
480,296,142616,1,2,0:0:0:0:
492,216,142813,2,0,L|496:136,1,75,0|8,0:0|0:0,0:0:0:0:
428,92,143208,1,2,0:0:0:0:
372,32,143405,2,0,P|344:92|388:164,1,150,2|8,0:0|0:0,0:0:0:0:
408,240,143997,1,2,0:0:0:0:
328,216,144195,6,0,P|292:204|256:208,1,75,2|10,0:0|0:0,0:0:0:0:
120,256,144589,2,0,P|156:268|192:264,1,75,10|2,0:0|0:0,0:0:0:0:
255,208,144984,1,2,0:0:0:0:
224,76,145182,1,8,0:0:0:0:
114,154,145379,1,8,0:0:0:0:
216,284,145774,6,0,P|296:288|336:236,1,150,4|8,0:0|0:0,0:0:0:0:
314,157,146366,1,0,0:0:0:0:
392,188,146563,2,0,P|460:212|528:176,1,150,0|8,0:0|0:0,0:0:0:0:
456,132,147155,1,0,0:0:0:0:
392,188,147353,2,0,P|396:236|392:264,1,75,4|0,0:0|0:0,0:0:0:0:
352,332,147747,1,8,0:0:0:0:
288,276,147945,2,0,L|280:228,4,37.5,0|8|0|8|0,0:0|0:0|0:0|0:0|0:0,0:0:0:0:
236,340,148537,2,0,P|200:352|160:348,1,75,8|0,0:0|0:0,0:0:0:0:
256,192,148932,12,0,151695,0:0:0:0:
336,284,152089,5,4,0:0:0:0:
372,212,152287,1,0,0:0:0:0:
336,140,152484,2,0,P|304:128|264:128,1,75,8|0,0:0|0:0,0:0:0:0:
204,188,152879,2,0,L|200:268,1,75,2|0,0:0|0:0,0:0:0:0:
192,344,153274,1,8,0:0:0:0:
192,344,153471,1,0,0:0:0:0:
264,308,153668,2,0,P|300:304|340:312,1,75,2|0,0:0|0:0,0:0:0:0:
485,347,154063,2,0,P|449:351|412:344,1,75,8|0,0:0|0:0,0:0:0:0:
448,272,154458,2,0,P|456:232|452:192,1,75,2|0,0:0|0:0,0:0:0:0:
409,58,154853,2,0,P|401:98|404:132,1,75,8|0,0:0|0:0,0:0:0:0:
356,200,155247,6,0,P|288:216|228:168,2,150,2|8|0,0:0|0:0|0:0,0:0:0:0:
356,200,156234,1,0,0:0:0:0:
304,132,156432,2,0,L|316:52,1,75,8|0,0:0|0:0,0:0:0:0:
229,170,156826,2,0,L|217:250,1,75,0|0,0:0|0:0,0:0:0:0:
200,324,157221,2,0,P|128:344|68:300,2,150,8|0|8,0:0|0:0|0:0,0:0:0:0:
200,324,158208,1,0,0:0:0:0:
144,260,158405,6,0,L|140:184,1,75,4|0,0:0|0:0,0:0:0:0:
8,192,158800,2,0,L|11:117,1,75,8|0,0:0|0:0,0:0:0:0:
20,36,159195,2,0,P|64:32|96:40,1,75,2|0,0:0|0:0,0:0:0:0:
217,100,159589,2,0,P|188:108|144:104,1,75,8|0,0:0|0:0,0:0:0:0:
292,64,159984,2,0,P|296:104|288:148,1,75,2|0,0:0|0:0,0:0:0:0:
236,200,160379,2,0,P|232:240|240:284,1,75,8|0,0:0|0:0,0:0:0:0:
268,352,160774,1,2,0:0:0:0:
324,292,160971,1,0,0:0:0:0:
388,344,161168,2,0,P|428:348|464:340,1,75,8|0,0:0|0:0,0:0:0:0:
508,272,161563,6,0,P|524:200|480:136,3,150,4|0|0|0,0:0|0:0|0:0|0:0,0:0:0:0:
256,192,163142,12,0,164326,0:0:0:0:
256,192,164721,5,2,0:0:0:0:
148,320,165116,2,0,P|100:324|72:320,1,60
16,280,165511,2,0,P|0:228|12:164,1,120,2|0,0:0|0:0,0:0:0:0:
68,104,166103,1,2,0:0:0:0:
132,52,166300,2,0,P|180:48|208:52,1,60,0|2,0:0|0:0,0:0:0:0:
260,100,166695,2,0,L|320:100,1,60,2|0,0:0|0:0,0:0:0:0:
392,144,167089,2,0,P|408:196|396:260,1,120,2|0,0:0|0:0,0:0:0:0:
336,320,167682,5,2,0:0:0:0:
336,320,167879,2,0,P|288:352|224:340,1,120,2|0,0:0|0:0,0:0:0:0:
192,268,168471,1,2,0:0:0:0:
136,204,168668,2,0,P|80:188|32:224,1,120,2|0,0:0|0:0,0:0:0:0:
96,280,169261,1,2,0:0:0:0:
156,340,169458,2,0,P|192:352|224:352,1,60,0|2,0:0|0:0,0:0:0:0:
268,288,169853,2,0,P|280:252|280:220,1,60,0|2,0:0|0:0,0:0:0:0:
268,148,170247,2,0,P|320:124|392:144,1,120,2|0,0:0|0:0,0:0:0:0:
484,268,171037,5,0,0:0:0:0:
464,100,171432,1,0,0:0:0:0:
392,60,171629,1,0,0:0:0:0:
392,60,171728,1,0,0:0:0:0:
392,60,171826,2,0,P|360:52|328:56,1,60
252,80,172221,1,0,0:0:0:0:
216,156,172418,6,0,P|172:112|172:56,1,120
104,8,173011,2,0,L|88:76,1,60
84,92,173307,1,0,0:0:0:0:
76,116,173405,2,0,L|60:176,1,60
28,252,173800,1,0,0:0:0:0:
68,324,173997,6,0,P|132:352|212:316,1,150,4|0,0:0|0:0,0:0:0:0:
276,284,174589,2,0,P|284:244|280:208,1,75
272,128,174984,1,0,0:0:0:0:
168,236,175182,1,0,0:0:0:0:
196,160,175379,2,0,P|188:120|192:84,1,75,0|4,0:0|0:0,0:0:0:0:
252,32,175774,6,0,P|172:72|120:48,1,150,2|8,0:0|0:0,0:0:0:0:
44,20,176366,1,0,0:0:0:0:
56,100,176563,2,0,L|52:176,1,75,8|0,0:0|0:0,0:0:0:0:
44,256,176958,2,0,L|0:248,2,37.5,0|8|0,0:0|0:0|0:0,0:0:0:0:
112,300,177353,6,0,P|180:324|244:268,1,150,4|8,0:0|0:0,0:0:0:0:
308,240,177945,1,2,0:0:0:0:
344,164,178142,2,0,P|412:140|476:196,1,150,2|8,0:0|0:0,0:0:0:0:
472,264,178734,5,2,0:0:0:0:
400,224,178932,1,2,0:0:0:0:
344,164,179129,2,0,P|308:152|272:152,1,75,10|10,0:0|0:0,0:0:0:0:
196,184,179524,1,2,0:0:0:0:
164,260,179721,2,0,P|116:200|136:120,1,150,2|8,0:0|0:0,0:0:0:0:
200,96,180313,5,2,0:0:0:0:
236,20,180511,2,0,P|284:80|264:160,1,150,2|8,0:0|0:0,0:0:0:0:
248,228,181103,1,2,0:0:0:0:
264,308,181300,2,2,P|336:328|396:288,1,150,2|8,0:0|0:0,0:0:0:0:
400,208,181892,5,2,0:0:0:0:
464,260,182089,2,0,L|468:344,1,75,2|10,0:0|0:0,0:0:0:0:
480,184,182484,2,0,L|476:104,1,75,10|2,0:0|0:0,0:0:0:0:
472,28,182879,1,2,0:0:0:0:
385,131,183076,1,8,0:0:0:0:
314,15,183274,1,8,0:0:0:0:
314,15,183668,6,0,P|260:56|172:28,1,150,4|8,0:0|0:0,0:0:0:0:
100,36,184261,1,0,0:0:0:0:
136,108,184458,2,0,P|100:128|60:128,1,75,4|0,0:0|0:0,0:0:0:0:
4,184,184853,2,0,P|-4:228|0:260,1,75,8|0,0:0|0:0,0:0:0:0:
52,320,185247,2,0,P|124:344|200:304,1,150,4|8,0:0|0:0,0:0:0:0:
244,256,185839,1,0,0:0:0:0:
264,244,185938,1,8,0:0:0:0:
284,232,186037,2,0,L|320:212,2,37.5,0|8|0,0:0|0:0|0:0,0:0:0:0:
232,168,186432,2,0,P|224:132|232:96,1,75,8|0,0:0|0:0,0:0:0:0:
304,56,186826,6,0,P|376:36|444:76,3,150,4|8|0|8,0:0|0:0|0:0|0:0,0:0:0:0:
480,232,188405,1,0,0:0:0:0:
408,272,188603,1,8,0:0:0:0:
340,224,188800,1,0,0:0:0:0:
272,116,188997,1,0,0:0:0:0:
272,116,189096,1,8,0:0:0:0:
272,116,189195,1,0,0:0:0:0:
184,208,189392,1,0,0:0:0:0:
188,124,189589,1,8,0:0:0:0:
188,124,189688,1,0,0:0:0:0:
188,124,189787,1,0,0:0:0:0:
108,108,189984,6,0,P|64:164|76:244,1,150,4|8,0:0|0:0,0:0:0:0:
116,308,190576,1,2,0:0:0:0:
168,244,190774,2,0,P|240:232|304:280,1,150,2|8,0:0|0:0,0:0:0:0:
308,356,191366,1,2,0:0:0:0:
380,316,191563,2,0,P|408:304|452:304,1,75,2|10,0:0|0:0,0:0:0:0:
508,244,191958,2,0,P|512:200|508:168,1,75,8|2,0:0|0:0,0:0:0:0:
444,116,192353,2,0,P|376:152|304:104,1,150,2|8,0:0|0:0,0:0:0:0:
376,64,192945,5,2,0:0:0:0:
268,188,193142,2,0,P|232:120|280:48,1,150,2|8,0:0|0:0,0:0:0:0:
315,122,193734,1,2,0:0:0:0:
364,56,193932,2,0,P|400:124|352:196,1,150,10|8,0:0|0:0,0:0:0:0:
320,252,194524,1,2,0:0:0:0:
304,332,194721,2,0,P|268:344|228:340,1,75,2|8,0:0|0:0,0:0:0:0:
172,284,195116,2,0,P|136:272|96:276,1,75,8|2,0:0|0:0,0:0:0:0:
20,292,195511,2,0,P|-12:224|16:152,1,150,2|8,0:0|0:0,0:0:0:0:
136,48,196300,6,0,P|175:42|209:52,1,75,4|0,0:0|0:0,0:0:0:0:
268,100,196695,2,0,P|307:105|341:95,1,75,8|0,0:0|0:0,0:0:0:0:
416,80,197089,2,0,L|424:160,1,75,4|0,0:0|0:0,0:0:0:0:
504,172,197484,2,8,L|496:252,1,75,8|0,0:0|0:0,0:0:0:0:
488,328,197879,6,0,P|416:344|368:292,1,150,4|8,0:0|0:0,0:0:0:0:
324,224,198471,1,0,0:0:0:0:
300,144,198668,2,0,P|252:93|180:109,1,150,4|8,0:0|0:0,0:0:0:0:
136,180,199261,5,0,0:0:0:0:
136,180,199359,1,0,0:0:0:0:
136,180,199458,1,4,0:0:0:0:
60,216,199655,2,0,P|52:252|56:292,1,75,8|8,0:0|0:0,0:0:0:0:
68,364,200050,2,0,L|20:372,2,37.5,0|0|8,0:0|0:0|0:0,0:0:0:0:
132,264,200445,1,0,0:0:0:0:
212,352,200642,1,8,0:0:0:0:
212,352,200741,1,0,0:0:0:0:
212,352,200839,1,0,0:0:0:0:
256,192,201037,12,0,204195,0:0:0:0:
