osu file format v14

[General]
AudioFilename: Kamil Orman Janowski - Prophecy PoE Soundtrack.mp3
AudioLeadIn: 0
PreviewTime: -1
Countdown: 0
SampleSet: None
StackLeniency: 0.7
Mode: 0
LetterboxInBreaks: 0
WidescreenStoryboard: 0

[Editor]
Bookmarks: 18243
DistanceSpacing: 0.5
BeatDivisor: 4
GridSize: 16
TimelineZoom: 8

[Metadata]
Title:[POE] Prophecy League OST
TitleUnicode:[POE] Prophecy League OST
Artist:Kamil Orman Janowski
ArtistUnicode:Kamil Orman Janowski
Creator:CircleChu
Version:SSFHC
Source:Path of Exile
Tags:Path of Exile best ARPG not sponsored
BeatmapID:1563565
BeatmapSetID:741218

[Difficulty]
HPDrainRate:5.5
CircleSize:4
OverallDifficulty:8
ApproachRate:9.2
SliderMultiplier:2.2
SliderTickRate:1

[Events]
//Background and Video events
0,0,"ArtPoE_imjackyan.jpg",0,0
//Break Periods
2,1956,8520
2,9956,12520
2,33289,40186
2,81289,84519
//Storyboard Layer 0 (Background)
//Storyboard Layer 1 (Fail)
//Storyboard Layer 2 (Pass)
//Storyboard Layer 3 (Foreground)
//Storyboard Sound Samples

[TimingPoints]
867,666.666666666667,3,2,0,15,1,0
1090,666.666666666667,3,2,0,50,1,0
1340,-100,3,2,0,15,0,0
1423,-100,3,2,0,50,0,0
1756,-100,3,2,0,15,0,0
9090,-100,3,2,0,50,0,0
9340,-100,3,2,0,15,0,0
9423,-100,3,2,0,50,0,0
9756,-100,3,2,0,15,0,0
16756,-100,3,2,0,5,0,0
17090,333.333333333333,3,2,0,50,1,0
21006,-100,3,2,0,15,0,0
21089,-100,3,2,0,50,0,0
21339,-100,3,2,0,15,0,0
21423,-100,3,2,0,50,0,0
21673,-100,3,2,0,15,0,0
21756,-100,3,2,0,50,0,0
21839,-100,3,2,0,15,0,0
21923,-100,3,2,0,50,0,0
22339,-100,3,2,0,15,0,0
22423,-100,3,2,0,50,0,0
25006,-100,3,2,0,15,0,0
25089,-100,3,2,0,50,0,0
25339,-100,3,2,0,15,0,0
25423,-100,3,2,0,50,0,0
25506,-100,3,2,0,15,0,0
25589,-100,3,2,0,50,0,0
25839,-100,3,2,0,15,0,0
25923,-100,3,2,0,50,0,0
26006,-100,3,2,0,15,0,0
26089,-100,3,2,0,50,0,0
26339,-100,3,2,0,15,0,0
26423,-100,3,2,0,50,0,0
26673,-100,3,2,0,15,0,0
26756,-100,3,2,0,50,0,0
29006,-100,3,2,0,15,0,0
29089,-100,3,2,0,50,0,0
30339,-100,3,2,0,15,0,0
30423,-100,3,2,0,50,0,0
30673,-100,3,2,0,15,0,0
30756,-100,3,2,0,50,0,0
40756,-100,3,2,0,20,0,0
41089,-133.333333333333,3,2,0,35,0,0
48756,-133.333333333333,3,2,0,5,0,0
49089,-80,3,2,0,70,0,1
49339,-80,3,2,0,15,0,1
49423,-80,3,2,0,70,0,1
50339,-80,3,2,0,15,0,1
50423,-80,3,2,0,70,0,1
52339,-80,3,2,0,15,0,1
52423,-80,3,2,0,70,0,1
53339,-80,3,2,0,15,0,1
53423,-80,3,2,0,70,0,1
54339,-80,3,2,0,15,0,1
54423,-80,3,2,0,70,0,1
56339,-80,3,2,0,15,0,1
56423,-80,3,2,0,70,0,1
57339,-80,3,2,0,15,0,1
57423,-80,3,2,0,70,0,1
58339,-80,3,2,0,15,0,1
58423,-80,3,2,0,70,0,1
60339,-80,3,2,0,15,0,1
60423,-80,3,2,0,70,0,1
61339,-80,3,2,0,15,0,1
61423,-80,3,2,0,70,0,1
62339,-80,3,2,0,15,0,1
62423,-80,3,2,0,70,0,1
64339,-80,3,2,0,15,0,1
64423,-80,3,2,0,70,0,1
65089,-133.333333333333,3,2,0,40,0,0
68756,-66.6666666666667,3,2,0,55,0,0
69089,-133.333333333333,3,2,0,40,0,0
72756,-66.6666666666667,3,2,0,55,0,0
73089,-133.333333333333,3,2,0,40,0,0
76756,-66.6666666666667,3,2,0,55,0,0
77089,-133.333333333333,3,2,0,40,0,0
85089,-133.333333333333,3,2,0,35,0,0
87089,-133.333333333333,3,2,0,45,0,0
89089,-133.333333333333,3,2,0,50,0,0
91089,-133.333333333333,3,2,0,55,0,0
93089,-133.333333333333,3,2,0,60,0,0
94089,-133.333333333333,3,2,0,65,0,0
94339,-133.333333333333,3,2,0,15,0,0
94423,-100,3,2,0,70,0,0
94673,-100,3,2,0,15,0,0
94756,-80,3,2,0,75,0,0
95006,-80,3,2,0,15,0,0
95089,-200,3,2,0,80,0,0
96089,-200,3,2,0,15,0,0

[Colours]
Combo1 : 147,111,0
Combo2 : 123,90,163
Combo3 : 111,0,111
Combo4 : 131,7,26

[HitObjects]
219,83,867,6,0,L|229:51,3,18.3333333333333
212,104,1090,2,0,P|212:144|235:178,1,82.5,4|0,3:0|0:0,0:0:0:0:
276,155,1423,2,0,P|229:183|203:231,1,110,4|0,3:0|0:0,0:0:0:0:
88,95,9090,6,0,P|117:68|156:53,1,82.5,4|0,3:0|0:0,0:0:0:0:
168,79,9423,2,0,P|221:86|264:121,1,110,4|0,3:0|0:0,0:0:0:0:
256,192,13090,12,0,16756,0:0:0:0:
424,208,17090,6,0,P|373:189|345:143,1,110,4|0,3:0|0:0,0:0:0:0:
402,328,17423,2,0,P|331:248|345:142,1,220,2|0,0:0|0:0,0:0:0:0:
462,27,17923,1,2,0:0:0:0:
248,61,18090,6,0,P|321:138|427:125,1,220,8|0,0:0|0:0,0:0:0:0:
50,27,18590,2,0,P|30:78|31:132,2,110
151,218,19089,5,2,0:0:0:0:
145,245,19173,1,2,0:0:0:0:
131,268,19256,1,2,0:0:0:0:
109,285,19339,1,2,0:0:0:0:
86,299,19423,2,0,P|58:302|32:295,1,55,2|0,0:0|0:0,0:0:0:0:
199,314,19589,2,0,P|181:335|157:348,1,55,2|0,0:0|0:0,0:0:0:0:
236,231,19756,1,2,3:0:0:0:
198,129,19923,1,2,3:0:0:0:
282,336,20089,6,0,P|329:364|383:360,1,110,8|0,0:0|0:0,0:0:0:0:
151,218,20423,1,2,3:0:0:0:
19,251,20589,1,2,3:0:0:0:
350,282,20756,2,0,B|366:172|366:172|337:228,1,165,8|0,3:0|0:0,0:0:0:0:
476,189,21089,6,0,P|466:132|351:74,1,165,4|0,3:0|0:0,0:0:0:0:
301,111,21423,2,0,P|251:174|172:172,1,165
128,91,21756,2,0,P|113:67|93:49,1,55,2|0,3:0|0:0,0:0:0:0:
12,97,21923,1,2,3:0:0:0:
107,303,22089,6,0,P|169:252|171:171,1,165,8|0,0:0|0:0,0:0:0:0:
246,255,22423,2,0,P|301:252|352:271,2,110
173,367,22923,1,2,3:0:0:0:
434,329,23089,5,2,0:0:0:0:
443,302,23173,1,2,0:0:0:0:
447,274,23256,1,2,0:0:0:0:
442,247,23339,1,2,0:0:0:0:
430,220,23423,2,0,P|411:200|387:187,1,55,2|0,0:0|0:0,0:0:0:0:
360,104,23589,2,0,P|332:103|306:111,1,55
224,64,23756,1,2,3:0:0:0:
103,120,23923,1,2,3:0:0:0:
172,367,24089,6,0,P|200:320|198:265,1,110,8|0,0:0|0:0,0:0:0:0:
282,351,24423,1,2,3:0:0:0:
174,185,24589,1,2,3:0:0:0:
447,274,24756,2,0,B|456:151|456:151|468:190,1,165,8|0,3:0|0:0,0:0:0:0:
360,104,25089,6,0,P|296:122|223:61,1,165,6|0,3:0|0:0,0:0:0:0:
157,15,25423,2,0,P|141:38|136:65,1,55,2|0,0:0|0:0,0:0:0:0:
174,185,25589,2,0,P|99:159|37:209,1,165,2|0,3:0|0:0,0:0:0:0:
15,288,25923,2,0,P|19:319|30:340,1,55,2|0,0:0|0:0,0:0:0:0:
113,241,26089,6,0,P|99:295|182:281,1,165,8|0,0:0|0:0,0:0:0:0:
266,291,26423,2,0,P|334:313|334:243,1,165,2|0,3:0|0:0,0:0:0:0:
446,192,26756,2,0,P|430:244|448:296,1,110,2|0,3:0|0:0,0:0:0:0:
261,211,27089,5,2,0:0:0:0:
242,190,27173,1,2,0:0:0:0:
231,164,27256,1,2,0:0:0:0:
231,136,27339,1,2,0:0:0:0:
236,108,27423,2,0,P|252:85|275:70,1,55,2|0,0:0|0:0,0:0:0:0:
154,160,27589,2,0,P|149:133|154:106,1,55,2|0,0:0|0:0,0:0:0:0:
208,275,27756,1,2,3:0:0:0:
334,243,27923,1,2,3:0:0:0:
128,239,28089,6,0,P|92:281|76:333,1,110,8|0,0:0|0:0,0:0:0:0:
56,72,28423,1,2,3:0:0:0:
19,213,28589,1,2,3:0:0:0:
270,180,28756,2,0,B|258:64|258:64|236:107,1,165,8|0,3:0|0:0,0:0:0:0:
333,242,29089,6,0,P|374:278|428:279,1,110,6|0,3:0|0:0,0:0:0:0:
246,272,29423,1,2,0:0:0:0:
397,94,29589,2,0,P|423:142|413:195,1,110,2|0,3:0|0:0,0:0:0:0:
427,11,29923,1,2,0:0:0:0:
236,106,30089,6,0,P|156:104|105:42,1,165,8|0,0:0|0:0,0:0:0:0:
188,33,30423,2,0,P|155:106|79:129,1,165,2|0,3:0|0:0,0:0:0:0:
168,189,30756,2,0,P|180:243|170:296,1,110,2|0,3:0|0:0,0:0:0:0:
301,56,31089,5,2,0:0:0:0:
328,50,31173,1,2,0:0:0:0:
355,52,31256,1,2,0:0:0:0:
379,63,31339,1,2,0:0:0:0:
399,79,31423,2,0,P|415:102|424:128,1,55,2|0,0:0|0:0,0:0:0:0:
350,161,31589,2,0,P|345:188|333:213,1,55,2|0,0:0|0:0,0:0:0:0:
248,207,31756,1,2,3:0:0:0:
144,107,31923,1,2,3:0:0:0:
240,330,32089,6,0,P|289:355|343:348,1,110,8|0,3:0|0:0,0:0:0:0:
421,294,32423,1,0,0:0:0:0:
248,207,32589,2,0,P|251:261|283:304,1,110,8|0,3:0|0:0,0:0:0:0:
442,265,32923,1,0,0:0:0:0:
301,56,33089,5,4,3:0:0:0:
262,245,40756,5,0,0:0:0:0:
190,307,40923,1,0,0:0:0:0:
344,293,41089,6,0,L|355:201,1,82.5000031471254,2|0,0:0|0:0,0:0:0:0:
136,95,41589,1,0,0:0:0:0:
342,61,41923,1,0,0:0:0:0:
415,134,42089,2,0,P|471:146|504:136,1,82.5000031471254,2|0,0:0|0:0,0:0:0:0:
163,173,42923,1,0,0:0:0:0:
71,221,43089,6,0,P|63:261|68:301,1,82.5000031471254,2|0,0:0|0:0,0:0:0:0:
78,319,43339,1,0,0:0:0:0:
92,333,43423,1,0,0:0:0:0:
176,266,43589,2,0,P|198:300|230:325,1,82.5000031471254,2|0,0:0|0:0,0:0:0:0:
348,316,43923,1,0,0:0:0:0:
275,216,44089,2,0,P|315:224|355:219,1,82.5000031471254,2|0,0:0|0:0,0:0:0:0:
479,86,44423,6,0,P|466:125|442:157,1,82.5000031471254
307,61,44756,2,0,P|347:64|384:82,2,82.5000031471254,2|0|0,0:0|0:0|0:0,0:0:0:0:
152,133,45256,1,0,0:0:0:0:
155,153,45339,1,0,0:0:0:0:
158,173,45423,1,0,0:0:0:0:
22,311,45589,5,2,0:0:0:0:
40,216,45756,1,2,0:0:0:0:
56,120,45923,1,2,0:0:0:0:
256,192,46089,12,0,48756,0:0:0:0:
168,348,49089,6,0,P|83:298|89:200,1,206.25,4|0,0:0|0:0,0:0:0:0:
148,136,49423,2,0,P|179:123|213:120,1,68.75,2|0,3:0|0:0,0:0:0:0:
288,172,49589,1,2,3:0:0:0:
432,80,49756,1,2,0:0:0:0:
399,88,49839,1,2,0:0:0:0:
366,95,49923,1,2,0:0:0:0:
168,252,50089,2,0,P|260:289|348:241,1,206.25,8|0,0:0|0:0,0:0:0:0:
429,224,50423,6,0,P|415:193|392:168,1,68.75
391,362,50589,2,0,P|402:330|404:296,1,68.75
288,172,50756,6,0,P|277:204|276:238,1,68.75
304,40,50922,2,0,P|280:65|266:96,1,68.75
304,360,51089,5,12,0:0:0:0:
44,316,51256,1,2,0:0:0:0:
169,180,51423,1,8,0:0:0:0:
429,224,51590,1,2,0:0:0:0:
151,335,51756,6,0,P|143:302|141:268,1,68.75,2|0,3:0|0:0,0:0:0:0:
288,172,51923,2,0,P|296:138|298:104,1,68.75,2|0,3:0|0:0,0:0:0:0:
40,64,52089,6,0,B|33:212|33:212|74:171,1,206.25,8|0,0:0|0:0,0:0:0:0:
169,180,52423,2,0,P|187:152|196:119,1,68.75,2|0,0:0|0:0,0:0:0:0:
237,50,52589,6,0,L|235:4,2,45.8333333333333,2|2|2,0:0|0:0|0:0,0:0:0:0:
288,172,52756,2,0,B|285:241|285:241|317:180,1,137.5,8|8,0:0|0:0,0:0:0:0:
150,334,53089,6,0,P|247:360|330:305,1,206.25,4|0,0:0|0:0,0:0:0:0:
469,320,53423,2,0,P|435:326|406:342,1,68.75,2|0,3:0|0:0,0:0:0:0:
399,256,53589,1,2,3:0:0:0:
288,172,53756,1,2,0:0:0:0:
255,179,53840,1,2,0:0:0:0:
222,186,53923,2,0,P|208:218|207:252,1,68.75,2|0,0:0|0:0,0:0:0:0:
56,195,54089,2,0,P|146:149|175:53,1,206.25,8|0,0:0|0:0,0:0:0:0:
101,10,54423,6,0,P|90:43|93:77,1,68.75,2|0,3:0|0:0,0:0:0:0:
13,143,54589,2,0,P|28:173|54:194,1,68.75,2|0,0:0|0:0,0:0:0:0:
177,370,54756,6,0,P|187:337|184:303,1,68.75,2|0,3:0|0:0,0:0:0:0:
263,237,54922,2,0,P|247:206|221:185,1,68.75,2|0,0:0|0:0,0:0:0:0:
93,77,55089,5,8,0:0:0:0:
110,263,55256,1,2,0:0:0:0:
110,263,55339,1,2,0:0:0:0:
110,263,55423,1,10,0:0:0:0:
202,100,55589,1,2,0:0:0:0:
33,311,55756,6,0,P|21:280|22:246,1,68.75,2|0,3:0|0:0,0:0:0:0:
192,247,55923,2,0,P|193:281|180:312,1,68.75,2|0,3:0|0:0,0:0:0:0:
294,147,56089,6,0,B|446:140|446:140|390:88,1,206.25,8|0,0:0|0:0,0:0:0:0:
356,215,56423,2,0,P|337:244|329:277,1,68.75,2|0,0:0|0:0,0:0:0:0:
442,290,56589,2,0,P|448:323|466:352,1,68.75,2|0,0:0|0:0,0:0:0:0:
294,147,56756,2,0,P|230:168|192:225,1,137.5,8|8,0:0|0:0,0:0:0:0:
12,22,57089,6,0,P|73:99|169:78,1,206.25,4|0,0:0|0:0,0:0:0:0:
249,80,57423,2,0,P|262:48|283:21,1,68.75,2|0,3:0|0:0,0:0:0:0:
370,21,57589,1,2,3:0:0:0:
225,216,57756,1,2,0:0:0:0:
192,224,57839,1,2,0:0:0:0:
159,231,57923,2,0,P|131:210|114:180,1,68.75,2|0,0:0|0:0,0:0:0:0:
88,340,58089,2,0,P|47:252|113:181,1,206.25,8|0,0:0|0:0,0:0:0:0:
211,136,58423,6,0,P|234:111|248:80,1,68.75,2|0,3:0|0:0,0:0:0:0:
369,20,58589,2,0,P|383:51|407:76,1,68.75,2|0,0:0|0:0,0:0:0:0:
287,165,58756,6,0,P|310:140|324:109,1,68.75,2|0,3:0|0:0,0:0:0:0:
464,17,58922,2,0,P|477:48|501:72,1,68.75,2|0,0:0|0:0,0:0:0:0:
296,22,59089,5,12,0:0:0:0:
225,216,59256,1,2,0:0:0:0:
369,20,59423,1,8,0:0:0:0:
440,214,59590,1,2,0:0:0:0:
274,368,59756,6,0,L|284:300,1,68.75,2|0,3:0|0:0,0:0:0:0:
114,195,59923,2,0,L|120:263,1,68.75,2|0,3:0|0:0,0:0:0:0:
200,39,60089,6,0,B|52:32|52:32|77:45|96:68,1,206.25,8|0,0:0|0:0,0:0:0:0:
0,171,60423,2,0,P|8:137|26:109,1,68.75,2|0,3:0|0:0,0:0:0:0:
96,68,60589,1,2,0:0:0:0:
96,68,60673,1,2,0:0:0:0:
96,68,60756,2,0,L|233:75,1,137.5,8|8,0:0|0:0,0:0:0:0:
454,234,61089,6,0,P|387:157|277:161,1,206.25,4|0,0:0|0:0,0:0:0:0:
220,217,61423,2,0,P|205:248|201:282,1,68.75,2|0,3:0|0:0,0:0:0:0:
238,366,61589,1,2,0:0:0:0:
54,220,61756,1,2,0:0:0:0:
87,227,61840,1,2,0:0:0:0:
120,235,61923,1,2,0:0:0:0:
318,324,62089,2,0,P|287:258|384:278,1,206.25,8|0,0:0|0:0,0:0:0:0:
454,234,62423,6,0,P|441:203|441:168,1,68.75,2|0,3:0|0:0,0:0:0:0:
377,72,62589,2,0,P|377:106|363:137,1,68.75,2|0,0:0|0:0,0:0:0:0:
210,138,62756,6,0,P|196:106|196:72,1,68.75,2|0,3:0|0:0,0:0:0:0:
133,169,62922,2,0,P|133:203|119:234,1,68.75,2|0,0:0|0:0,0:0:0:0:
289,89,63089,5,8,0:0:0:0:
458,94,63256,1,2,0:0:0:0:
289,247,63423,1,8,0:0:0:0:
117,95,63589,1,2,0:0:0:0:
78,370,63756,6,0,L|67:302,1,68.75,2|0,3:0|0:0,0:0:0:0:
289,246,63923,2,0,L|289:314,1,68.75,2|0,3:0|0:0,0:0:0:0:
474,367,64089,6,0,B|498:228|498:228|441:274,1,206.25,8|0,0:0|0:0,0:0:0:0:
382,212,64423,2,0,P|373:178|355:150,1,68.75,2|0,3:0|0:0,0:0:0:0:
289,89,64589,6,0,L|292:16,2,45.8333333333333,2|2|2,0:0|0:0|0:0,0:0:0:0:
185,128,64756,2,0,B|117:94|117:94|178:91,1,137.5,8|8,0:0|0:0,0:0:0:0:
367,294,65089,6,0,P|325:360|246:357,1,165.000006294251,4|0,2:0|0:0,0:0:0:0:
57,353,65589,1,0,0:0:0:0:
124,224,65756,1,0,0:0:0:0:
34,347,65923,1,0,0:0:0:0:
136,244,66089,6,0,P|178:243|217:256,2,82.5000031471254,8|0|0,0:0|0:0|0:0,0:0:0:0:
47,138,66589,2,0,P|41:98|49:58,1,82.5000031471254
146,13,66923,1,0,0:0:0:0:
285,205,67089,6,0,P|341:240|438:221,1,165.000006294251,8|0,0:0|0:0,0:0:0:0:
481,96,67589,1,0,0:0:0:0:
373,21,67756,1,0,0:0:0:0:
492,171,67923,5,0,0:0:0:0:
296,37,68089,1,8,0:0:0:0:
200,245,68423,6,0,P|192:205|203:166,1,82.5000031471254,8|0,3:0|0:0,0:0:0:0:
40,136,68756,6,0,P|28:217|47:297,1,165.000006294251,4|0,3:0|0:0,0:0:0:0:
345,292,69089,6,0,P|363:212|352:130,1,165.000006294251,8|0,0:0|0:0,0:0:0:0:
255,195,69589,1,0,0:0:0:0:
200,61,69756,1,0,0:0:0:0:
272,184,69922,1,0,0:0:0:0:
184,72,70089,6,0,P|168:109|164:150,2,82.5000031471254,8|0|0,0:0|0:0|0:0,0:0:0:0:
75,136,70589,2,0,P|90:173|94:214,1,82.5000031471254
41,303,70923,1,0,0:0:0:0:
254,194,71089,6,0,P|336:196|401:148,1,165.000006294251,8|0,0:0|0:0,0:0:0:0:
314,19,71589,1,0,0:0:0:0:
268,121,71756,1,0,0:0:0:0:
294,19,71923,1,0,0:0:0:0:
294,130,72090,1,8,0:0:0:0:
456,301,72423,6,0,P|419:285|379:276,1,82.5000031471254,8|0,3:0|0:0,0:0:0:0:
181,306,72756,6,0,P|248:350|330:346,1,165.000006294251,4|0,3:0|0:0,0:0:0:0:
43,329,73089,6,0,P|79:256|64:176,1,165.000006294251,8|0,0:0|0:0,0:0:0:0:
47,22,73589,1,0,0:0:0:0:
150,152,73756,1,0,0:0:0:0:
18,35,73923,1,0,0:0:0:0:
166,108,74089,6,0,P|206:117|242:136,2,82.5000031471254,8|0|0,0:0|0:0|0:0,0:0:0:0:
337,138,74589,2,0,P|328:98|303:64,1,82.5000031471254
220,24,74923,1,0,0:0:0:0:
287,224,75089,6,0,P|216:261|182:334,1,165.000006294251,8|0,0:0|0:0,0:0:0:0:
374,212,75589,1,0,0:0:0:0:
297,332,75756,1,0,0:0:0:0:
397,235,75923,1,0,0:0:0:0:
276,311,76090,1,8,0:0:0:0:
113,143,76423,6,0,P|76:162|49:193,1,82.5000031471254,8|0,3:0|0:0,0:0:0:0:
224,248,76756,6,0,P|219:166|245:88,1,165.000006294251,4|0,3:0|0:0,0:0:0:0:
346,170,77089,6,0,P|395:235|474:255,1,165.000006294251,8|0,0:0|0:0,0:0:0:0:
461,134,77589,1,0,0:0:0:0:
360,46,77756,1,0,0:0:0:0:
476,111,77923,1,0,0:0:0:0:
349,72,78089,6,0,P|310:61|269:57,2,82.5000031471254,8|0|0,0:0|0:0|0:0,0:0:0:0:
257,145,78589,2,0,P|215:148|176:160,1,82.5000031471254
89,241,78923,1,0,0:0:0:0:
468,337,79089,6,0,L|474:226,1,82.5000031471254,8|0,0:0|0:0,0:0:0:0:
311,366,79423,1,2,0:0:0:0:
180,242,79589,2,0,L|175:159,1,82.5000031471254,8|0,0:0|0:0,0:0:0:0:
295,276,79923,1,2,0:0:0:0:
35,148,80089,6,0,P|30:107|40:67,1,82.5000031471254,8|0,0:0|0:0,0:0:0:0:
256,16,80423,2,0,L|256:112,1,82.5000031471254,8|0,0:0|0:0,0:0:0:0:
476,148,80756,5,8,3:0:0:0:
471,67,80922,1,8,3:0:0:0:
256,352,81089,5,4,3:0:0:0:
318,83,85089,6,0,P|313:123|294:159,1,82.5000031471254
232,211,85423,2,0,P|194:227|153:228,1,82.5000031471254
78,200,85756,2,0,P|44:175|23:140,1,82.5000031471254
311,239,86089,6,0,P|376:288|455:276,1,165.000006294251,8|0,0:0|0:0,0:0:0:0:
474,155,86589,1,0,0:0:0:0:
243,298,86756,1,2,0:0:0:0:
233,315,86839,1,2,0:0:0:0:
220,330,86923,1,2,0:0:0:0:
201,339,87006,1,2,0:0:0:0:
180,344,87089,6,0,P|140:338|104:318,1,82.5000031471254,8|0,0:0|0:0,0:0:0:0:
307,355,87423,1,0,0:0:0:0:
232,211,87589,2,0,P|191:216|155:236,1,82.5000031471254,8|0,0:0|0:0,0:0:0:0:
311,239,87923,1,0,0:0:0:0:
43,243,88089,6,0,P|27:205|26:164,1,82.5000031471254,8|0,0:0|0:0,0:0:0:0:
249,37,88423,1,2,0:0:0:0:
125,59,88589,1,2,0:0:0:0:
315,102,88756,1,2,0:0:0:0:
142,135,88922,1,2,0:0:0:0:
374,168,89089,6,0,P|415:168|455:160,1,82.5000031471254,8|0,0:0|0:0,0:0:0:0:
455,160,89339,1,0,0:0:0:0:
455,160,89423,1,0,0:0:0:0:
413,57,89589,1,8,0:0:0:0:
232,190,89756,2,0,P|217:228|216:269,1,82.5000031471254
433,350,90089,6,0,P|431:308|417:270,1,82.5000031471254,8|0,0:0|0:0,0:0:0:0:
86,237,90423,1,2,0:0:0:0:
51,345,90589,1,2,0:0:0:0:
127,124,90756,1,2,0:0:0:0:
149,312,90923,1,2,0:0:0:0:
10,152,91089,6,0,L|18:64,1,82.5000031471254,8|0,0:0|0:0,0:0:0:0:
17,69,91339,1,0,0:0:0:0:
17,69,91423,1,0,0:0:0:0:
163,201,91589,1,8,0:0:0:0:
342,118,91756,2,0,P|347:98|349:77,1,41.2500015735627
246,192,91923,2,0,P|266:187|284:178,1,41.2500015735627
86,236,92089,6,0,P|67:273|67:314,1,82.5000031471254,8|0,0:0|0:0,0:0:0:0:
127,124,92423,1,2,0:0:0:0:
263,356,92589,1,2,0:0:0:0:
262,100,92756,1,2,0:0:0:0:
415,245,92923,1,2,0:0:0:0:
433,254,93006,1,2,0:0:0:0:
451,262,93089,6,0,P|466:224|470:184,1,82.5000031471254,8|0,0:0|0:0,0:0:0:0:
324,33,93423,1,2,0:0:0:0:
111,24,93589,1,2,0:0:0:0:
331,136,93756,1,2,0:0:0:0:
23,128,93923,1,2,0:0:0:0:
338,230,94089,6,0,P|296:276|237:290,1,123.750004720688,8|0,3:0|0:0,0:0:0:0:
131,283,94423,6,0,P|212:279|280:323,1,165,8|0,3:0|0:0,0:0:0:0:
237,290,94756,6,0,P|270:205|210:111,1,206.25,4|0,3:0|0:0,0:0:0:0:
271,79,95089,6,0,P|147:103|259:161,1,330,4|0,3:0|0:0,0:0:0:0:
