osu file format v6

[General]
AudioFilename: Kamikaze.mp3
AudioLeadIn: 0
PreviewTime: 12749
Countdown: 0
SampleSet: Soft
StackLeniency: 0.7
Mode: 0
LetterboxInBreaks: 1

[Editor]
DistanceSpacing: 1.29999995231628
BeatDivisor: 4
GridSize: 8

[Metadata]
Title:My Love Is You
Artist:Kamikaze
Creator:orioncomet
Version:Normal
Source:Forward To U
Tags:Thai

[Difficulty]
HPDrainRate:3
CircleSize:4
OverallDifficulty:4
SliderMultiplier:1
SliderTickRate:2

[Events]
//Background and Video events
0,0,"BG1.jpg"
//Break Periods
2,98076,107618
2,169326,188806
2,216576,221806
//Storyboard Layer 0 (Background)
//Storyboard Layer 1 (Fail)
//Storyboard Layer 2 (Pass)
//Storyboard Layer 3 (Foreground)
//Storyboard Sound Samples
//Background Colour Transformations
3,100,0,0,0

[TimingPoints]
8626,750,4,2,0,66,1,0
12390,-100,4,2,1,66,0,0
72374,-100,4,2,1,66,0,1
96186,-200,4,2,1,66,0,1
98249,-100,4,2,1,66,0,0
144374,-100,4,2,1,66,0,1
170436,-100,4,2,1,66,0,0
192186,-100,4,2,1,66,0,0
228374,-100,4,2,1,66,0,1
254436,-100,4,2,1,13,0,1
254999,-100,4,2,1,66,0,0

[Colours]
Combo1 : 255,128,192
Combo2 : 39,193,252
Combo3 : 34,221,38
Combo4 : 255,128,0

[HitObjects]
256,208,9376,12,0,12001
328,304,12751,6,0,C|176:304,1,150
112,304,14251,1,0
112,304,14626,2,0,C|112:200,1,100,8|0
112,136,15751,6,0,C|264:136,1,150
328,144,17251,1,0
328,144,17626,2,0,C|328:248,1,100,8|0
280,288,18751,5,0
280,288,19126,1,8
216,288,19501,1,0
216,288,19876,2,0,C|112:288,1,100,0|8
112,224,21001,2,0,C|112:168,1,50
64,128,21751,5,0
64,128,22126,1,8
96,72,22501,1,0
152,40,22876,1,0
216,40,23251,1,0
272,80,23626,2,0,B|320:128|264:168,1,100,8|4
272,232,24751,6,0,B|272:328|368:328,1,150
424,328,26251,2,0,B|480:328,2,50,0|8|0
424,328,27376,1,0
424,264,27751,6,0,B|424:168|328:168,1,150
272,168,29251,2,0,B|216:168,2,50,0|8|0
272,168,30376,1,0
272,104,30751,5,0
272,104,31126,1,8
272,104,31501,2,0,B|272:48,1,50
208,56,32251,2,0,B|144:56,1,50,0|8
160,120,33001,2,0,B|216:120,1,50
208,184,33751,1,0
152,216,34126,5,8
88,216,34501,1,0
24,216,34876,2,0,B|24:320,2,100,0|8|4
24,120,36938,6,0,B|24:88,1,25,0|8
24,32,37501,2,0,B|176:32,1,150,0|8
240,32,39001,1,0
240,32,39376,1,0
240,96,39751,6,0,B|296:96,1,50,0|8
352,96,40501,2,0,B|408:96,1,50
464,96,41251,1,0
464,96,41626,1,8
464,96,42001,1,0
464,160,42376,5,0
464,288,43126,1,8
336,288,43876,1,0
336,288,44251,1,0
336,288,44626,1,8
336,224,45001,6,0,B|80:224,1,250
40,184,47251,1,0
40,184,47626,1,8
72,128,48001,1,0
72,128,48376,1,4
112,40,48938,6,0,B|144:40,1,25,0|8
200,40,49501,2,0,B|352:40,1,150,0|8
350,40,51001,1,0
408,72,51376,1,0
464,104,51751,1,0
464,168,52126,5,8
464,168,52501,1,0
408,208,52876,2,0,B|408:312,2,100,0|8|0
280,208,55126,5,8
152,208,55876,1,0
152,208,56251,1,0
152,208,56626,1,8
88,208,57001,6,0,B|88:152,1,50
88,96,57751,2,0,B|88:40,1,50,0|8
152,32,58501,1,0
152,32,58876,1,0
216,32,59251,2,0,B|216:136,1,100
280,136,60376,6,0,B|280:240,2,100,4|8|0
336,96,62251,1,0
336,96,62626,1,8
272,96,63001,6,0,B|168:96,2,100
312,152,64876,1,0
312,152,65251,1,0
312,152,65626,1,8
312,216,66001,6,0,B|416:216,1,100
408,280,67126,2,0,B|304:280,1,100,8|0
248,312,68251,1,0
248,248,68626,1,8
192,280,69001,6,0,B|88:280,1,100
48,232,70126,1,8
48,232,70501,1,0
48,168,70876,2,0,B|48:64,2,100,0|8|4
104,192,72751,5,0
104,192,73126,1,8
104,192,73501,2,0,B|208:192,1,100
204,192,74626,1,8
204,192,75001,1,0
204,192,75376,1,0
336,192,76126,5,8
336,128,76501,1,0
336,128,76876,1,0
336,128,77251,1,0
400,128,77626,2,0,B|400:24,1,100,8|0
272,40,79126,5,8
272,104,79501,1,0
272,104,79876,1,0
272,104,80251,1,0
208,104,80626,2,0,B|208:208,1,100,8|0
80,224,82126,6,0,B|80:280,1,50,8|0
144,272,82876,2,0,B|144:216,1,50
208,224,83626,2,0,B|208:280,1,50,8|0
272,272,84376,2,0,B|272:216,1,50,4|0
272,160,85126,5,8
272,96,85501,2,0,B|216:96,1,50
160,96,86251,1,0
160,96,86626,2,0,B|56:96,1,100,8|0
40,160,87751,6,0,B|40:216,1,50,0|8
40,272,88501,1,0
40,272,88876,1,0
40,272,89251,2,0,B|192:272,1,150
192,208,90751,6,0,B|192:152,1,50,0|8
256,160,91501,2,0,B|256:216,1,50
320,208,92251,2,0,B|320:152,1,50,0|8
384,160,93001,2,0,B|384:216,1,50
384,272,93751,5,0
384,272,94126,1,8
384,272,94501,1,0
320,272,94876,1,0
256,208,95251,12,0,97876
304,80,108938,6,0,C|176:80,1,125
112,80,110251,1,0
112,80,110626,2,0,C|112:184,1,100,8|0
112,248,111751,5,0
176,248,112126,2,0,C|280:248,1,100,8|0
344,248,113251,1,0
344,248,113626,2,0,C|344:144,1,100,8|0
344,80,114751,1,0
344,80,115126,1,8
216,96,115876,6,0,C|112:96,1,100
112,160,117001,6,0,C|112:216,1,50
64,256,117751,1,0
64,256,118126,1,8
96,312,118501,1,0
152,344,118876,1,0
216,344,119251,1,0
272,304,119626,2,0,B|320:256|264:216,1,100,8|4
272,152,120751,5,0
272,88,121126,2,0,B|376:88,1,100
424,56,122251,2,0,B|480:56,2,50,0|8|0
424,56,123376,1,0
424,120,123751,6,0,B|424:216|328:216,1,150
272,216,125251,2,0,B|216:216,2,50,0|8|0
272,216,126376,1,0
272,280,126751,5,0
272,280,127126,1,8
272,280,127501,2,0,B|272:336,1,50
208,328,128251,2,0,B|144:328,1,50,0|8
160,264,129001,6,0,B|216:264,1,50
208,200,129751,2,0,B|208:144,1,50
144,152,130501,2,0,B|88:152,1,50
32,152,131251,2,0,B|32:48,1,100
96,56,132376,1,4
160,56,132751,6,0,B|160:88,2,25,0|0|8
224,56,133501,2,0,B|296:56|296:120,1,100
295,109,134626,1,8
256,160,135001,5,0
296,216,135376,1,0
360,216,135751,2,0,B|416:216,1,50,0|8
408,280,136501,2,0,B|408:336,1,50
344,328,137251,1,0
344,328,137626,1,8
280,328,138001,6,0,B|280:224,1,100
280,160,139126,1,8
168,88,139876,1,0
104,88,140251,1,0
136,144,140626,1,8
96,264,141376,5,0
128,320,141751,1,0
160,264,142126,1,8
160,136,142876,2,0,B|160:104,2,25
224,112,143626,2,0,B|224:144,2,25
224,48,144376,1,4
288,48,144751,5,0
288,48,145126,1,8
288,48,145501,2,0,B|288:152,1,100
288,148,146626,1,8
288,148,147001,1,0
288,148,147376,1,0
288,296,148126,5,8
224,296,148501,1,0
224,296,148876,1,0
224,296,149251,1,0
224,232,149626,2,0,B|120:232,1,100,8|0
136,104,151126,5,8
200,104,151501,1,0
200,104,151876,1,0
200,104,152251,1,0
200,40,152626,2,0,B|304:40,1,100,8|0
304,168,154126,6,0,B|408:168,1,100,8|0
472,168,155251,1,0
472,232,155626,2,0,B|368:232,1,100,8|4
256,232,157126,5,8
192,232,157501,2,0,B|192:176,1,50
192,120,158251,1,0
192,120,158626,2,0,B|192:16,1,100,8|0
256,24,159751,6,0,B|312:24,1,50,0|8
368,24,160501,1,0
368,24,160876,1,0
368,24,161251,2,0,B|368:176,1,150
304,176,162751,6,0,B|248:176,1,50,0|8
256,112,163501,2,0,B|200:112,1,50
144,112,164251,2,0,B|144:168,1,50,0|8
144,224,165001,2,0,B|200:224,1,50
256,224,165751,5,0
256,224,166126,1,8
256,224,166501,1,0
320,224,166876,1,0
256,208,167251,12,0,169126
64,320,190126,5,2
160,232,190876,1,2
264,152,191626,1,2
336,40,192376,6,0,B|440:-8|520:80|440:192|360:88|336:168,1,300,4|8
336,232,195001,5,0
336,232,195376,2,0,B|232:184|152:272|232:384|312:280|336:360,1,300,4|8
400,352,198001,5,0
400,352,198376,2,0,B|504:400|584:312|504:200|424:304|400:224,1,300,4|8
336,232,201001,5,0
336,232,201376,2,0,B|232:280|152:192|232:80|312:184|336:104,1,300,2|8
334,107,204001,1,0
334,107,204376,1,4
208,104,205126,5,8
208,104,205501,1,0
208,104,205876,1,0
144,104,206251,1,0
144,104,206626,1,8
144,232,207376,5,0
208,232,207751,1,0
208,232,208126,2,0,B|208:128,1,100,8|0
208,132,209251,1,0
208,132,209626,1,8
320,64,210376,5,0
384,64,210751,2,0,B|384:128,1,50,0|8
320,224,211876,1,0
272,272,212251,1,0
224,224,212626,2,0,B|224:160|288:160,1,100,8|0
288,96,213751,5,0
288,32,214126,2,0,B|224:32,1,50,8|0
176,32,214876,2,0,B|176:88,1,50
176,144,215626,2,0,B|176:200,1,50,8|0
240,192,216376,1,4
240,280,223126,6,0,B|296:280,1,50,8|0
352,280,223876,1,0
416,280,224251,1,0
384,224,224626,1,8
424,104,225376,5,0
392,48,225751,1,0
360,104,226126,1,8
360,232,226876,2,0,B|360:264,2,25
296,256,227626,2,0,B|296:224,2,25,8|0|0
296,320,228376,1,4
232,320,228751,5,0
232,320,229126,1,8
232,320,229501,2,0,B|232:216,1,100
232,220,230626,1,8
232,220,231001,1,0
232,220,231376,1,0
232,72,232126,5,8
296,72,232501,1,0
296,72,232876,1,0
296,72,233251,1,0
296,136,233626,2,0,B|400:136,1,100,8|0
384,264,235126,5,8
320,264,235501,1,0
320,264,235876,1,0
320,264,236251,1,0
320,328,236626,2,0,B|216:328,1,100,8|0
216,200,238126,6,0,B|112:200,1,100,8|0
48,200,239251,1,0
48,136,239626,2,0,B|152:136,1,100,8|4
264,136,241126,5,8
328,136,241501,2,0,B|328:192,1,50
328,248,242251,1,0
328,248,242626,2,0,B|328:352,1,100,8|0
264,344,243751,6,0,B|208:344,1,50,0|8
152,344,244501,1,0
152,344,244876,1,0
152,344,245251,2,0,B|152:192,1,150
216,192,246751,6,0,B|272:192,1,50,0|8
264,256,247501,2,0,B|320:256,1,50
376,256,248251,2,0,B|376:200,1,50,0|8
376,144,249001,2,0,B|320:144,1,50
264,144,249751,1,0
264,144,250126,5,8
264,144,250501,1,0
200,144,250876,2,0,B|200:176,2,25
200,80,251626,2,0,B|200:48,2,25,8|0|0
256,208,252376,12,4,254626
