osu file format v6

[General]
AudioFilename: Kamikaze.mp3
AudioLeadIn: 0
PreviewTime: 12749
Countdown: 0
SampleSet: Soft
StackLeniency: 0.7
Mode: 0
LetterboxInBreaks: 1

[Editor]
DistanceSpacing: 1.29999995231628
BeatDivisor: 4
GridSize: 8

[Metadata]
Title:My Love Is You
Artist:Kamikaze
Creator:orioncomet
Version:Hard
Source:Forward To U
Tags:Thai

[Difficulty]
HPDrainRate:7
CircleSize:5
OverallDifficulty:6
SliderMultiplier:1.4
SliderTickRate:4

[Events]
//Background and Video events
0,0,"BG1.jpg"
//Break Periods
2,98075,107888
2,180575,188888
//Storyboard Layer 0 (Background)
//Storyboard Layer 1 (Fail)
//Storyboard Layer 2 (Pass)
//Storyboard Layer 3 (Foreground)
//Storyboard Sound Samples
//Background Colour Transformations
3,100,0,0,0

[TimingPoints]
8626,750,4,2,0,66,1,0
12390,-100,4,2,1,66,0,0
72376,-100,4,2,1,66,0,1
96186,-200,4,2,1,66,0,1
98249,-100,4,2,1,66,0,0
115686,-50,4,2,1,66,0,0
116811,-100,4,2,1,66,0,0
144374,-100,4,2,1,66,0,1
168376,-100,4,2,1,66,0,0
168561,-100,4,2,2,45,0,0
192186,-100,4,2,1,66,0,0
228374,-100,4,2,1,66,0,1
254436,-100,4,2,1,13,0,1
254999,-100,4,2,1,66,0,0

[Colours]
Combo1 : 255,128,192
Combo2 : 39,193,252
Combo3 : 34,221,38
Combo4 : 255,128,0

[HitObjects]
256,208,9376,12,0,12001
256,192,12751,5,0
168,192,13126,1,8
96,144,13501,1,0
168,96,13876,1,0
256,96,14251,1,0
328,152,14626,2,0,B|336:208|424:208|424:144,1,140,8|0
376,72,15751,6,0,B|320:16,1,70,0|8
232,24,16501,2,0,B|176:80,1,70
184,168,17251,2,0,B|240:216,1,70
280,216,17813,2,0,B|392:216,1,105
408,304,18751,6,0,B|336:304,1,70,0|8
408,304,19501,2,0,B|408:232,1,70
408,304,20251,2,0,B|480:304,1,70,0|8
408,304,21001,2,0,B|336:304,1,70
200,304,21938,5,0
200,304,22126,2,0,B|128:304,1,70,8|0
136,216,22876,2,0,B|192:216,2,35
136,128,23626,2,0,B|136:88,2,35
224,128,24376,1,4
312,104,24751,5,0
248,40,25126,1,8
176,96,25501,1,0
240,160,25876,1,0
328,160,26251,1,0
392,96,26626,2,0,B|464:96,2,70,8|0|0
304,96,27751,6,0,B|232:96,1,70,0|8
144,96,28501,2,0,B|144:168,1,70
144,256,29251,2,0,B|216:256,1,70,0|8
304,256,30001,2,0,B|304:184,1,70,0|0
304,96,30751,6,0,B|424:96|424:240,1,210
472,312,32251,1,0
384,312,32626,1,8
424,232,33001,1,0
448,192,33188,1,0
424,152,33376,1,0
336,144,33751,5,0
248,144,34126,2,0,B|168:144,1,70,8|0
176,232,34876,2,0,B|176:276,2,35
264,264,35626,2,0,B|264:224,2,35,8|0|0
264,352,36376,2,0,B|344:352|344:256,1,140,4|8
408,192,37501,5,0
480,128,37876,1,0
408,72,38251,1,0
320,72,38626,1,8
232,72,39001,1,0
144,72,39376,1,0
56,232,40126,5,8
128,288,40501,2,0,B|160:320|200:280,1,70
264,232,41251,1,0
352,232,41626,1,8
400,152,42001,1,0
328,104,42376,2,0,B|328:152|256:176|216:136,1,140,0|8
64,56,43876,5,0
152,56,44251,1,0
104,136,44626,1,8
192,136,45001,6,0,B|240:136,1,35
272,136,45376,1,0
272,136,45751,2,0,B|272:64,1,70,0|8
360,56,46501,1,0
360,104,46688,1,0
360,152,46876,1,0
448,152,47251,2,0,B|448:200,1,35
448,232,47626,2,0,B|376:232,2,70,8|0|0
288,152,48938,5,0
288,152,49126,2,0,B|216:152,2,70,8|0|0
376,152,50251,1,0
376,64,50626,1,8
464,64,51001,1,0
464,152,51376,1,0
464,152,51751,5,0
464,200,51938,1,0
464,200,52126,2,0,B|464:272,2,70
376,200,53251,2,0,B|304:200,2,70,0|8|0
376,112,54376,5,0
248,64,54938,1,0
200,64,55126,1,8
200,200,55688,2,0,B|240:200,1,35
328,200,56251,1,0
328,200,56626,1,8
328,112,57001,6,0,B|272:56,1,70
208,112,57751,2,0,B|136:112,1,70,0|8
64,144,58501,1,0
80,184,58688,1,0
128,184,58876,1,0
216,184,59251,1,0
216,184,59438,1,0
216,184,59626,1,8
216,184,59813,2,0,B|256:184,1,35,0|0
296,104,60376,6,0,B|320:24|408:32,1,140,4|8
400,120,61501,2,0,B|432:144,1,35
464,168,61876,2,0,B|440:248|352:240,1,140,0|8
360,328,63001,6,0,B|320:328,1,35
280,328,63376,2,0,B|136:328,1,140,0|8
96,248,64501,2,0,B|64:224,1,35
32,200,64876,2,0,B|56:120|144:128,1,140,0|8
144,40,66001,6,0,B|184:40,1,35
224,40,66376,2,0,B|368:40,1,140,0|8
408,120,67501,2,0,B|440:144,1,35
472,168,67876,2,0,B|448:248|360:240,1,140,0|8
304,176,69001,5,0
304,88,69376,1,0
232,32,69751,1,0
160,88,70126,2,0,B|96:144|168:216,1,140,8|0
256,208,71251,1,0
328,160,71626,1,8
416,160,72001,2,0,B|488:160,1,70,0|4
456,248,72751,6,0,B|456:320,1,70,0|8
368,248,73501,2,0,B|368:320,1,70,0|0
280,248,74251,2,0,B|280:320,1,70,0|8
232,320,74813,2,0,B|120:320,1,105
128,232,75751,6,0,B|128:160,1,70,0|8
216,232,76501,2,0,B|216:160,1,70,0|0
304,232,77251,2,0,B|304:160,1,70,0|8
352,160,77813,2,0,B|464:160,1,105
408,88,78751,5,0
336,40,79126,1,8
248,40,79501,2,0,B|192:96,1,70
200,184,80251,1,0
248,264,80626,1,8
336,264,81001,2,0,B|392:208,1,70,0|0
296,112,81938,5,0
296,112,82126,2,0,B|296:40,1,70,8|0
208,40,82876,2,0,B|208:80,2,35
120,40,83626,2,0,B|80:40,2,35,8|0|0
120,128,84376,1,4
120,216,84751,6,0,B|192:216,1,70,0|8
192,304,85501,1,0
192,304,85876,1,0
280,304,86251,1,0
280,304,86626,2,0,B|280:232,2,70,8|0|0
368,304,87751,5,0
368,304,88126,1,8
416,224,88501,2,0,B|488:224,2,70
328,224,89626,2,0,B|256:224,2,70,8|0|0
384,152,90751,6,0,B|384:80,1,70,0|8
296,48,91501,2,0,B|296:120,1,70
296,208,92251,2,0,B|296:280,2,70,0|8|0
296,120,93376,1,0
296,120,93751,5,0
296,72,93938,2,0,B|296:32,1,35,0|8
208,40,94501,1,0
208,128,94876,2,0,B|208:170,2,35
208,216,95626,2,0,B|208:176,2,35
296,216,96376,2,0,B|440:216,1,140,4|0
192,200,108938,6,0,B|152:200,1,35,0|8
152,112,109501,1,0
240,112,109876,1,0
304,48,110251,1,0
392,48,110626,1,8
456,112,111001,2,0,B|384:112,1,70
320,168,111751,6,0,B|392:168,1,70,0|8
472,200,112501,2,0,B|472:272,1,70
408,336,113251,1,0
328,288,113626,2,0,B|256:288,1,70,8|0
208,216,114376,5,0
328,160,114938,1,0
296,128,115126,1,8
112,136,115876,6,2,B|112:176,3,35
112,136,116251,6,2,B|112:96,4,35
200,136,117001,6,0,B|272:136,1,70
272,224,117751,2,0,B|312:224,2,35,0|0|8
272,136,118501,2,0,B|272:56,1,70
360,64,119251,2,0,B|400:64,2,35,0|0|8
360,112,119813,2,0,B|248:112,1,105
176,152,120751,6,0,B|96:152,1,70,0|8
176,152,121501,2,0,B|176:224,1,70,0|0
176,152,122251,2,0,B|176:72,2,70,0|8|0
176,152,123376,1,4
224,288,123938,5,0
224,288,124126,1,8
224,288,124501,2,0,B|224:216,1,70
224,288,125251,2,0,B|152:288,2,70,0|8|0
224,288,126376,2,0,B|224:360,1,70
312,352,127126,5,8
448,352,127688,1,0
448,304,127876,1,0
448,216,128251,1,0
448,216,128626,1,8
384,152,129001,6,0,B|440:96,1,70
384,24,129751,2,0,B|384:64,2,35,0|0|0
296,24,130501,2,0,B|256:24,2,35
296,112,131251,2,0,B|296:152,2,35
248,112,131813,2,0,B|208:112,1,35
120,112,132376,6,0,B|40:112|40:208,1,140,4|8
128,200,133501,2,0,B|128:280|224:280,2,140
128,112,135376,6,0,B|128:32|224:32,1,140,0|8
216,120,136501,2,0,B|296:120|296:216,1,140
295,212,137626,1,8
208,208,138001,6,0,B|208:280,1,70
288,320,138751,2,0,B|328:320,2,35,0|0|8
200,320,139501,2,0,B|160:320,2,35
200,320,140251,1,0
200,320,140626,1,8
200,232,141001,6,0,B|200:160,1,70
200,72,141751,1,0
200,72,142126,2,0,B|272:72,1,70,8|0
360,72,142876,5,0
408,72,143063,1,0
416,160,143438,1,0
464,160,143626,2,0,B|464:200,1,35,8|0
464,240,144001,2,0,B|424:240,1,35
384,240,144376,1,4
328,168,144751,6,0,B|328:88,1,70,0|8
256,40,145501,1,0
256,40,145876,1,0
168,40,146251,1,0
256,40,146626,2,0,B|256:112,2,70,8|0|0
344,40,147751,5,0
432,40,148126,1,0
344,40,148501,1,0
432,40,148876,1,0
344,40,149251,1,0
432,40,149626,2,0,B|432:112,2,70
392,120,150751,6,0,B|392:192,1,70
480,192,151501,2,0,B|480:264,1,70
480,352,152251,1,0
392,352,152626,1,0
432,272,153001,2,0,B|432:200,1,70
344,224,153751,5,0
344,224,154126,2,0,B|272:224,1,70
184,224,154876,2,0,B|184:264,2,35
96,224,155626,2,0,B|96:184,2,35,8|0|0
96,224,156376,1,4
184,224,156751,5,0
184,312,157126,1,8
272,312,157501,1,0
272,224,157876,1,0
360,224,158251,1,0
360,136,158626,2,0,B|432:136,2,70,8|0|0
272,136,159751,6,0,B|200:136,2,70,0|8|0
272,48,160876,1,0
360,48,161251,1,0
360,136,161626,2,0,B|360:208,2,70,8|0|0
448,136,162751,5,0
448,224,163126,1,8
360,224,163501,1,0
400,304,163876,1,0
312,304,164251,2,0,B|240:304,1,70,0|8
152,304,165001,2,0,B|152:232,2,70
64,304,166126,5,8
64,304,166501,1,0
64,216,166876,2,0,B|24:216,2,35
64,128,167626,2,0,B|32:32|160:48,1,140,8|4
184,48,168563,6,0,B|224:48,2,35
184,96,169126,1,8
184,184,169501,1,0
232,184,169688,6,0,B|272:184,2,35
232,232,170251,2,0,B|232:272,2,35,0|0|8
144,232,171001,1,0
184,104,171563,6,0,B|184:56,1,35
232,72,171938,1,0
280,72,172126,2,0,B|280:112,2,35,8|0|0
328,72,172688,6,0,B|368:72,1,35
360,120,173063,2,0,B|360:160,2,35
408,120,173626,1,8
408,208,174001,1,0
296,288,174563,6,0,B|296:328,1,35
248,320,174938,2,0,B|208:320,2,35,0|8|0
248,232,175688,6,0,B|248:192,1,35
248,152,176063,2,0,B|208:152,1,35
168,152,176438,2,0,B|168:112,2,35,0|8|0
120,152,177001,1,0
120,240,177376,1,0
256,192,177938,6,0,B|296:192,1,35,0|8
256,104,178501,1,0
256,104,178876,1,0
344,104,179251,2,0,B|344:176,1,70,0|8
344,264,180001,2,0,B|416:264,1,70
256,192,189938,6,0,B|216:192,1,35,0|8
256,280,190501,1,0
256,280,190876,1,0
168,280,191251,2,0,B|168:208,1,70,0|8
168,210,192001,1,0
248,160,192376,6,0,B|224:80|136:88,1,140,4|0
144,176,193501,2,0,B|112:200,1,35
80,224,193876,2,0,B|104:304|192:296,1,140,0|8
264,344,195001,6,0,B|304:344,1,35
344,344,195376,2,0,B|488:344,1,140,0|8
448,264,196501,2,0,B|480:240,1,35
512,216,196876,2,0,B|488:136|400:144,1,140,0|8
400,56,198001,6,0,B|360:56,1,35
320,56,198376,2,0,B|176:56,1,140,0|8
88,56,199501,2,0,B|56:80,1,35
24,104,199876,2,0,B|48:184|136:176,1,140,0|8
200,232,201001,5,0
240,144,201376,1,0
312,88,201751,1,0
384,144,202126,2,0,B|424:184|384:248,1,105,8|0
368,280,202876,2,0,B|346:311,2,35
280,280,203626,2,0,B|256:312,2,35,0|0|0
280,280,204376,1,4
280,176,204751,6,0,B|280:104,1,70,0|8
234,108,205313,2,0,B|234:180,1,70
128,264,206251,2,0,B|48:264,2,70,0|8|0
200,320,207376,1,4
288,344,207751,6,0,B|360:344,1,70,0|8
356,298,208313,2,0,B|284:298,1,70
312,160,209251,2,0,B|312:80,2,70,0|8|0
240,216,210376,1,4
152,216,210751,5,0
64,216,211126,1,8
152,216,211501,1,0
64,216,211876,1,0
152,216,212251,2,0,B|152:144,1,70,0|8
64,216,213001,2,0,B|64:144,1,70
160,48,213938,6,0,B|200:48,1,35,0|8
160,136,214501,1,0
248,136,214876,2,0,B|248:96,2,35
248,224,215626,2,0,B|208:224,2,35,8|0|0
248,224,216376,1,4
248,136,216751,6,0,B|248:64,1,70,0|8
293,68,217313,2,0,B|293:140,1,70
400,224,218251,2,0,B|480:224,2,70,0|8|0
320,264,219376,1,4
240,304,219751,6,0,B|168:304,1,70,0|8
171,258,220313,2,0,B|243:258,1,70
216,120,221251,2,0,B|216:40,2,70,0|8|0
288,176,222376,1,4
200,176,222751,5,0
112,176,223126,1,8
200,176,223501,1,0
112,176,223876,1,0
200,176,224251,2,0,B|200:248,1,70,0|8
112,176,225001,2,0,B|112:248,1,70
208,344,225938,6,0,B|248:344,1,35,0|8
208,256,226501,1,0
208,168,226876,2,0,B|248:168,2,35
120,168,227626,2,0,B|80:168,2,35,8|0|0
120,168,228376,1,4
56,248,228751,6,0,B|56:320,1,70,0|8
144,248,229501,2,0,B|144:320,1,70,0|0
232,248,230251,2,0,B|232:320,1,70,0|8
280,320,230813,2,0,B|392:320,1,105
384,232,231751,6,0,B|384:160,1,70,0|8
296,232,232501,2,0,B|296:160,1,70,0|0
208,232,233251,2,0,B|208:160,1,70,0|8
160,160,233813,2,0,B|48:160,1,105
104,88,234751,5,0
176,40,235126,1,8
264,40,235501,2,0,B|320:96,1,70
312,184,236251,1,0
264,264,236626,1,8
176,264,237001,2,0,B|120:208,1,70
216,112,237938,5,0
216,112,238126,2,0,B|216:40,1,70,8|0
304,40,238876,2,0,B|304:80,2,35
392,40,239626,2,0,B|432:40,2,35,8|0|0
392,128,240376,1,4
392,216,240751,6,0,B|320:216,1,70,0|8
320,304,241501,1,0
320,304,241876,1,0
232,304,242251,1,0
232,304,242626,2,0,B|232:232,2,70,8|0|0
144,304,243751,5,0
144,304,244126,1,8
96,224,244501,2,0,B|24:224,2,70
184,224,245626,2,0,B|256:224,2,70,8|0|0
128,152,246751,6,0,B|128:80,1,70,0|8
216,48,247501,2,0,B|216:120,1,70
216,208,248251,2,0,B|288:208,2,70,0|8|0
216,120,249376,1,0
216,120,249751,5,0
216,72,249938,2,0,B|216:32,1,35,0|8
304,40,250501,1,0
304,128,250876,2,0,B|304:170,2,35
304,216,251626,2,0,B|304:176,2,35,8|0|0
392,216,252376,2,0,B|432:296|560:272|560:104|432:32|328:80|352:176,1,420,4|0
