osu file format v9

[General]
AudioFilename: Kami no Mizo Shiri-tai - Koi no Shirushi (TV Size).mp3
AudioLeadIn: 0
PreviewTime: 57381
Countdown: 0
SampleSet: Soft
StackLeniency: 0.7
Mode: 0
LetterboxInBreaks: 0

[Editor]
DistanceSpacing: 0.8
BeatDivisor: 2
GridSize: 4

[Metadata]
Title:Koi no Shirushi (TV Size)
Artist:Kami no Mizo Shiri-tai
Creator:osuplayer111
Version:Normal
Source:Kami Nomi zo Shiru Sekai
Tags:Elsie de Lute Ima Takahara Ayumi Aoyama Mio Nakagawa Kanon Shiomiya Shiori Kanae Itou Taketatsu Ayana Yuuki Aoi Touyama Nao Hanazawa Kana The World God Only Knows ykcarrot those -Sekai- Sekai Andrea spboxer3 Ending

[Difficulty]
HPDrainRate:4
CircleSize:3
OverallDifficulty:4
ApproachRate:5
SliderMultiplier:1.2
SliderTickRate:1

[Events]
//Background and Video events
0,0,"BG.jpg"
//Break Periods
//Storyboard Layer 0 (Background)
Sprite,Background,Centre,"SB\kanonbg.png",340,300 S,0,9492,,1.12 R,0,9492,21128,-0.6,0
Sprite,Background,Centre,"SB\ayumibg.png",320,240 S,0,21128,,0.9 M,0,21128,32765,440,230,240,272
Sprite,Background,Centre,"SB\elsiebg.png",323,240 R,0,32765,44401,0.13,-0.37
Sprite,Background,Centre,"SB\miobg.png",320,240 S,0,44401,,0.9 R,0,44401,,-0.22 M,0,44401,50037,210,311,210,261 M,0,50037,50219,210,261,150,273 M,0,50219,57492,150,273,150,323
Sprite,Background,Centre,"SB\shioribg.png",320,240 S,0,44401,,0.7 M,0,44401,50037,510,192,510,242 M,0,50037,50219,510,242,450,254 M,0,50219,57492,450,254,450,204
Sprite,Background,Centre,"SB\bar.png",350,240 S,0,43674,44401,0,2 R,0,43674,44401,0,-6.283185 F,0,44401,56401,1 M,0,50037,50219,350,240,290,240
Sprite,Background,Centre,"SB\sky.png",100,320 S,0,57492,67674,2,1.6 R,0,57492,69128,-0.4,0 M,0,67674,68219,100,320,320,240 S,0,67674,68219,1.6,1.1 S,0,68219,69128,1.1,1.06
Sprite,Background,BottomCentre,"SB\night.png",320,480 M,1,69128,88037,320,480,320,718 S,2,69128,88401,1.5,1.2
Sprite,Background,Centre,"SB\end.png",320,240 F,0,88765,93128,1
Sprite,Background,Centre,"SB\white.png",320,240 C,0,-1416,,0,0,0 C,0,-689,765,0,0,0,255,255,255 F,0,9492,10219,1,0 F,0,21128,21855,1,0 F,0,32765,33492,1,0 F,0,44401,45128,1,0 F,0,55855,56401,0,1 F,0,56401,57492,1 F,0,57492,58946,1,0 F,0,69128,69855,1,0 F,0,86946,88401,0,1 F,0,88401,88765,1 F,0,88765,89492,1,0
//Storyboard Layer 1 (Fail)
//Storyboard Layer 2 (Pass)
//Storyboard Layer 3 (Foreground)
Sprite,Foreground,Centre,"SB\circle.png",320,240 M,0,57128,,323,239 F,0,57128,,0.6 S,0,57128,57492,0,1
Sprite,Foreground,CentreLeft,"SB\title.png",640,200 M,0,401,765,640,200,200,200 M,0,765,1855,200,200,155,200 M,0,1855,2219,155,200,-285,200
Sprite,Foreground,CentreLeft,"SB\artist.png",640,200 M,0,1855,2219,640,200,200,200 M,0,2219,3310,200,200,155,200 M,0,3310,3855,155,200,-505,200
Sprite,Foreground,CentreLeft,"SB\those.png",640,200 M,0,3310,3674,640,200,200,200 M,0,3674,4765,200,200,155,200 M,0,4765,5310,155,200,-505,200
Sprite,Foreground,Centre,"SB\sb.png",795,200 M,0,4765,5128,795,200,355,200 M,0,5128,6219,355,200,300,200 M,0,6219,6765,300,200,-350,200 R,0,6380,6765,0,4
Sprite,Foreground,BottomCentre,"SB\twgok.png",320,0 M,0,6219,6583,320,0,320,440 F,0,6583,8401,1,0 S,0,6583,8401,1,2.2
Sprite,Foreground,Centre,"SB\circle.png",320,240 F,0,8401,,0.6 S,0,8401,9128,0,2.5
Sprite,Foreground,Centre,"SB\pfp.png",320,240 F,0,9492,57492,1
Sprite,Foreground,Centre,"SB\white.png",320,240 F,0,9492,10219,1,0
Sprite,Foreground,TopLeft,"SB\a1.png",326,360 S,0,9128,,0.75 F,0,9128,9492,0,1 F,0,14946,15310,1,0
Sprite,Foreground,TopLeft,"SB\a2.png",326,388 S,0,12037,,0.75 F,0,12037,12401,0,1 F,0,14946,15310,1,0
Sprite,Foreground,TopLeft,"SB\a3.png",326,360 S,0,14946,,0.75 F,0,14946,15310,0,1 F,0,20765,21128,1,0
Sprite,Foreground,TopLeft,"SB\a4.png",326,388 S,0,17855,,0.75 F,0,17855,18219,0,1 F,0,20765,21128,1,0
Sprite,Foreground,TopLeft,"SB\b1.png",326,360 S,0,20765,,0.75 F,0,20765,21128,0,1 F,0,26583,26946,1,0
Sprite,Foreground,TopLeft,"SB\b2.png",326,388 S,0,23674,,0.75 F,0,23674,24037,0,1 F,0,26583,26946,1,0
Sprite,Foreground,TopLeft,"SB\b3.png",326,360 S,0,26583,,0.75 F,0,26583,26946,0,1 F,0,32401,32765,1,0
Sprite,Foreground,TopLeft,"SB\b4.png",326,388 S,0,29492,,0.75 F,0,29492,29855,0,1 F,0,32401,32765,1,0
Sprite,Foreground,TopLeft,"SB\b5.png",441,388 S,0,30946,,0.75 F,0,30946,31310,0,1 F,0,32401,32765,1,0
Sprite,Foreground,TopLeft,"SB\c1.png",326,360 S,0,32401,,0.75 F,0,32401,32765,0,1 F,0,38219,38583,1,0
Sprite,Foreground,TopLeft,"SB\c2.png",326,388 S,0,35310,,0.75 F,0,35310,35674,0,1 F,0,38219,38583,1,0
Sprite,Foreground,TopLeft,"SB\c3.png",326,360 S,0,38219,,0.75 F,0,38219,38583,0,1 F,0,43310,43674,1,0
Sprite,Foreground,TopLeft,"SB\c4.png",326,388 S,0,39674,,0.75 F,0,39674,40037,0,1 F,0,43310,43674,1,0
Sprite,Foreground,TopLeft,"SB\d1.png",326,360 S,0,44037,,0.75 F,0,44037,44401,0,1 F,0,49855,50219,1,0
Sprite,Foreground,TopLeft,"SB\d2.png",326,388 S,0,46946,,0.75 F,0,46946,47310,0,1 F,0,49855,50219,1,0
Sprite,Foreground,TopLeft,"SB\d3.png",326,360 S,0,49855,,0.75 F,0,49855,50219,0,1 F,0,56401,56765,1,0
Sprite,Foreground,TopLeft,"SB\d4.png",410,360 S,0,51310,,0.75 F,0,51310,51674,0,1 F,0,56401,56765,1,0
Sprite,Foreground,TopLeft,"SB\d5.png",326,388 S,0,52765,,0.75 F,0,52765,53128,0,1 F,0,56401,56765,1,0
Sprite,Foreground,Centre,"SB\circle2.png",228,320 M,0,59674,,228,320 S,0,59674,59855,0,0.8 F,0,59855,60219,1,0 S,0,59855,60219,0.8,1 M,0,62583,,381,400 F,0,62583,,1 S,0,62583,62765,0,0.8 F,0,62765,63128,1,0 S,0,62765,63128,0.8,1 M,0,71310,,192,120 F,0,71310,,1 S,0,71310,71491,0,0.8 F,0,71491,71855,1,0 S,0,71491,71855,0.8,1 M,0,74219,,228,387 F,0,74219,,1 S,0,74219,74401,0,0.8 F,0,74401,74764,1,0 S,0,74401,74764,0.8,1
Sprite,Foreground,Centre,"SB\circle2.png",522,268 M,0,59855,,522,286 S,0,59855,60037,0,0.8 F,0,60037,60401,1,0 S,0,60037,60401,0.8,1 M,0,62765,,181,211 F,0,62765,,1 S,0,62765,62946,0,0.8 F,0,62946,63310,1,0 S,0,62946,63310,0.8,1 M,0,71491,,482,300 F,0,71491,,1 S,0,71491,71673,0,0.8 F,0,71673,72037,1,0 S,0,71673,72037,0.8,1 M,0,74401,,434,191 F,0,74401,,1 S,0,74401,74582,0,0.8 F,0,74582,74946,1,0 S,0,74582,74946,0.8,1
Sprite,Foreground,TopLeft,"SB\e1.png",326,360 S,0,57128,,0.75 F,0,57128,57492,0,1 F,0,62946,63310,1,0
Sprite,Foreground,TopLeft,"SB\e2.png",326,388 S,0,60037,,0.75 F,0,60037,60401,0,1 F,0,62946,63310,1,0
Sprite,Foreground,TopLeft,"SB\e3.png",326,360 S,0,62946,,0.75 F,0,62946,63310,0,1 F,0,68765,69128,1,0
Sprite,Foreground,TopLeft,"SB\e4.png",326,388 S,0,67310,,0.75 F,0,67310,67674,0,1 F,0,68765,69128,1,0
Sprite,Foreground,TopLeft,"SB\f1.png",326,360 S,0,68765,,0.75 F,0,68765,69128,0,1 F,0,74583,74946,1,0
Sprite,Foreground,TopLeft,"SB\f2.png",326,388 S,0,71674,,0.75 F,0,71674,72037,0,1 F,0,74583,74946,1,0
Sprite,Foreground,TopLeft,"SB\f3.png",326,360 S,0,74583,,0.75 F,0,74583,74946,0,1 F,0,78946,79310,1,0
Sprite,Foreground,TopLeft,"SB\f4.png",326,388 S,0,77128,,0.75 F,0,77128,77492,0,1 F,0,78946,79310,1,0
Sprite,Foreground,TopLeft,"SB\f5.png",326,360 F,0,78946,79310,0,1 S,0,79846,,0.75 F,0,82946,83310,1,0
//Storyboard Sound Samples
Sample,49855,0,"soft-hitclap.wav",70
Sample,60037,0,"soft-hitclap.wav",70
Sample,62946,0,"soft-hitclap.wav",70
Sample,64401,0,"soft-hitclap.wav",70
Sample,65128,0,"soft-hitclap.wav",70
Sample,71674,0,"soft-hitclap.wav",70
Sample,74583,0,"soft-hitclap.wav",70
//Background Colour Transformations
3,100,255,0,128

[TimingPoints]
765,363.636363636364,4,2,1,80,1,0
6946,-100,4,2,1,5,0,0
7128,-100,4,2,1,80,0,0
7310,-100,4,2,1,5,0,0
7674,-100,4,2,1,80,0,0
8765,-100,4,2,1,5,0,0
8946,-100,4,2,1,80,0,0
21492,-100,4,2,2,80,0,0
21674,-100,4,2,1,80,0,0
22946,-100,4,2,2,80,0,0
23128,-100,4,2,1,80,0,0
27310,-100,4,2,2,80,0,0
27492,-100,4,2,1,80,0,0
28765,-100,4,2,2,80,0,0
29310,-100,4,2,1,80,0,0
31492,-100,4,1,1,50,0,0
32765,-100,4,2,1,80,0,0
43674,-100,4,2,1,5,0,0
44401,-100,4,2,1,80,0,0
46219,-100,4,2,2,80,0,0
46401,-100,4,2,1,80,0,0
49128,-100,4,2,2,80,0,0
49310,-100,4,2,1,80,0,0
53492,-100,4,2,2,80,0,0
53674,-100,4,2,1,80,0,0
54946,-100,4,2,2,80,0,0
55128,-100,4,2,1,80,0,0
55674,-100,4,2,2,80,0,0
55855,-100,4,2,1,80,0,0
57128,-100,4,2,2,80,0,0
57310,-100,4,2,1,80,0,0
57492,-90.9090909090909,4,2,1,80,0,1
59855,-90.9090909090909,4,2,2,80,0,1
60219,-90.9090909090909,4,2,1,80,0,1
61492,-90.9090909090909,4,2,2,80,0,1
61674,-90.9090909090909,4,2,1,80,0,1
62765,-90.9090909090909,4,2,2,80,0,1
63128,-90.9090909090909,4,2,1,80,0,1
68037,-90.9090909090909,4,2,2,80,0,1
68219,-90.9090909090909,4,2,1,80,0,1
68946,-90.9090909090909,4,2,1,80,0,0
69128,-90.9090909090909,4,2,1,80,0,1
71492,-90.9090909090909,4,2,2,80,0,1
71855,-90.9090909090909,4,2,1,80,0,1
73128,-90.9090909090909,4,2,2,80,0,1
73310,-90.9090909090909,4,2,1,80,0,1
74401,-90.9090909090909,4,2,2,80,0,1
74765,-90.9090909090909,4,2,1,80,0,1
75310,-90.9090909090909,4,2,2,80,0,1
75492,-90.9090909090909,4,2,1,80,0,1
75855,-90.9090909090909,4,2,2,80,0,1
76765,-90.9090909090909,4,2,2,80,0,1
76946,-90.9090909090909,4,2,1,80,0,1
77310,-90.9090909090909,4,2,2,80,0,1
77674,-90.9090909090909,4,2,1,80,0,1
79674,-90.9090909090909,4,2,2,80,0,1
79855,-90.9090909090909,4,2,1,80,0,1
80401,-90.9090909090909,4,2,2,80,0,1
80583,-90.9090909090909,4,2,1,80,0,1
80765,-90.9090909090909,4,2,1,80,0,0
81128,-90.9090909090909,4,2,1,70,0,0
83855,-90.9090909090909,4,1,1,50,0,0
85310,-90.9090909090909,4,1,1,5,0,0
85492,-90.9090909090909,4,1,1,80,0,0
87310,-100,4,1,1,70,0,0
87674,-100,4,1,1,60,0,0
88037,-100,4,1,1,50,0,0
88401,-100,4,1,1,40,0,0
88765,-100,4,1,1,30,0,0
89128,-100,4,1,1,15,0,0
89492,-100,4,2,1,5,0,0

[Colours]
Combo1 : 255,255,128
Combo2 : 128,255,128
Combo3 : 255,128,128
Combo4 : 255,128,255

[HitObjects]
135,134,6219,1,8
40,118,6583,2,0,B|58:45|123:21|184:49,2,180
231,129,8401,2,0,B|283:182|351:170|390:115,1,180,4|0
329,252,9492,5,4
233,244,9855,2,0,B|175:258|175:258|134:311|65:295,2,180,0|0|2
288,165,11310,2,0,B|304:156|322:154|347:157|347:157|370:98|350:38,1,180
260,71,12219,6,0,B|203:48,1,60,0|2
108,55,12765,1,0
59,137,13128,2,0,B|112:171|116:238,1,120
111,333,13855,2,0,B|165:330|221:297|212:231|206:194,1,180,2|0
351,232,14946,1,0
444,209,15310,5,2
408,69,15855,2,0,B|348:69|348:69|296:97|296:97|236:97,1,180
143,126,16765,1,2
270,193,17310,2,0,B|330:193|330:193|382:221,1,120
265,305,18219,6,0,B|200:299|170:240|170:240|112:265,2,180,2|0|0
356,338,19674,2,0,B|378:279|333:220|356:161,1,180,2|4
212,146,20765,1,8
286,86,21128,6,0,B|331:41|415:52|442:106,1,180,6|0
479,193,22037,2,0,B|421:224,1,60,0|8
403,315,22583,2,0,B|358:360|274:349|246:294,1,180
175,232,23492,2,0,B|177:166,1,60,0|8
123,93,24037,6,0,B|174:131|236:116,1,120,0|8
303,185,24765,2,0,B|422:205,2,120,0|8|2
224,308,26037,2,0,B|145:249|54:271,1,180,2|8
95,346,26946,6,0,B|147:319|158:235|113:190,1,180,2|0
184,126,27855,2,0,B|251:123,1,60,0|8
339,107,28401,2,0,B|286:133|275:217|320:262,1,180
383,190,29310,6,0,B|435:163|446:79|401:34,2,180,0|2|8
346,279,30765,2,0,B|316:267|297:237|297:237|240:234,1,120,8|0
148,215,31492,2,0,B|89:210,1,60,0|0
55,120,32037,2,0,B|114:125,1,60,0|0
259,119,32765,5,6
211,304,33492,2,0,B|271:292|329:304,1,120,0|10
401,239,34219,2,0,B|401:179|401:179|381:123|381:123|381:63,2,180,0|0|10
317,191,35674,6,0,B|498:166,2,180,0|0|10
223,170,37128,2,0,B|194:163|164:161,1,60
146,66,37674,2,0,B|203:86|263:82,1,120,2|2
304,220,38583,6,0,B|286:274|315:319|369:322|407:280,2,180,0|0|10
208,220,40037,2,0,B|225:274|196:319|142:322|104:280,2,180,0|0|10
256,192,41492,12,0,43674
471,275,44401,6,0,B|412:264|354:285,1,120,4|8
261,258,45128,1,0
171,293,45492,1,8
186,198,45855,2,0,B|158:113|83:53,2,180,0|0|8
102,246,47310,5,0
183,298,47674,1,8
265,248,48037,1,0
271,152,48401,1,8
186,198,48765,2,0,B|273:225|359:175|359:175|467:241,1,300
439,97,50219,6,0,B|387:67,1,60,4|0
296,98,50765,2,0,B|243:129|180:99,1,120,0|0
109,224,51674,2,0,B|159:255,1,60,0|0
243,207,52219,2,0,B|298:212|298:212|298:203|298:203|353:207,1,120
262,96,53128,6,0,B|200:80|133:132|136:192,2,180,4|0|8
356,117,54583,2,0,B|475:148|488:263|383:350|273:318|263:195,1,420
142,116,56401,2,0,B|93:116|93:116|89:111|89:111|89:120|89:120|84:116|84:116|36:116,2,120,4|0|8
236,68,57492,6,0,B|303:49|374:71,1,131.999996066094,4|8
406,166,58219,2,0,B|339:185|268:163,1,131.999996066094,0|8
187,222,58946,1,0
280,271,59310,1,8
187,222,59674,2,0,B|126:246,2,65.9999980330468,0|8|8
129,133,60401,5,0
235,127,60765,1,8
339,143,61128,2,0,B|395:161|446:132|474:82|459:22,2,197.99999409914,0|0|8
300,44,62583,2,0,B|366:49,2,65.9999980330468,0|8|8
235,127,63310,6,0,B|168:101|109:141,1,131.999996066094,0|8
181,218,64037,2,0,B|189:286,1,65.9999980330468
284,238,64583,2,0,B|345:263|345:263|371:306|426:305,2,131.999996066094
362,167,65674,6,0,B|432:181,2,65.9999980330468,0|8|0
434,90,66401,2,0,B|504:94,2,65.9999980330468,0|8|0
275,95,67310,1,8
189,157,67674,6,4,B|132:138|81:167|53:217|68:277,1,197.99999409914
171,257,68583,2,0,B|229:286,1,65.9999980330468,0|8
328,247,69128,6,0,B|328:188|328:188|335:173|335:173|335:118,1,131.999996066094,4|8
432,158,69855,2,0,B|432:216|432:216|424:231|424:231|424:286,1,131.999996066094,0|8
340,352,70583,1,0
243,310,70946,1,8
144,272,71310,2,0,B|88:304,2,65.9999980330468,0|8|8
227,206,72037,5,0
249,103,72401,1,8
148,135,72765,2,0,B|243:176|339:138,2,197.99999409914,0|0|8
47,168,74219,2,0,B|24:229,2,65.9999980330468,0|8|8
126,239,74946,6,4,B|228:250|292:331,1,197.99999409914
340,238,75855,2,8,B|401:214,1,65.9999980330468,0|8
433,112,76401,2,4,B|330:100|266:19,1,197.99999409914
219,113,77310,6,0,B|158:137,2,65.9999980330468,0|8|0
252,213,78037,2,0,B|293:162,2,65.9999980330468,0|8|0
96,241,78946,1,8
24,318,79310,2,0,B|40:348|88:369|204:394|176:301|204:241|256:234|308:241|336:301|308:394|424:369|472:348|488:318,1,527.999984264374
416,241,81128,5,4
496,172,81492,2,0,B|446:121|360:126|328:190,1,197.99999409914,0|2
244,125,82401,2,0,B|286:73,2,65.9999980330468,0|0|4
165,54,83128,2,0,B|125:104|125:104|125:170,1,131.999996066094,2|0
69,261,83855,6,0,B|101:279|143:277,1,65.9999980330468,0|0
231,240,84401,2,0,B|298:234,1,65.9999980330468,0|0
402,229,84946,2,0,B|379:165|408:100|408:100|344:76,1,197.99999409914,0|0
259,137,85855,2,0,B|222:137|186:160,1,65.9999980330468,0|0
256,192,86946,12,0,89492
