osu file format v9

[General]
AudioFilename: Kami no Mizo Shiri-tai - Koi no Shirushi (TV Size).mp3
AudioLeadIn: 0
PreviewTime: 57381
Countdown: 0
SampleSet: Soft
StackLeniency: 0.4
Mode: 0
LetterboxInBreaks: 0

[Editor]
DistanceSpacing: 0.9
BeatDivisor: 4
GridSize: 4

[Metadata]
Title:Koi no Shirushi (TV Size)
Artist:Kami no Mizo Shiri-tai
Creator:osuplayer111
Version:Insane
Source:Kami Nomi zo Shiru Sekai
Tags:Elsie de Lute Ima Takahara Ayumi Aoyama Mio Nakagawa Kanon Shiomiya Shiori Kanae Itou Taketatsu Ayana Yuuki Aoi Touyama Nao Hanazawa Kana The World God Only Knows ykcarrot those -Sekai- Sekai Andrea spboxer3 Ending

[Difficulty]
HPDrainRate:8
CircleSize:4
OverallDifficulty:7
ApproachRate:8
SliderMultiplier:1.8
SliderTickRate:2

[Events]
//Background and Video events
0,0,"BG.jpg"
//Break Periods
//Storyboard Layer 0 (Background)
Sprite,Background,Centre,"SB\kanonbg.png",340,300 S,0,9492,,1.12 R,0,9492,21128,-0.6,0
Sprite,Background,Centre,"SB\ayumibg.png",320,240 S,0,21128,,0.9 M,0,21128,32765,440,230,240,272
Sprite,Background,Centre,"SB\elsiebg.png",323,240 R,0,32765,44401,0.13,-0.37
Sprite,Background,Centre,"SB\miobg.png",320,240 S,0,44401,,0.9 R,0,44401,,-0.22 M,0,44401,50037,210,311,210,261 M,0,50037,50219,210,261,150,273 M,0,50219,57492,150,273,150,323
Sprite,Background,Centre,"SB\shioribg.png",320,240 S,0,44401,,0.7 M,0,44401,50037,510,192,510,242 M,0,50037,50219,510,242,450,254 M,0,50219,57492,450,254,450,204
Sprite,Background,Centre,"SB\bar.png",350,240 S,0,43674,44401,0,2 R,0,43674,44401,0,-6.283185 F,0,44401,56401,1 M,0,50037,50219,350,240,290,240
Sprite,Background,Centre,"SB\sky.png",100,320 S,0,57492,67674,2,1.6 R,0,57492,69128,-0.4,0 M,0,67674,68219,100,320,320,240 S,0,67674,68219,1.6,1.1 S,0,68219,69128,1.1,1.06
Sprite,Background,BottomCentre,"SB\night.png",320,480 M,1,69128,88037,320,480,320,718 S,2,69128,88401,1.5,1.2
Sprite,Background,Centre,"SB\end.png",320,240 F,0,88765,93128,1
Sprite,Background,Centre,"SB\white.png",320,240 C,0,-1416,,0,0,0 C,0,-689,765,0,0,0,255,255,255 F,0,9492,10219,1,0 F,0,21128,21855,1,0 F,0,32765,33492,1,0 F,0,44401,45128,1,0 F,0,55855,56401,0,1 F,0,56401,57492,1 F,0,57492,58946,1,0 F,0,69128,69855,1,0 F,0,86946,88401,0,1 F,0,88401,88765,1 F,0,88765,89492,1,0
//Storyboard Layer 1 (Fail)
//Storyboard Layer 2 (Pass)
//Storyboard Layer 3 (Foreground)
Sprite,Foreground,Centre,"SB\circle.png",320,240 M,0,57128,,323,239 F,0,57128,,0.6 S,0,57128,57492,0,1
Sprite,Foreground,CentreLeft,"SB\title.png",640,200 M,0,401,765,640,200,200,200 M,0,765,1855,200,200,155,200 M,0,1855,2219,155,200,-285,200
Sprite,Foreground,CentreLeft,"SB\artist.png",640,200 M,0,1855,2219,640,200,200,200 M,0,2219,3310,200,200,155,200 M,0,3310,3855,155,200,-505,200
Sprite,Foreground,CentreLeft,"SB\andrea.png",640,200 M,0,3310,3674,640,200,127,200 M,0,3674,4765,127,200,87,200 M,0,4765,5310,87,200,-505,200
Sprite,Foreground,Centre,"SB\sb.png",795,200 M,0,4765,5128,795,200,355,200 M,0,5128,6219,355,200,300,200 M,0,6219,6765,300,200,-350,200 R,0,6380,6765,0,4
Sprite,Foreground,BottomCentre,"SB\twgok.png",320,0 M,0,6219,6583,320,0,320,440 F,0,6583,8401,1,0 S,0,6583,8401,1,2.2
Sprite,Foreground,Centre,"SB\circle.png",320,240 F,0,8401,,0.6 S,0,8401,9128,0,2.5
Sprite,Foreground,Centre,"SB\pfp.png",320,240 F,0,9492,57492,1
Sprite,Foreground,Centre,"SB\white.png",320,240 F,0,9492,10219,1,0
Sprite,Foreground,TopLeft,"SB\a1.png",326,360 S,0,9128,,0.75 F,0,9128,9492,0,1 F,0,14946,15310,1,0
Sprite,Foreground,TopLeft,"SB\a2.png",326,388 S,0,12037,,0.75 F,0,12037,12401,0,1 F,0,14946,15310,1,0
Sprite,Foreground,TopLeft,"SB\a3.png",326,360 S,0,14946,,0.75 F,0,14946,15310,0,1 F,0,20765,21128,1,0
Sprite,Foreground,TopLeft,"SB\a4.png",326,388 S,0,17855,,0.75 F,0,17855,18219,0,1 F,0,20765,21128,1,0
Sprite,Foreground,TopLeft,"SB\b1.png",326,360 S,0,20765,,0.75 F,0,20765,21128,0,1 F,0,26583,26946,1,0
Sprite,Foreground,TopLeft,"SB\b2.png",326,388 S,0,23674,,0.75 F,0,23674,24037,0,1 F,0,26583,26946,1,0
Sprite,Foreground,TopLeft,"SB\b3.png",326,360 S,0,26583,,0.75 F,0,26583,26946,0,1 F,0,32401,32765,1,0
Sprite,Foreground,TopLeft,"SB\b4.png",326,388 S,0,29492,,0.75 F,0,29492,29855,0,1 F,0,32401,32765,1,0
Sprite,Foreground,TopLeft,"SB\b5.png",441,388 S,0,30946,,0.75 F,0,30946,31310,0,1 F,0,32401,32765,1,0
Sprite,Foreground,TopLeft,"SB\c1.png",326,360 S,0,32401,,0.75 F,0,32401,32765,0,1 F,0,38219,38583,1,0
Sprite,Foreground,TopLeft,"SB\c2.png",326,388 S,0,35310,,0.75 F,0,35310,35674,0,1 F,0,38219,38583,1,0
Sprite,Foreground,TopLeft,"SB\c3.png",326,360 S,0,38219,,0.75 F,0,38219,38583,0,1 F,0,43310,43674,1,0
Sprite,Foreground,TopLeft,"SB\c4.png",326,388 S,0,39674,,0.75 F,0,39674,40037,0,1 F,0,43310,43674,1,0
Sprite,Foreground,TopLeft,"SB\d1.png",326,360 S,0,44037,,0.75 F,0,44037,44401,0,1 F,0,49855,50219,1,0
Sprite,Foreground,TopLeft,"SB\d2.png",326,388 S,0,46946,,0.75 F,0,46946,47310,0,1 F,0,49855,50219,1,0
Sprite,Foreground,TopLeft,"SB\d3.png",326,360 S,0,49855,,0.75 F,0,49855,50219,0,1 F,0,56401,56765,1,0
Sprite,Foreground,TopLeft,"SB\d4.png",410,360 S,0,51310,,0.75 F,0,51310,51674,0,1 F,0,56401,56765,1,0
Sprite,Foreground,TopLeft,"SB\d5.png",326,388 S,0,52765,,0.75 F,0,52765,53128,0,1 F,0,56401,56765,1,0
Sprite,Foreground,Centre,"SB\circle2.png",228,320 M,0,59674,,228,320 S,0,59674,59855,0,0.8 F,0,59855,60219,1,0 S,0,59855,60219,0.8,1 M,0,62583,,381,400 F,0,62583,,1 S,0,62583,62765,0,0.8 F,0,62765,63128,1,0 S,0,62765,63128,0.8,1 M,0,71310,,192,120 F,0,71310,,1 S,0,71310,71491,0,0.8 F,0,71491,71855,1,0 S,0,71491,71855,0.8,1 M,0,74219,,228,387 F,0,74219,,1 S,0,74219,74401,0,0.8 F,0,74401,74764,1,0 S,0,74401,74764,0.8,1
Sprite,Foreground,Centre,"SB\circle2.png",522,268 M,0,59855,,522,286 S,0,59855,60037,0,0.8 F,0,60037,60401,1,0 S,0,60037,60401,0.8,1 M,0,62765,,181,211 F,0,62765,,1 S,0,62765,62946,0,0.8 F,0,62946,63310,1,0 S,0,62946,63310,0.8,1 M,0,71491,,482,300 F,0,71491,,1 S,0,71491,71673,0,0.8 F,0,71673,72037,1,0 S,0,71673,72037,0.8,1 M,0,74401,,434,191 F,0,74401,,1 S,0,74401,74582,0,0.8 F,0,74582,74946,1,0 S,0,74582,74946,0.8,1
Sprite,Foreground,TopLeft,"SB\e1.png",326,360 S,0,57128,,0.75 F,0,57128,57492,0,1 F,0,62946,63310,1,0
Sprite,Foreground,TopLeft,"SB\e2.png",326,388 S,0,60037,,0.75 F,0,60037,60401,0,1 F,0,62946,63310,1,0
Sprite,Foreground,TopLeft,"SB\e3.png",326,360 S,0,62946,,0.75 F,0,62946,63310,0,1 F,0,68765,69128,1,0
Sprite,Foreground,TopLeft,"SB\e4.png",326,388 S,0,67310,,0.75 F,0,67310,67674,0,1 F,0,68765,69128,1,0
Sprite,Foreground,TopLeft,"SB\f1.png",326,360 S,0,68765,,0.75 F,0,68765,69128,0,1 F,0,74583,74946,1,0
Sprite,Foreground,TopLeft,"SB\f2.png",326,388 S,0,71674,,0.75 F,0,71674,72037,0,1 F,0,74583,74946,1,0
Sprite,Foreground,TopLeft,"SB\f3.png",326,360 S,0,74583,,0.75 F,0,74583,74946,0,1 F,0,78946,79310,1,0
Sprite,Foreground,TopLeft,"SB\f4.png",326,388 S,0,77128,,0.75 F,0,77128,77492,0,1 F,0,78946,79310,1,0
Sprite,Foreground,TopLeft,"SB\f5.png",326,360 F,0,78946,79310,0,1 S,0,79846,,0.75 F,0,82946,83310,1,0
//Storyboard Sound Samples
//Background Colour Transformations
3,100,255,0,128

[TimingPoints]
765,363.636363636364,4,2,1,80,1,0
6765,-100,4,2,1,5,0,0
6946,-100,4,2,1,80,0,0
7310,-100,4,2,1,5,0,0
7492,-100,4,2,1,80,0,0
8583,-100,4,2,1,5,0,0
8946,-100,4,2,1,80,0,0
29401,-100,4,2,2,80,0,0
29583,-100,4,2,1,80,0,0
31492,-100,4,1,1,50,0,0
31855,-100,4,2,1,80,0,0
32037,-100,4,1,1,50,0,0
32765,-133.333333333333,4,2,1,80,0,0
44401,-100,4,2,1,80,0,0
44674,-100,4,2,2,80,0,0
44855,-100,4,2,1,80,0,0
50492,-100,4,2,2,80,0,0
50674,-100,4,2,1,80,0,0
51946,-100,4,2,2,80,0,0
52128,-100,4,2,1,80,0,0
57128,-100,4,2,2,80,0,0
57492,-90.9090909090909,4,2,1,80,0,1
59855,-90.9090909090909,4,2,2,65,0,1
60401,-90.9090909090909,4,2,1,80,0,1
62765,-90.9090909090909,4,2,2,65,0,1
63310,-90.9090909090909,4,2,1,80,0,1
64310,-100,4,2,2,80,0,1
64492,-90.9090909090909,4,2,1,80,0,1
67128,-90.9090909090909,4,2,2,65,0,1
67492,-90.9090909090909,4,2,1,80,0,1
68946,-90.9090909090909,4,2,1,80,0,0
69128,-90.9090909090909,4,2,1,80,0,1
71492,-90.9090909090909,4,2,2,65,0,1
72037,-90.9090909090909,4,2,1,80,0,1
74401,-90.9090909090909,4,2,2,65,0,1
74765,-90.9090909090909,4,2,1,80,0,1
75855,-90.9090909090909,4,2,2,65,0,1
76083,-90.9090909090909,4,2,1,80,0,1
77310,-90.9090909090909,4,2,2,65,0,1
77674,-90.9090909090909,4,2,1,80,0,1
80765,-90.9090909090909,4,2,1,80,0,0
80946,-90.9090909090909,4,2,1,5,0,0
81128,-100,4,2,1,80,0,0
83855,-100,4,1,1,50,0,0
85128,-100,4,1,1,5,0,0
85310,-100,4,1,1,50,0,0
85674,-100,4,1,1,5,0,0
85855,-100,4,1,1,50,0,0
87310,-100,4,1,1,70,0,0
87674,-100,4,1,1,60,0,0
88037,-100,4,1,1,50,0,0
88401,-100,4,1,1,40,0,0
88765,-100,4,1,1,30,0,0
89128,-100,4,1,1,15,0,0
89492,-100,4,2,1,5,0,0

[Colours]
Combo1 : 255,255,128
Combo2 : 128,255,128
Combo3 : 255,128,128
Combo4 : 255,128,255

[HitObjects]
48,48,6219,1,8
112,96,6401,1,0
136,112,6492,1,0
160,128,6583,2,0,B|256:128|320:200,1,180,2|0
272,312,7128,2,0,B|176:312|112:240,1,180,2|0
112,240,7674,1,2
388,96,8401,2,0,B|476:128|492:192|476:256|388:288,1,270,4|2
176,288,9492,5,4
120,232,9674,1,0
120,152,9855,1,2
176,96,10037,2,0,B|216:56|256:52|296:56|336:96,1,180
392,152,10583,1,2
392,232,10765,1,0
336,288,10946,2,0,B|296:372,1,90
214,369,11310,2,0,B|176:288,1,90,2|0
256,148,11855,1,0
196,92,12037,1,2
140,36,12219,5,0
196,92,12401,2,0,B|256:24|256:24|316:92,1,180,0|2
404,228,13128,1,0
256,336,13492,1,2
108,228,13855,1,0
256,120,14219,1,2
176,160,14401,2,0,B|216:200|256:204|296:200|336:160,1,180
335,160,14946,1,2
372,320,15310,6,0,B|324:320|296:280,1,90
140,320,15674,2,0,B|188:320|216:280,1,90,2|0
176,76,16219,2,0,B|216:36|256:32|296:36|336:76,1,180
336,156,16765,1,0
296,224,16946,1,0
216,224,17128,1,2
176,156,17310,1,0
336,308,17674,6,0,B|296:348|256:352|216:348|176:308,1,180
104,272,18219,2,0,B|64:232|60:192|64:152|104:112,1,180,0|2
176,76,18765,2,0,B|216:36|256:32|296:36|336:76,1,180
408,112,19310,2,0,B|448:152|452:192|448:232|408:272,1,180,2|0
332,236,19855,1,0
256,192,20037,1,2
332,148,20219,1,4
48,192,20583,5,0
108,128,20765,2,0,B|108:168|164:192|164:192|108:212|108:256,1,180,8|4
108,336,21310,1,0
176,296,21492,1,8
244,336,21674,2,0,B|336:336|336:336|396:272,1,180
436,200,22219,1,8
356,200,22401,6,0,B|324:164|324:164|324:120,1,90
256,76,22765,1,0
156,200,22946,2,0,B|188:164|188:164|188:120,1,90,8|0
76,200,23492,1,0
116,268,23674,1,8
196,268,23855,1,0
256,320,24037,6,0,B|328:320|348:276|348:276|420:276,1,180,0|8
256,64,24765,2,0,B|328:64|348:108|348:108|420:108,1,180,0|8
136,112,25492,2,0,B|96:152|92:192|96:232|136:272,1,180,2|8
176,192,26037,2,0,B|36:192,1,135,2|8
41,192,26401,1,0
40,272,26583,1,8
188,340,26946,5,0
268,340,27128,2,0,B|316:340|344:300,1,90,0|8
272,260,27492,1,0
420,192,27855,1,0
340,192,28037,2,0,B|292:192|264:152,1,90,8|0
336,112,28401,1,0
296,40,28583,1,0
216,40,28765,1,8
176,112,28946,1,0
92,352,29310,6,0,B|132:312|136:272|132:232|92:192,1,180
52,272,29855,2,0,B|236:272,1,180
232,272,30401,1,8
394,93,30765,2,0,B|364:128|364:176,1,90,8|0
336,36,31128,2,0,B|296:76|256:80|216:76|176:36,1,180
117,93,31674,2,0,B|148:128|148:176,1,90
296,208,32037,2,0,B|256:228|256:228|216:208,1,90
32,296,32765,5,4
92,352,32946,2,0,B|128:327|128:295|128:263|92:239,1,134.999995976687
24,192,33492,2,0,B|68:140,1,67.4999979883433
120,80,33855,1,10
200,80,34037,1,0
256,136,34219,2,0,B|280:172|312:172|344:172|368:135,1,134.999995976687
312,88,34765,2,0,B|312:232,1,134.999995976687
312,223,35310,1,10
196,336,35674,5,0
116,336,35855,2,0,B|80:280|80:280|80:208,1,134.999995976687
132,152,36401,2,0,B|184:104,1,67.4999979883433
256,140,36765,2,0,B|256:212,1,67.4999979883433,10|0
380,152,37128,2,0,B|328:104,1,67.4999979883433
196,268,37674,6,0,B|256:300|256:300|316:268,1,134.999995976687
352,340,38219,2,0,B|292:372,1,67.4999979883433,10|0
160,340,38583,2,0,B|220:372,1,67.4999979883433
256,212,39128,1,0
132,108,39492,2,0,B|172:108|192:76,1,67.4999979883433,0|10
256,32,39855,1,0
380,108,40037,2,0,B|340:108|320:76,1,67.4999979883433
316,252,40583,6,0,B|280:252|257:280|257:280|233:252|196:252,1,134.999995976687
196,172,41128,1,10
256,116,41310,1,0
316,172,41492,1,0
368,324,41855,2,0,B|436:324,1,67.4999979883433
144,324,42401,2,0,B|76:324,1,67.4999979883433,0|10
312,252,42946,2,0,B|287:289|255:289|223:289|199:253,1,134.999995976687
256,208,43492,2,0,B|256:352,1,134.999995976687
256,343,44037,1,10
256,41,44401,5,4
188,80,44583,2,0,B|212:120|256:136|256:136|300:120|328:76,1,180
388,128,45128,2,0,B|368:168|324:188,1,90
124,128,45492,2,0,B|144:168|188:188,1,90,8|0
256,228,45855,1,0
140,340,46219,1,8
196,284,46401,2,0,B|244:304|256:347|256:347|268:304|316:284,1,180
372,340,46946,1,8
424,280,47128,1,0
372,220,47310,6,0,B|308:192|308:132|308:132|308:64,1,180,0|8
140,220,48037,2,0,B|204:192|204:132|204:132|204:64,2,180,0|8|0
184,288,48946,1,0
256,248,49128,1,8
328,288,49310,1,0
256,68,49674,1,0
176,108,49855,6,0,B|216:148|256:152|296:148|336:108,1,180,8|4
256,68,50401,2,0,B|256:248,1,180
104,192,51128,1,0
64,264,51310,2,0,B|140:280|140:340|216:356,1,180,8|0
448,264,51855,2,0,B|372:280|372:340|296:356,2,180
448,264,52764,1,8
336,80,53128,6,0,B|256:120|256:120|176:80,1,180,4|8
256,36,53674,2,0,B|256:216,1,180
256,216,54219,1,8
60,260,54583,2,0,B|152:260|216:340,1,180,0|8
452,260,55128,2,0,B|360:260|296:340,1,180
256,174,55674,2,0,B|256:264,1,90,8|0
48,48,56401,5,4
256,336,56765,1,0
464,48,57128,1,8
172,48,57492,6,0,B|220:48|220:48|256:84|256:84|292:48|292:48|344:48,2,197.99999409914,4|8|0
188,124,58401,1,0
256,164,58583,1,8
324,124,58764,1,0
256,340,59128,1,0
164,300,59310,2,0,B|216:264|256:260|296:264|348:300,1,197.99999409914,8|0
428,300,59855,1,8
428,300,60037,1,8
364,176,60401,6,0,B|256:176|192:92,2,197.99999409914,0|8|0
444,176,61310,1,0
444,96,61492,1,8
364,96,61674,1,0
364,176,61855,1,0
364,256,62037,2,0,B|308:352,1,98.9999970495702,0|8
256,284,62401,2,0,B|256:180,1,98.9999970495702
148,256,62764,2,8,B|204:352,1,98.9999970495702
348,60,63310,6,0,B|296:96|256:100|216:96|164:60,2,197.99999409914,2|8|2
256,20,64219,2,0,B|256:220,1,197.99999409914
176,220,64764,1,4
216,288,64946,1,0
296,288,65128,1,8
336,220,65310,1,4
208,124,65674,6,0,B|176:220,1,98.9999970495702,0|8
304,124,66037,2,0,B|336:220,1,98.9999970495702,0|4
297,287,66401,2,0,B|256:316|256:316|216:288,1,98.9999970495702,0|8
256,224,66764,1,0
400,40,67128,2,8,B|296:40,1,98.9999970495702
112,40,67492,2,0,B|216:40,1,98.9999970495702,0|4
304,124,67855,2,0,B|256:100|208:124,2,98.9999970495702,0|8|4
256,344,68583,5,0
164,304,68764,2,0,B|216:268|256:264|296:268|348:304,2,197.99999409914,8|4|8
188,144,69855,1,2
216,72,70037,1,0
296,72,70219,1,8
324,144,70401,2,0,B|256:216|256:216|188:144,1,197.99999409914
188,144,70946,1,8
256,292,71310,1,0
256,292,71492,1,8
256,292,71674,1,8
164,68,72037,6,0,B|216:32|256:28|296:32|348:68,2,197.99999409914,0|8|0
188,144,72946,1,0
256,188,73128,1,8
324,144,73310,1,0
412,232,73674,2,0,B|360:232|324:276,1,98.9999970495702,0|8
324,352,74037,2,0,B|376:352|412:308,2,98.9999970495702,0|0|8
256,312,74583,1,8
188,352,74764,6,0,B|136:352|100:308,2,98.9999970495702,0|4|0
100,232,75310,2,0,B|152:232|188:276,1,98.9999970495702,8|4
256,132,75855,2,0,B|256:32,2,98.9999970495702,8|8|0
336,132,76401,2,0,B|440:132,2,98.9999970495702,4|0|8
296,200,76946,2,0,B|196:200|124:288,1,197.99999409914,4|8
76,348,77492,1,8
16,296,77674,1,0
68,236,77855,5,4
256,44,78219,1,8
444,236,78583,1,8
332,344,78946,2,0,B|332:296|332:296|304:252,1,98.9999970495702,8|0
256,316,79310,1,4
180,344,79492,2,0,B|180:296|180:296|208:252,1,98.9999970495702,0|8
72,224,80037,2,0,B|36:172|32:132|36:92|72:40,1,197.99999409914,0|8
440,40,80764,2,0,B|476:92|480:132|476:172|440:224,1,197.99999409914,0|4
216,40,81492,6,0,B|176:120,1,90,2|0
296,40,81855,2,0,B|336:120,1,90,0|2
112,248,82401,1,0
164,308,82583,1,0
216,368,82764,1,4
400,248,83128,1,2
348,308,83310,1,0
296,368,83492,1,0
60,188,83855,5,0
60,188,84037,1,0
452,188,84401,1,0
452,188,84583,1,0
176,80,84946,2,0,B|216:120|256:124|296:120|336:80,1,180,0|0
256,40,85492,2,0,B|256:220,1,180
256,220,86037,1,0
256,192,86946,12,0,89492
