osu file format v9

[General]
AudioFilename: Ai no Yokan(TV Size).mp3
AudioLeadIn: 3000
PreviewTime: 57854
Countdown: 0
SampleSet: Soft
StackLeniency: 0.7
Mode: 0
LetterboxInBreaks: 1

[Editor]
DistanceSpacing: 1
BeatDivisor: 3
GridSize: 4

[Metadata]
Title:Ai no Yokan (TV size)
Artist:Kami Nomi zo Shiri-tai
Creator:Kanon
Version:Relax
Source:Kami Nomi zo Shiru Sekai II
Tags:Alace lkp Ending ED

[Difficulty]
HPDrainRate:1
CircleSize:3
OverallDifficulty:2
ApproachRate:4
SliderMultiplier:0.9
SliderTickRate:1

[Events]
//Background and Video events
Video,728,"Kami nomi zo Shiru Sekai II ED.avi"
0,0,"Easy_bg.jpg"
//Break Periods
//Storyboard Layer 0 (Background)
//Storyboard Layer 1 (Fail)
//Storyboard Layer 2 (Pass)
//Storyboard Layer 3 (Foreground)
//Storyboard Sound Samples
//Background Colour Transformations
3,100,163,162,255

[TimingPoints]
-83,375,4,2,1,80,1,0
12479,-100,4,1,1,80,0,0
12854,-100,4,2,1,80,0,0
20635,-100,4,2,1,70,0,0
21010,-100,4,2,1,80,0,0
21385,-100,4,2,1,90,0,0
21760,-100,4,1,1,100,0,0
21948,-100,4,2,1,80,0,0
27385,-100,4,2,1,60,0,0
27573,-100,4,2,1,80,0,0
33573,-100,4,1,1,80,0,0
33760,-100,4,2,1,80,0,0
37323,-100,4,2,1,70,0,0
37698,-100,4,2,1,80,0,0
38073,-100,4,2,1,90,0,0
38448,-100,4,2,1,100,0,0
40323,-100,4,2,1,80,0,0
45385,-100,4,1,1,60,0,0
45573,-100,4,2,1,80,0,0
55135,-100,4,2,1,100,0,0
58417,-100,4,2,1,80,0,1
79417,-100,4,2,1,80,0,0
81198,-100,4,2,1,70,0,0
82698,-100,4,2,1,60,0,0
84198,-100,4,2,1,50,0,0
85042,-100,4,2,1,80,0,0
88417,-100,4,2,1,30,0,0
89167,-100,4,2,1,20,0,0

[Colours]
Combo1 : 0,115,170
Combo2 : 0,130,65

[HitObjects]
128,56,1417,2,0,B|96:128|96:128|72:184|112:232,1,180,2|0
264,304,2917,2,0,B|344:344|344:344|400:264,1,180,2|0
464,104,4417,1,2
288,64,5167,1,0
112,100,5917,6,0,B|160:164|160:164|208:220|176:284,1,180,2|0
144,336,7042,1,2
232,336,7417,2,0,B|288:336|352:288|352:224,1,180,2|0
472,92,8917,2,0,B|424:52|352:52|304:92,1,180,2|0
232,144,10042,1,2
256,192,10417,12,4,12667
72,40,13417,6,0,B|96:96|96:96|80:152|80:152|112:216,1,180,6|0
144,288,14542,1,8
232,312,14917,2,0,B|304:336|304:336|400:296,1,180,2|0
480,248,16042,1,8
400,200,16417,6,0,B|328:192|304:168,1,90,2|8
336,88,17167,2,0,B|248:112|208:96,1,90,2|8
232,16,17917,2,0,B|168:48|128:40,1,90,2|8
48,184,18854,6,0,B|40:128|56:72,1,90,2|8
128,144,19604,2,0,B|136:200|128:240,1,90,2|8
112,320,20354,1,2
200,344,20729,2,0,B|224:352|280:360|311:334,3,90,8|8|8|4
400,264,22417,6,0,B|376:272|320:280|289:254,1,90,6|8
224,232,23167,2,0,B|192:208|144:240|112:208,1,90,2|8
96,240,23729,2,0,B|48:216|48:152|96:120,1,135,0|8
160,72,24667,1,2
336,56,25417,6,0,B|336:136|344:152,1,90,2|8
432,144,26167,2,0,B|414:221|402:235,1,90,2|8
480,288,26917,2,0,B|424:344|395:348,1,90
368,352,27479,1,8
176,296,28417,5,2
104,240,28792,1,8
72,152,29167,2,0,B|56:72|83:41,1,90,2|8
112,80,29729,2,0,B|144:48|208:56|232:104,1,135,0|8
264,184,30667,1,2
264,184,31042,1,8
288,272,31417,6,0,B|320:328|384:352,1,90,2|8
392,256,32167,2,0,B|464:288|512:264,1,90,2|8
488,232,32729,2,0,B|488:144|488:144|488:64|376:64,1,225,0|4
184,80,34417,6,0,B|144:80|96:128|104:168,1,90,2|8
192,176,35167,2,0,B|168:208|128:224|104:224,1,90,2|8
76,244,35729,2,0,B|76:340|172:340,1,135,0|8
248,336,36667,1,2
432,336,37417,5,2
464,256,37792,1,2
464,168,38167,1,2
424,88,38542,1,2
336,72,38917,2,0,B|256:48|224:120|224:120|184:48|112:64,1,270,2|0
112,152,40417,6,0,B|104:216|128:248,1,90,2|8
200,280,41167,2,0,B|264:272|296:216,1,90,2|8
280,192,41729,2,0,B|248:144|192:136,1,90
208,96,42292,2,0,B|272:88|304:32,1,90,8|2
376,40,43042,6,0,B|368:104|392:128,1,90,8|2
432,208,43792,1,8
448,296,44167,1,2
360,264,44542,5,8
280,216,44917,2,0,B|216:184|200:144,1,90,2|0
192,120,45479,1,4
104,328,46417,6,0,B|8:264|80:176,1,180,2|2
136,112,47542,1,8
216,72,47917,2,0,B|280:48|376:96|392:168,1,180,2|2
448,296,49417,6,0,B|352:352|280:240,1,180,2|2
240,184,50542,1,8
168,240,50917,2,0,B|112:200|112:120|160:64,1,180,2|2
328,80,52417,6,0,B|400:72|424:48,2,90,2|0|2
416,240,53917,2,0,B|424:312|448:336,2,90,2|8|2
272,200,55417,6,0,B|272:264|272:264|240:280,1,90,0|2
168,312,56167,2,0,B|144:296|144:296|144:224,1,90,2|8
144,192,56729,1,4
144,192,57104,1,4
272,64,57854,6,0,B|299:41|355:33,2,90,0|2|2
288,152,58979,1,0
368,184,59354,2,0,B|376:264|344:288,1,90,2|0
280,312,60104,2,0,B|216:320|176:304,1,90
148,296,60667,2,0,B|60:272|84:192,1,135
88,152,61417,2,0,B|128:104|208:96|264:136,1,180,4|2
408,64,63292,5,2
344,128,63667,1,2
280,64,64042,1,2
216,128,64417,2,0,B|144:208,1,90,4|8
128,232,64979,2,0,B|160:280|160:280|208:288,1,90,2|0
272,336,65729,2,0,B|320:368|368:328,1,90,2|0
392,312,66292,1,8
432,232,66667,6,0,B|464:184|464:136,2,90,2|8|4
344,208,67792,1,2
272,160,68167,2,8,B|240:120|240:72,1,90
240,32,68729,1,4
48,56,69854,6,0,B|104:72|136:96,1,90,0|2
184,160,70604,2,0,B|128:176|96:200,1,90,0|2
48,272,71354,2,0,B|104:288|136:312,1,90,0|2
216,344,72104,2,0,B|264:360|264:360|328:336,1,90,2|2
344,344,72667,2,0,B|360:296|360:296|384:232|328:232,1,135,2|2
296,208,73417,2,0,B|240:152|288:88|288:88|328:32,1,180,4|4
152,80,74917,6,0,B|88:64|64:24,2,90,6|6|6
240,104,76042,1,4
184,168,76417,2,0,B|136:200|72:200,1,90,4|8
64,224,76979,2,0,B|80:280|80:280|80:280|112:304,1,90,4|0
184,320,77729,6,0,B|248:344|304:304,1,90,4|8
312,304,78292,1,4
392,264,78667,2,0,B|464:232|464:184,2,90,0|0|4
360,176,79792,6,0,B|296:176|208:136|184:72,1,180,8|2
112,128,81292,2,0,B|152:184|144:256|88:304,1,180,8|2
192,312,82792,2,0,B|232:272|328:272|376:312,1,180,8|2
392,216,84292,2,0,B|336:208|288:144|304:72,1,180,8|2
256,192,85417,12,0,89167
