osu file format v9

[General]
AudioFilename: Kami Nomi zo Shiri-tai - Ai no Yokan (TV Size).mp3
AudioLeadIn: 1500
PreviewTime: 57854
Countdown: 0
SampleSet: Soft
StackLeniency: 0.4
Mode: 0
LetterboxInBreaks: 0

[Editor]
DistanceSpacing: 1
BeatDivisor: 4
GridSize: 4

[Metadata]
Title:Ai no Yokan (TV Size)
Artist:Kami Nomi zo Shiri-tai
Creator:12BARRY21
Version:Normal
Source:Kami Nomi zo Shiru Sekai II
Tags:The World God Only Knows Devil Soul Game Ending KayeSara

[Difficulty]
HPDrainRate:4
CircleSize:4
OverallDifficulty:3
ApproachRate:5
SliderMultiplier:0.96
SliderTickRate:1

[Events]
//Background and Video events
Video,705,"Kami nomi zo Shiru Sekai II ED.avi"
0,0,"Kami BG.jpg"
//Break Periods
//Storyboard Layer 0 (Background)
//Storyboard Layer 1 (Fail)
//Storyboard Layer 2 (Pass)
//Storyboard Layer 3 (Foreground)
//Storyboard Sound Samples
//Background Colour Transformations
3,100,163,162,255

[TimingPoints]
36,375,4,2,1,30,1,0
10536,-100,4,2,1,50,0,0
13536,-100,4,2,1,75,0,0
22536,-100,4,2,1,65,0,0
34536,-100,4,2,1,70,0,0
52536,-100,4,2,1,75,0,0
53286,-100,4,2,1,65,0,0
54036,-100,4,2,1,75,0,0
54598,-100,4,2,1,65,0,0
55536,-100,4,2,1,70,0,0
58536,-100,4,2,1,80,0,1
63411,-100,4,2,1,85,0,1
70536,-100,4,2,1,90,0,1
75036,-100,4,2,1,70,0,1
76536,-100,4,2,1,75,0,1
76723,-100,4,2,1,80,0,1
79536,-100,4,2,1,90,0,1
82536,-100,4,2,1,80,0,1
82723,-100,4,2,1,85,0,1
85348,-100,4,2,1,80,0,1
86848,-100,4,2,1,70,0,1
87786,-100,4,2,1,65,0,1
88536,-100,4,2,1,60,0,0
89286,-100,4,2,1,50,0,0
90036,-100,4,2,1,40,0,0
90786,-100,4,2,1,30,0,0
91536,-100,4,2,1,20,0,0
92286,-100,4,2,1,10,0,0
93036,-100,4,2,1,5,0,0

[Colours]
Combo1 : 157,91,230
Combo2 : 255,60,167
Combo3 : 64,134,251
Combo4 : 22,214,137
Combo5 : 247,200,60

[HitObjects]
64,72,1536,2,0,B|156:16|248:72,1,192,2|0
344,88,2661,1,0
280,160,3036,1,2
448,248,3786,1,2
384,176,4161,1,0
350,266,4536,6,0,B|260:320|168:264,1,192,2|2
136,176,5661,2,0,B|136:80,1,96,0|2
232,56,6411,1,2
328,72,6786,1,2
400,136,7161,1,2
424,232,7536,6,0,B|408:296|336:344|280:344,1,192,2|0
88,360,9036,2,0,B|104:296|176:248|232:248,1,192,2|0
256,192,10536,12,8,12786
80,280,13536,6,0,B|48:248|40:192|48:136|80:104,1,192,4|2
172,80,14661,2,0,B|176:132|140:172,2,96,8|0|8
264,60,15786,1,0
356,80,16161,1,8
264,60,16536,6,0,B|228:136|292:160|256:248,1,192,0|2
172,292,17661,2,0,B|200:336|252:344,1,96,8|0
344,324,18411,1,8
408,252,18786,1,0
412,156,19161,5,8
412,156,19348,2,0,B|400:100|360:64|320:48,1,144,0|8
288,84,20098,2,2,B|300:140|340:176|380:192,1,144,0|8
400,232,20848,2,0,B|396:272|364:304|336:308,1,96,2|2
252,332,21598,1,2
160,308,21973,2,0,B|128:344,2,48,8|8|8
168,260,22536,6,0,B|144:216|144:168,1,96,4|8
236,192,23286,2,0,B|237:141|261:100,1,96,0|8
304,124,23848,2,0,B|328:168|372:192|424:200,1,144,0|8
392,292,24786,1,0
304,328,25161,1,8
220,284,25536,6,0,B|172:284|136:240,1,96,0|8
216,184,26286,2,0,B|181:141|133:141,1,96,0|8
108,48,27036,2,0,B|60:32,2,48,0|0|8
156,56,27598,2,0,B|200:72|256:72|300:56,1,144,0|8
388,88,28536,5,0
424,176,28911,1,8
376,260,29286,1,0
288,224,29661,2,0,B|264:264,1,48,8|0
212,184,30223,2,0,B|236:144,1,48,0|8
148,108,30786,2,0,B|112:120|104:164|72:168,2,96,0|8|0
244,92,31911,5,8
340,108,32286,1,0
412,172,32661,2,0,B|432:196|432:244|412:264,1,96,8|0
384,300,33223,2,0,B|408:344,2,48,0|8|0
288,308,33973,2,8,B|264:264,2,48,8|8|8
252,340,34536,6,0,B|200:344|164:304,1,96,4|8
120,220,35286,1,0
140,128,35661,1,8
188,128,35848,2,0,B|239:134|276:104,1,96,0|0
312,68,36411,1,8
404,88,36786,2,0,B|432:48,2,48,0|0|8
420,184,37536,6,0,B|436:232|420:280,1,96,0|8
336,324,38286,2,0,B|320:276|336:228,1,96,0|8
280,152,39036,2,0,B|292:104,2,48,0|0|8
232,140,39598,2,0,B|188:128|148:140|124:172|120:204,1,144,0|8
136,300,40536,6,0,B|180:328|228:300,1,96,0|8
312,252,41286,2,0,B|358:224|402:252,1,96,0|8
444,276,41848,2,0,B|488:248|484:192,1,96,0|0
472,148,42411,1,8
424,64,42786,1,0
332,40,43161,1,8
252,96,43536,6,0,B|237:149|188:166,1,96,0|8
95,146,44286,2,0,B|109:92|158:75,1,96,0|8
252,96,45036,2,0,B|268:120|320:132|320:132|308:164|328:200,2,144,0|2|8
232,192,46536,6,0,B|200:240|152:236,1,96,4|8
148,140,47286,2,0,B|108:98|61:110,2,96,0|8|0
232,96,48411,1,8
328,108,48786,2,0,B|352:64,2,48,0|8|8
388,184,49536,5,0
364,276,49911,1,8
284,332,50286,1,0
188,316,50661,2,0,B|144:300|128:244,3,96,8|0|8|0
124,196,51973,2,0,B|120:140,1,48,8|8
216,152,52536,6,0,B|248:108|248:108|224:80|216:48|232:20,2,144,4|2|8
296,232,54036,2,0,B|264:276|264:276|288:304|296:336|280:364,2,144,4|2|8
256,192,55536,12,0,57786
72,92,58536,2,0,B|124:76|162:107,1,96,4|8
256,124,59286,2,0,B|243:177|196:194,1,96,0|8
152,208,59848,2,0,B|96:264|96:344,1,144,0|8
192,352,60786,1,0
284,324,61161,1,8
324,236,61536,6,0,B|336:182|383:165,1,96,0|8
416,132,62098,2,0,B|403:84,1,48
308,72,62661,1,8
308,72,62848,2,0,B|260:88|260:88|244:64|216:44|180:44,1,144,0|8
180,140,63786,1,8
180,140,64161,1,8
88,164,64536,6,0,B|100:216|148:232,1,96,4|8
184,244,65098,2,0,B|232:260|244:312,1,96,0|8
340,332,65848,1,0
432,304,66223,1,0
448,260,66411,2,0,B|463:208|430:170,1,96,8|0
408,128,66973,2,0,B|424:76,2,48,0|8|0
360,140,67536,6,0,B|308:136|280:88,1,96,4|8
192,60,68286,1,0
104,96,68661,1,8
180,156,69036,2,0,B|204:220|168:228|188:300,2,144,0|2|8
272,128,70536,5,4
364,156,70911,1,8
424,232,71286,1,0
440,328,71661,2,0,B|396:360|352:328,1,96,8|0
264,368,72411,2,0,B|244:320|264:272,1,96,8|0
312,192,73161,2,0,B|360:208,2,48,8|0|0
336,100,73911,6,0,B|428:132,2,96,8|0|8
244,68,75036,1,4
152,92,75411,1,4
80,156,75786,1,4
56,248,76161,1,4
84,340,76536,6,0,B|136:344|132:304|176:304,1,96,4|8
216,308,77098,2,0,B|248:348|308:336,1,96,0|8
372,268,77848,2,0,B|336:236|283:244,1,96,4|8
240,224,78411,2,0,B|188:200|184:136,1,96,0|0
280,136,79161,1,8
336,56,79536,6,0,B|380:67|415:112|432:160|424:208,1,192,4|2
360,280,80661,1,8
264,296,81036,2,0,B|219:284|184:239|168:192|175:143,1,192,0|2
248,80,82161,1,8
338,110,82536,6,0,B|326:162|265:178,1,96,4|8
180,160,83286,2,0,B|176:212|212:248,1,96,0|8
308,264,84036,1,0
400,232,84411,1,8
420,140,84786,2,0,B|464:112,2,48,0|0|8
372,136,85348,6,0,B|312:124|320:72|252:56,1,144,0|8
208,64,86098,2,0,B|160:84|136:136|136:184,1,144,0|8
132,228,86848,1,4
180,312,87223,1,4
272,340,87598,2,0,B|320:332,1,48,8|8
364,320,87973,2,0,B|404:292,2,48,8|8|4
256,192,88536,12,2,93786
