osu file format v12

[General]
AudioFilename: Kami Nomi zo Shiri-tai - Ai no Yokan (TV Size).mp3
AudioLeadIn: 1000
PreviewTime: 57786
Countdown: 0
SampleSet: Normal
StackLeniency: 0.7
Mode: 1
LetterboxInBreaks: 0
WidescreenStoryboard: 0

[Editor]
DistanceSpacing: 0.9
BeatDivisor: 4
GridSize: 32
TimelineZoom: 1

[Metadata]
Title:Ai no Yokan (TV EDIT)
TitleUnicode:アイノヨカン (TV EDIT)
Artist:Kami Nomi zo Shiri-tai
ArtistUnicode:神のみぞ知り隊
Creator:bossandy
Version:qoot8123's Taiko Oni
Source:Kami Nomi zo Shiru Sekai II
Tags:boss the world god only knows devil soul game ending qoot8123 spboxer3 Fumika Netsukawa
BeatmapID:184636
BeatmapSetID:60040

[Difficulty]
HPDrainRate:5
CircleSize:5
OverallDifficulty:5
ApproachRate:5
SliderMultiplier:1.5
SliderTickRate:1

[Events]
//Background and Video events
0,0,"BG.jpg",0,85
//Break Periods
//Storyboard Layer 0 (Background)
//Storyboard Layer 1 (Fail)
//Storyboard Layer 2 (Pass)
//Storyboard Layer 3 (Foreground)
//Storyboard Sound Samples
//Background Colour Transformations
3,100,163,162,255

[TimingPoints]
36,375,4,2,0,70,1,0
13348,-100,4,1,0,75,0,0
58536,-100,4,1,0,75,0,1
88348,-100,4,1,0,75,0,0

[Colours]
Combo1 : 255,0,0
Combo2 : 0,0,255

[HitObjects]
256,192,1348,5,8,0:0:0:0:
256,192,1723,1,8,0:0:0:0:
256,192,1911,5,0,0:0:0:0:
256,192,2098,5,8,0:0:0:0:
256,192,2473,1,8,0:0:0:0:
256,192,2661,1,8,0:0:0:0:
256,192,2848,1,8,0:0:0:0:
256,192,3223,1,8,0:0:0:0:
256,192,3411,1,0,0:0:0:0:
256,192,3598,1,8,0:0:0:0:
256,192,3786,1,8,0:0:0:0:
256,192,3973,5,0,0:0:0:0:
256,192,4161,1,0,0:0:0:0:
256,192,4348,1,8,0:0:0:0:
256,192,4536,5,0,0:0:0:0:
256,192,5098,1,8,0:0:0:0:
256,192,5286,1,8,0:0:0:0:
256,192,5661,5,0,0:0:0:0:
256,192,6036,5,8,0:0:0:0:
256,192,6411,5,0,0:0:0:0:
256,192,6786,1,0,0:0:0:0:
256,192,7161,5,8,0:0:0:0:
256,192,7536,1,8,0:0:0:0:
256,192,7723,5,0,0:0:0:0:
256,192,7911,1,0,0:0:0:0:
256,192,8098,5,8,0:0:0:0:
256,192,8473,5,0,0:0:0:0:
256,192,8848,5,8,0:0:0:0:
256,192,9223,1,8,0:0:0:0:
256,192,9411,5,0,0:0:0:0:
256,192,9786,1,0,0:0:0:0:
256,192,9973,1,0,0:0:0:0:
256,192,10161,5,8,0:0:0:0:
256,192,10348,5,0,0:0:0:0:
256,192,10536,1,0,0:0:0:0:
256,192,10723,1,0,0:0:0:0:
256,192,10911,5,8,0:0:0:0:
256,192,11098,5,0,0:0:0:0:
256,192,11192,1,0,0:0:0:0:
256,192,11286,5,8,0:0:0:0:
256,192,11473,1,8,0:0:0:0:
256,192,11661,5,0,0:0:0:0:
256,192,12036,5,8,0:0:0:0:
256,192,12223,5,0,0:0:0:0:
256,192,12317,1,0,0:0:0:0:
256,192,12411,5,8,0:0:0:0:
256,192,12598,1,8,0:0:0:0:
256,192,12692,1,8,0:0:0:0:
256,192,12786,5,0,0:0:0:0:
256,192,12973,1,0,0:0:0:0:
256,192,13067,1,0,0:0:0:0:
256,192,13161,5,8,0:0:0:0:
256,192,13536,1,0,0:0:0:0:
256,192,13723,1,0,0:0:0:0:
256,192,13911,5,8,0:0:0:0:
256,192,14098,1,8,0:0:0:0:
256,192,14192,1,8,0:0:0:0:
256,192,14286,5,0,0:0:0:0:
256,192,14473,5,8,0:0:0:0:
256,192,14661,5,0,0:0:0:0:
256,192,14848,5,8,0:0:0:0:
256,192,15223,5,8,0:0:0:0:
256,192,15411,5,0,0:0:0:0:
256,192,15598,1,0,0:0:0:0:
256,192,15692,1,0,0:0:0:0:
256,192,15786,1,0,0:0:0:0:
256,192,15973,5,8,0:0:0:0:
256,192,16161,5,0,0:0:0:0:
256,192,16348,5,8,0:0:0:0:
256,192,16536,1,8,0:0:0:0:
256,192,16723,5,0,0:0:0:0:
256,192,16911,5,8,0:0:0:0:
256,192,17286,1,8,0:0:0:0:
256,192,17473,5,0,0:0:0:0:
256,192,17848,5,12,0:0:0:0:
256,192,18223,1,0,0:0:0:0:
256,192,18411,5,8,0:0:0:0:
256,192,18598,5,0,0:0:0:0:
256,192,18692,1,0,0:0:0:0:
256,192,18786,1,0,0:0:0:0:
256,192,18973,5,8,0:0:0:0:
256,192,19161,5,0,0:0:0:0:
256,192,19348,5,8,0:0:0:0:
256,192,19723,5,8,0:0:0:0:
256,192,19911,1,0,0:0:0:0:
256,192,20098,5,8,0:0:0:0:
256,192,20473,5,0,0:0:0:0:
256,192,20661,1,0,0:0:0:0:
256,192,20848,5,8,0:0:0:0:
256,192,21223,5,4,0:0:0:0:
256,192,21598,1,4,0:0:0:0:
256,192,21973,5,12,0:0:0:0:
256,192,22536,5,0,0:0:0:0:
256,192,22911,1,0,0:0:0:0:
256,192,23286,5,8,0:0:0:0:
256,192,23661,5,8,0:0:0:0:
256,192,23848,5,0,0:0:0:0:
256,192,24223,1,0,0:0:0:0:
256,192,24411,5,8,0:0:0:0:
256,192,24598,5,0,0:0:0:0:
256,192,24786,5,8,0:0:0:0:
256,192,25161,5,0,0:0:0:0:
256,192,25536,1,8,0:0:0:0:
256,192,25911,5,8,0:0:0:0:
256,192,26098,5,0,0:0:0:0:
256,192,26286,5,8,0:0:0:0:
256,192,26661,5,8,0:0:0:0:
256,192,26848,5,0,0:0:0:0:
256,192,27036,5,8,0:0:0:0:
256,192,27223,5,0,0:0:0:0:
256,192,27317,1,0,0:0:0:0:
256,192,27411,5,8,0:0:0:0:
256,192,27598,5,0,0:0:0:0:
256,192,27973,5,0,0:0:0:0:
256,192,28161,5,8,0:0:0:0:
256,192,28536,1,0,0:0:0:0:
256,192,28911,1,8,0:0:0:0:
256,192,29098,1,0,0:0:0:0:
256,192,29286,5,8,0:0:0:0:
256,192,29661,5,8,0:0:0:0:
256,192,29848,5,0,0:0:0:0:
256,192,30223,1,0,0:0:0:0:
256,192,30411,5,8,0:0:0:0:
256,192,30598,5,0,0:0:0:0:
256,192,30692,1,0,0:0:0:0:
256,192,30786,5,8,0:0:0:0:
256,192,30973,1,8,0:0:0:0:
256,192,31161,5,0,0:0:0:0:
256,192,31536,5,0,0:0:0:0:
256,192,31911,5,8,0:0:0:0:
256,192,32098,1,0,0:0:0:0:
256,192,32286,5,8,0:0:0:0:
256,192,32661,1,8,0:0:0:0:
256,192,32848,5,0,0:0:0:0:
256,192,33036,5,8,0:0:0:0:
256,192,33223,1,8,0:0:0:0:
256,192,33317,1,8,0:0:0:0:
256,192,33411,5,0,0:0:0:0:
256,192,33598,1,8,0:0:0:0:
256,192,33973,1,0,0:0:0:0:
256,192,34161,5,8,0:0:0:0:
256,192,34536,5,0,0:0:0:0:
256,192,34911,5,8,0:0:0:0:
256,192,35098,5,0,0:0:0:0:
256,192,35286,1,8,0:0:0:0:
256,192,35661,5,8,0:0:0:0:
256,192,35848,5,0,0:0:0:0:
256,192,36223,1,0,0:0:0:0:
256,192,36411,5,8,0:0:0:0:
256,192,36598,1,0,0:0:0:0:
256,192,36692,5,0,0:0:0:0:
256,192,36786,5,8,0:0:0:0:
256,192,36973,1,8,0:0:0:0:
256,192,37161,5,0,0:0:0:0:
256,192,37536,1,0,0:0:0:0:
256,192,37911,5,8,0:0:0:0:
256,192,38286,5,0,0:0:0:0:
256,192,38473,1,0,0:0:0:0:
256,192,38661,5,8,0:0:0:0:
256,192,38848,5,0,0:0:0:0:
256,192,38942,1,0,0:0:0:0:
256,192,39036,5,8,0:0:0:0:
256,192,39223,5,0,0:0:0:0:
256,192,39411,5,8,0:0:0:0:
256,192,39598,5,0,0:0:0:0:
256,192,39973,1,0,0:0:0:0:
256,192,40161,1,8,0:0:0:0:
256,192,40536,1,0,0:0:0:0:
256,192,40911,5,8,0:0:0:0:
256,192,41098,5,0,0:0:0:0:
256,192,41192,1,0,0:0:0:0:
256,192,41286,5,8,0:0:0:0:
256,192,41473,5,0,0:0:0:0:
256,192,41661,5,8,0:0:0:0:
256,192,41848,5,0,0:0:0:0:
256,192,42223,1,0,0:0:0:0:
256,192,42411,5,8,0:0:0:0:
256,192,42598,5,0,0:0:0:0:
256,192,42692,1,0,0:0:0:0:
256,192,42786,5,8,0:0:0:0:
256,192,42973,5,0,0:0:0:0:
256,192,43161,5,8,0:0:0:0:
256,192,43536,5,0,0:0:0:0:
256,192,43911,1,8,0:0:0:0:
256,192,44098,1,0,0:0:0:0:
256,192,44286,5,8,0:0:0:0:
256,192,44661,5,0,0:0:0:0:
256,192,44848,5,8,0:0:0:0:
256,192,45036,1,8,0:0:0:0:
256,192,45223,1,0,0:0:0:0:
256,192,45317,1,0,0:0:0:0:
256,192,45411,1,0,0:0:0:0:
256,192,45598,1,8,0:0:0:0:
256,192,45786,1,0,0:0:0:0:
256,192,45973,5,12,0:0:0:0:
256,192,46348,5,0,0:0:0:0:
256,192,46536,5,8,0:0:0:0:
256,192,46723,1,8,0:0:0:0:
256,192,46817,1,8,0:0:0:0:
256,192,46911,5,0,0:0:0:0:
256,192,47098,1,0,0:0:0:0:
256,192,47286,5,8,0:0:0:0:
256,192,47473,5,0,0:0:0:0:
256,192,47661,5,8,0:0:0:0:
256,192,47848,1,8,0:0:0:0:
256,192,47942,1,8,0:0:0:0:
256,192,48036,1,8,0:0:0:0:
256,192,48223,5,0,0:0:0:0:
256,192,48317,1,0,0:0:0:0:
256,192,48411,5,8,0:0:0:0:
256,192,48598,1,8,0:0:0:0:
256,192,48786,5,0,0:0:0:0:
256,192,49536,1,8,0:0:0:0:
256,192,49723,1,0,0:0:0:0:
256,192,49817,5,0,0:0:0:0:
256,192,49911,5,8,0:0:0:0:
256,192,50098,1,0,0:0:0:0:
256,192,50286,5,8,0:0:0:0:
256,192,50473,5,0,0:0:0:0:
256,192,50567,1,0,0:0:0:0:
256,192,50661,5,8,0:0:0:0:
256,192,50848,1,8,0:0:0:0:
256,192,51036,5,0,0:0:0:0:
256,192,51223,1,0,0:0:0:0:
256,192,51317,1,0,0:0:0:0:
256,192,51411,1,8,0:0:0:0:
256,192,51598,5,0,0:0:0:0:
256,192,51786,5,8,0:0:0:0:
256,192,51973,5,0,0:0:0:0:
256,192,52161,5,8,0:0:0:0:
256,192,52536,5,0,0:0:0:0:
256,192,52723,1,0,0:0:0:0:
256,192,52911,5,8,0:0:0:0:
256,192,53098,5,0,0:0:0:0:
256,192,53473,1,0,0:0:0:0:
256,192,53661,5,8,0:0:0:0:
256,192,53848,5,0,0:0:0:0:
256,192,53942,1,0,0:0:0:0:
256,192,54036,1,0,0:0:0:0:
256,192,54223,1,0,0:0:0:0:
256,192,54411,5,8,0:0:0:0:
256,192,54598,5,0,0:0:0:0:
256,192,54973,1,0,0:0:0:0:
256,192,55067,1,0,0:0:0:0:
256,192,55161,5,8,0:0:0:0:
256,192,55348,5,0,0:0:0:0:
256,192,55536,5,12,0:0:0:0:
256,192,55723,1,8,0:0:0:0:
256,192,55817,1,8,0:0:0:0:
256,192,55911,1,8,0:0:0:0:
256,192,56098,5,0,0:0:0:0:
256,192,56286,5,8,0:0:0:0:
256,192,56379,1,8,0:0:0:0:
256,192,56473,5,0,0:0:0:0:
256,192,56567,1,0,0:0:0:0:
256,192,56661,5,8,0:0:0:0:
256,192,56848,5,4,0:0:0:0:
256,192,57223,1,4,0:0:0:0:
256,192,57598,1,0,0:0:0:0:
256,192,57692,1,0,0:0:0:0:
256,192,57786,5,8,0:0:0:0:
256,192,57879,1,8,0:0:0:0:
256,192,57973,5,0,0:0:0:0:
256,192,58161,1,0,0:0:0:0:
256,192,58348,1,12,0:0:0:0:
256,192,58723,1,8,0:0:0:0:
256,192,58911,1,0,0:0:0:0:
256,192,59098,1,8,0:0:0:0:
256,192,59192,1,8,0:0:0:0:
256,192,59286,1,0,0:0:0:0:
256,192,59473,5,8,0:0:0:0:
256,192,59661,5,0,0:0:0:0:
256,192,59848,5,8,0:0:0:0:
256,192,60223,5,8,0:0:0:0:
256,192,60411,5,0,0:0:0:0:
256,192,60598,5,8,0:0:0:0:
256,192,60692,1,8,0:0:0:0:
256,192,60786,1,0,0:0:0:0:
256,192,60973,5,8,0:0:0:0:
256,192,61161,5,0,0:0:0:0:
256,192,61254,1,0,0:0:0:0:
256,192,61348,5,8,0:0:0:0:
256,192,61442,1,8,0:0:0:0:
256,192,61536,1,0,0:0:0:0:
256,192,61723,5,0,0:0:0:0:
256,192,61911,5,8,0:0:0:0:
256,192,62098,5,0,0:0:0:0:
256,192,62192,1,0,0:0:0:0:
256,192,62286,5,8,0:0:0:0:
256,192,62473,5,0,0:0:0:0:
256,192,62661,5,8,0:0:0:0:
256,192,62848,5,0,0:0:0:0:
256,192,63223,1,0,0:0:0:0:
256,192,63411,5,8,0:0:0:0:
256,192,63598,5,0,0:0:0:0:
256,192,63692,1,0,0:0:0:0:
256,192,63786,5,8,0:0:0:0:
256,192,63973,5,0,0:0:0:0:
256,192,64161,5,8,0:0:0:0:
256,192,64254,1,8,0:0:0:0:
256,192,64348,1,0,0:0:0:0:
256,192,64536,5,8,0:0:0:0:
256,192,64723,1,0,0:0:0:0:
256,192,64911,5,0,0:0:0:0:
256,192,65098,5,8,0:0:0:0:
256,192,65473,5,0,0:0:0:0:
256,192,65567,1,0,0:0:0:0:
256,192,65661,1,8,0:0:0:0:
256,192,65848,5,8,0:0:0:0:
256,192,66036,5,0,0:0:0:0:
256,192,66223,5,8,0:0:0:0:
256,192,66317,5,0,0:0:0:0:
256,192,66411,5,8,0:0:0:0:
256,192,66598,5,0,0:0:0:0:
256,192,66786,5,8,0:0:0:0:
256,192,66879,1,8,0:0:0:0:
256,192,66973,5,0,0:0:0:0:
256,192,67067,1,0,0:0:0:0:
256,192,67161,5,8,0:0:0:0:
256,192,67348,5,0,0:0:0:0:
256,192,67536,5,12,0:0:0:0:
256,192,67723,1,0,0:0:0:0:
256,192,67817,1,0,0:0:0:0:
256,192,67911,5,8,0:0:0:0:
256,192,68098,1,8,0:0:0:0:
256,192,68286,1,0,0:0:0:0:
256,192,68473,5,0,0:0:0:0:
256,192,68567,5,0,0:0:0:0:
256,192,68661,5,8,0:0:0:0:
256,192,68848,5,4,0:0:0:0:
256,192,69223,1,0,0:0:0:0:
256,192,69411,5,8,0:0:0:0:
256,192,69598,5,0,0:0:0:0:
256,192,69692,1,0,0:0:0:0:
256,192,69786,5,8,0:0:0:0:
256,192,69973,5,8,0:0:0:0:
256,192,70067,1,8,0:0:0:0:
256,192,70161,5,0,0:0:0:0:
256,192,70348,5,12,0:0:0:0:
256,192,70723,5,8,0:0:0:0:
256,192,70911,5,0,0:0:0:0:
256,192,71098,1,8,0:0:0:0:
256,192,71192,1,8,0:0:0:0:
256,192,71286,5,0,0:0:0:0:
256,192,71473,5,8,0:0:0:0:
256,192,71661,5,0,0:0:0:0:
256,192,71848,5,8,0:0:0:0:
256,192,72223,1,8,0:0:0:0:
256,192,72411,1,0,0:0:0:0:
256,192,72598,1,8,0:0:0:0:
256,192,72786,1,0,0:0:0:0:
256,192,72879,1,0,0:0:0:0:
256,192,72973,1,8,0:0:0:0:
256,192,73067,1,8,0:0:0:0:
256,192,73161,1,0,0:0:0:0:
256,192,73348,5,0,0:0:0:0:
256,192,73536,5,8,0:0:0:0:
256,192,73723,5,0,0:0:0:0:
256,192,73911,5,8,0:0:0:0:
256,192,74098,1,0,0:0:0:0:
256,192,74192,1,0,0:0:0:0:
256,192,74286,1,8,0:0:0:0:
256,192,74473,5,0,0:0:0:0:
256,192,74661,5,8,0:0:0:0:
256,192,74848,5,0,0:0:0:0:
256,192,75036,1,12,0:0:0:0:
256,192,75411,5,12,0:0:0:0:
256,192,75786,5,4,0:0:0:0:
256,192,76161,5,12,0:0:0:0:
256,192,76348,1,0,0:0:0:0:
256,192,76442,1,0,0:0:0:0:
256,192,76536,1,8,0:0:0:0:
256,192,76723,5,0,0:0:0:0:
256,192,76911,5,0,0:0:0:0:
256,192,77098,1,8,0:0:0:0:
256,192,77473,5,0,0:0:0:0:
256,192,77661,1,0,0:0:0:0:
256,192,77848,1,12,0:0:0:0:
256,192,78223,5,8,0:0:0:0:
256,192,78411,5,0,0:0:0:0:
256,192,78598,5,8,0:0:0:0:
256,192,78786,5,0,0:0:0:0:
256,192,78879,1,0,0:0:0:0:
256,192,78973,5,8,0:0:0:0:
256,192,79067,1,8,0:0:0:0:
256,192,79161,1,0,0:0:0:0:
256,192,79348,1,8,0:0:0:0:
256,192,79536,5,4,0:0:0:0:
256,192,79911,5,0,0:0:0:0:
256,192,80098,1,8,0:0:0:0:
256,192,80286,1,0,0:0:0:0:
256,192,80473,1,0,0:0:0:0:
256,192,80567,1,0,0:0:0:0:
256,192,80661,1,8,0:0:0:0:
256,192,80848,1,8,0:0:0:0:
256,192,81036,1,4,0:0:0:0:
256,192,81411,1,8,0:0:0:0:
256,192,81598,1,8,0:0:0:0:
256,192,81692,1,8,0:0:0:0:
256,192,81786,1,0,0:0:0:0:
256,192,81973,1,0,0:0:0:0:
256,192,82161,1,8,0:0:0:0:
256,192,82348,1,8,0:0:0:0:
256,192,82536,1,4,0:0:0:0:
256,192,82723,1,0,0:0:0:0:
256,192,82911,1,8,0:0:0:0:
256,192,83004,1,8,0:0:0:0:
256,192,83098,1,8,0:0:0:0:
256,192,83286,1,4,0:0:0:0:
256,192,83473,1,0,0:0:0:0:
256,192,83661,1,8,0:0:0:0:
256,192,83754,1,8,0:0:0:0:
256,192,83848,1,8,0:0:0:0:
256,192,84036,1,0,0:0:0:0:
256,192,84223,1,0,0:0:0:0:
256,192,84411,1,8,0:0:0:0:
256,192,84598,1,0,0:0:0:0:
256,192,84692,1,0,0:0:0:0:
256,192,84786,1,8,0:0:0:0:
256,192,84879,1,8,0:0:0:0:
256,192,84973,1,0,0:0:0:0:
256,192,85067,1,0,0:0:0:0:
256,192,85161,1,8,0:0:0:0:
256,192,85348,1,8,0:0:0:0:
256,192,85536,1,4,0:0:0:0:
256,192,85723,5,0,0:0:0:0:
256,192,85817,1,0,0:0:0:0:
256,192,85911,5,8,0:0:0:0:
256,192,86098,1,8,0:0:0:0:
256,192,86286,1,8,0:0:0:0:
256,192,86379,1,8,0:0:0:0:
256,192,86473,5,0,0:0:0:0:
256,192,86567,1,0,0:0:0:0:
256,192,86661,5,8,0:0:0:0:
256,192,86848,1,8,0:0:0:0:
256,192,87223,5,0,0:0:0:0:
256,192,87598,1,0,0:0:0:0:
256,192,87692,1,0,0:0:0:0:
256,192,87786,5,8,0:0:0:0:
256,192,87973,5,0,0:0:0:0:
256,192,88161,5,8,0:0:0:0:
256,192,88348,5,4,0:0:0:0:
