osu file format v12

[General]
AudioFilename: Kami Nomi zo Shiri-tai - Ai no Yokan (TV Size).mp3
AudioLeadIn: 1000
PreviewTime: 57786
Countdown: 0
SampleSet: Soft
StackLeniency: 0.7
Mode: 0
LetterboxInBreaks: 0
WidescreenStoryboard: 0

[Editor]
DistanceSpacing: 1
BeatDivisor: 4
GridSize: 4
TimelineZoom: 1

[Metadata]
Title:Ai no Yokan (TV EDIT)
TitleUnicode:アイノヨカン (TV EDIT)
Artist:Kami Nomi zo Shiri-tai
ArtistUnicode:神のみぞ知り隊
Creator:bossandy
Version:Normal
Source:Kami Nomi zo Shiru Sekai II
Tags:boss the world god only knows devil soul game ending qoot8123 spboxer3 Fumika Netsukawa
BeatmapID:184635
BeatmapSetID:60040

[Difficulty]
HPDrainRate:3
CircleSize:4
OverallDifficulty:4
ApproachRate:5
SliderMultiplier:1
SliderTickRate:1

[Events]
//Background and Video events
Video,705,"Kami nomi zo Shiru Sekai II ED.avi"
0,0,"BG.jpg",0,0
//Break Periods
//Storyboard Layer 0 (Background)
//Storyboard Layer 1 (Fail)
//Storyboard Layer 2 (Pass)
//Storyboard Layer 3 (Foreground)
//Storyboard Sound Samples
//Background Colour Transformations
3,100,163,162,255

[TimingPoints]
36,375,4,2,2,50,1,0
12786,-100,4,1,0,20,0,0
13348,-100,4,2,1,50,0,0
45786,-100,4,2,1,30,0,0
46161,-100,4,2,1,40,0,0
46536,-100,4,2,1,60,0,0
52911,-100,4,1,1,45,0,0
53098,-100,4,2,1,50,0,0
54411,-100,4,1,1,45,0,0
54598,-100,4,2,1,50,0,0
57411,-100,4,2,2,50,0,0
58536,-100,4,2,1,70,0,1
73911,-100,4,1,1,65,0,1
74098,-100,4,2,1,70,0,1
79911,-100,4,1,1,65,0,1
80098,-100,4,2,1,70,0,1
88348,-100,4,2,1,70,0,0
88536,-100,4,2,1,30,0,0
93036,-100,4,2,1,5,0,0

[Colours]
Combo1 : 240,240,240
Combo2 : 0,128,255
Combo3 : 255,255,128
Combo4 : 255,128,128

[HitObjects]
240,256,973,6,0,B|288:268,2,50,0|0|2,0:0|0:0|0:0,0:0:0:0:
148,300,1723,2,0,B|160:348,2,50,2|2|2,0:0|0:0|0:0,0:0:0:0:
52,276,2473,1,2,0:0:0:0:
8,184,2848,6,0,B|60:156|60:96,1,99.9999999999999,2|2,0:0|0:0,0:0:0:0:
32,60,3411,2,0,B|84:76|84:76|132:76,1,100,2|2,0:0|0:0,0:0:0:0:
196,152,4161,6,0,P|200:204|172:252,1,100
272,128,5098,1,0,0:0:0:0:
324,128,5286,2,0,B|380:120|404:60,1,99.9999999999999,2|0,0:0|0:0,0:0:0:0:
484,120,6036,5,2,0:0:0:0:
452,216,6411,2,0,B|476:316,2,99.9999999999999,0|0|2,0:0|0:0|0:0,0:0:0:0:
372,276,7536,6,0,B|344:320,2,50,2|0|0,0:0|0:0|0:0,0:0:0:0:
328,252,8098,2,0,B|280:240|228:256,2,99.9999999999999,2|0|2,0:0|0:0|0:0,0:0:0:0:
360,156,9223,1,0,0:0:0:0:
340,108,9411,2,0,B|296:48|256:64|216:48|172:108,1,200
256,192,10536,12,0,12786,0:0:0:0:
324,340,13536,5,6,0:0:0:0:
328,240,13911,1,8,0:0:0:0:
408,296,14286,2,0,B|452:320,2,50,0|2|8,0:0|0:0|0:0,0:0:0:0:
460,212,15036,6,0,B|476:160|440:116,1,99.9999999999999,2|8,0:0|0:0,0:0:0:0:
396,140,15598,2,0,B|345:120|333:67,1,99.9999999999999,0|2,0:0|0:0,0:0:0:0:
356,24,16161,1,8,0:0:0:0:
260,44,16536,6,0,B|156:52,1,99.9999999999999,2|8,0:0|0:0,0:0:0:0:
84,120,17286,2,0,B|36:104,2,50,0|2|8,0:0|0:0|0:0,0:0:0:0:
104,164,17848,6,0,B|80:232|80:232|36:248|28:292,1,150,4|8,0:0|0:0,0:0:0:0:
124,320,18786,1,0,0:0:0:0:
164,348,18973,1,2,0:0:0:0:
212,360,19161,1,8,0:0:0:0:
260,356,19348,6,0,B|372:364|440:256,2,200,4|4|4,0:0|0:0|0:0,0:0:0:0:
200,276,21223,1,4,0:0:0:0:
104,304,21598,1,4,0:0:0:0:
132,208,21973,2,0,B|128:152|84:120,1,99.9999999999999,4|8,0:0|0:0,0:0:0:0:
36,120,22536,5,6,0:0:0:0:
84,32,22911,1,8,0:0:0:0:
184,52,23286,2,0,B|240:40,2,50,0|2|8,0:0|0:0|0:0,0:0:0:0:
200,152,24036,2,0,B|300:128,1,99.9999999999999,2|8,0:0|0:0,0:0:0:0:
332,164,24598,2,0,B|344:128|344:128|372:108|376:76,1,99.9999999999999,0|2,0:0|0:0,0:0:0:0:
336,44,25161,1,8,0:0:0:0:
268,116,25536,6,0,B|248:152|252:192|280:220,1,99.9999999999999,2|8,0:0|0:0,0:0:0:0:
360,256,26286,2,0,B|412:236,2,50,0|2|8,0:0|0:0|0:0,0:0:0:0:
308,340,27036,1,2,0:0:0:0:
220,292,27411,1,8,0:0:0:0:
176,320,27598,2,0,B|152:320|128:336|128:336|104:320|72:320,1,99.9999999999999,0|2,0:0|0:0,0:0:0:0:
36,300,28161,1,8,0:0:0:0:
56,200,28536,6,0,B|32:88,2,99.9999999999999,6|8|0,0:0|0:0|0:0,0:0:0:0:
104,192,29473,2,0,B|148:220,2,50,2|8|0,0:0|0:0|0:0,0:0:0:0:
160,108,30223,2,0,B|144:48,1,50,0|8,0:0|0:0,0:0:0:0:
244,88,30786,2,0,B|288:120|344:100,1,99.9999999999999,0|8,0:0|0:0,0:0:0:0:
420,44,31536,5,2,0:0:0:0:
428,144,31911,2,0,B|412:184|376:192|376:192|388:200|392:212,1,99.9999999999999,8|0,0:0|0:0,0:0:0:0:
404,260,32473,1,2,0:0:0:0:
400,308,32661,1,8,0:0:0:0:
312,360,33036,6,0,B|256:364|212:328,1,99.9999999999999,2|8,0:0|0:0,0:0:0:0:
212,284,33598,2,0,B|174:252|118:256,1,99.9999999999999,8|2,0:0|0:0,0:3:0:0:
56,120,34536,5,4,0:0:0:0:
28,216,34911,1,8,0:0:0:0:
132,252,35286,2,0,B|124:276|108:296,2,50,0|2|8,0:0|0:0|0:0,0:0:0:0:
148,204,35848,2,0,B|156:148|116:100,1,99.9999999999999,2|2,0:0|0:0,0:0:0:0:
88,72,36411,1,8,0:0:0:0:
180,32,36786,2,0,B|236:28|276:64,1,100,0|8,0:0|0:0,0:0:0:0:
296,160,37536,6,0,B|352:156|372:100,1,100,2|8,0:0|0:0,0:0:0:0:
468,124,38286,1,0,0:0:0:0:
476,172,38473,1,2,0:0:0:0:
500,216,38661,1,8,0:0:0:0:
444,300,39036,6,0,B|384:312,1,50,2|0,0:0|0:0,0:0:0:0:
356,340,39411,1,8,0:0:0:0:
308,352,39598,1,2,0:0:0:0:
296,252,39973,2,0,B|240:260,1,50,0|8,0:0|0:0,0:0:0:0:
228,176,40536,6,0,B|184:160|184:160|168:140|140:132,2,99.9999999999999,6|8|0,0:0|0:0|0:0,0:0:0:0:
324,144,41661,1,8,0:0:0:0:
324,144,41848,2,0,B|380:140|400:88,1,99.9999999999999,2|2,0:0|0:0,0:0:0:0:
399,88,42411,1,8,0:0:0:0:
308,48,42786,2,0,B|256:56|256:56|212:36,1,99.9999999999999,0|8,0:0|0:0,0:0:0:0:
112,48,43536,5,2,0:0:0:0:
80,144,43911,2,0,B|60:196|60:196|72:220|68:248,1,99.9999999999999,8|0,0:0|0:0,0:0:0:0:
12,320,44661,1,8,0:0:0:0:
112,336,45036,5,2,0:0:0:0:
208,308,45411,1,8,0:0:0:0:
304,332,45786,2,0,B|352:316,2,50,4|2|4,0:0|0:0|0:0,0:0:0:0:
272,236,46536,6,0,B|320:212|336:156,1,99.9999999999999,6|8,0:0|0:0,0:0:0:0:
356,64,47286,2,0,B|388:68|400:96,2,50,0|2|8,0:0|0:0|0:0,0:0:0:0:
256,84,48036,2,0,B|160:52,1,99.9999999999999,6|8,0:0|0:0,0:0:0:0:
156,152,48786,2,0,B|60:120,1,99.9999999999999,0|8,0:0|0:0,0:0:0:0:
44,220,49536,6,0,B|72:262|72:262|116:282,1,99.9999999999999,6|8,0:0|0:0,0:0:0:0:
117,282,50098,1,0,0:0:0:0:
117,283,50286,2,0,B|161:303|161:303|189:345,2,99.9999999999999,0|8|6,0:0|0:0|0:0,0:0:0:0:
200,228,51411,2,0,B|256:256,1,50,8|2,0:0|0:0,0:0:0:0:
264,152,51973,2,0,B|208:124,1,50,2|8,0:0|0:0,0:0:0:0:
124,164,52536,6,0,B|68:204|68:204|68:244|28:272,2,150,6|6|8,0:0|0:0|0:0,0:0:0:0:
216,204,54036,2,0,B|272:164|272:164|272:124|312:96,2,150,6|6|8,0:0|0:0|0:0,0:0:0:0:
144,276,55536,5,4,0:0:0:0:
240,308,55911,1,8,0:0:0:0:
340,308,56286,2,0,B|384:344,2,50,8|0|0,0:0|0:0|0:0,0:0:0:0:
380,280,56848,2,0,B|492:304,1,99.9999999999999,12|8,0:0|0:0,0:0:0:0:
468,152,57786,2,0,B|492:107,2,50,2|2|0,0:0|0:0|0:0,0:0:0:0:
385,206,58536,6,0,B|356:180|352:135|378:103,1,99.9999999999999,6|8,0:0|0:0,0:0:0:0:
280,72,59286,1,0,0:0:0:0:
232,84,59473,1,2,0:0:0:0:
180,84,59661,1,8,0:0:0:0:
132,72,59848,2,0,B|84:72|64:112|64:112|80:148|64:176,1,150,2|8,0:0|0:0,0:0:0:0:
32,272,60786,2,0,L|8:328,2,50,0|2|8,0:0|0:0|0:0,0:0:0:0:
132,280,61536,6,0,L|244:296,2,99.9999999999999,2|8|0,0:0|0:0|0:0,0:0:0:0:
140,232,62473,2,0,L|152:176,2,50,2|8|0,0:0|0:0|0:0,0:0:0:0:
240,220,63223,2,0,L|252:172,1,50,2|8,0:0|0:0,0:0:0:0:
348,204,63786,1,0,0:0:0:0:
372,160,63973,1,2,0:0:0:0:
356,112,64161,1,8,0:0:0:0:
264,72,64536,6,0,L|160:52,1,99.9999999999999,6|8,0:0|0:0,0:0:0:0:
92,124,65286,2,0,L|40:116,2,50,0|2|8,0:0|0:0|0:0,0:0:0:0:
140,132,65848,1,0,0:0:0:0:
116,228,66223,1,2,0:0:0:0:
116,228,66411,2,0,P|91:272|38:299,2,99.9999999999999,8|0|8,0:0|0:0|0:0,0:0:0:0:
216,240,67536,6,0,L|320:252,1,99.9999999999999,6|8,0:0|0:0,0:0:0:0:
416,260,68286,2,0,L|408:312,2,50,0|2|8,0:0|0:0|0:0,0:0:0:0:
368,244,68848,2,0,P|360:172|420:120,1,150,4|8,0:0|0:0,0:0:0:0:
328,68,69786,2,0,P|356:44|384:40,2,50,0|2|8,0:0|0:0|0:0,0:0:0:0:
280,156,70536,5,4,0:0:0:0:
212,80,70911,2,0,P|172:48|128:28,1,100,8|0,0:0|0:0,0:0:0:0:
80,36,71473,1,2,0:0:0:0:
52,76,71661,1,8,0:0:0:0:
96,164,72036,1,2,0:0:0:0:
52,256,72411,2,0,L|24:308,1,50,8|0,0:0|0:0,0:0:0:0:
76,312,72786,2,0,L|116:372,1,50,0|2,0:0|0:0,0:0:0:0:
144,324,73161,2,0,L|196:332,1,50,8|0,0:0|0:0,0:0:0:0:
204,284,73536,6,0,P|240:240|248:140,1,150,2|0,0:0|0:0,0:0:0:0:
212,120,74286,1,0,0:0:0:0:
184,80,74473,1,2,0:0:0:0:
176,32,74661,1,8,0:0:0:0:
276,48,75036,6,0,L|376:56,1,99.9999999999999,4|4,0:0|0:0,0:0:0:0:
428,144,75786,2,0,L|328:136,1,99.9999999999999,4|4,0:0|0:0,0:0:0:0:
320,184,76348,2,0,L|264:180,1,50,0|4,0:0|0:0,0:0:0:0:
164,72,77098,5,4,0:0:0:0:
208,268,77848,1,4,0:0:0:0:
112,320,78411,2,0,P|60:336|20:320,2,100,8|0|8,0:0|0:0|0:0,0:0:0:0:
132,224,79536,6,0,P|216:176|288:240,1,200,6|0,0:0|0:0,0:0:0:0:
380,268,80661,1,8,0:0:0:0:
380,268,80848,2,0,P|408:196|380:128,1,150,6|8,0:0|0:0,0:0:0:0:
452,56,81786,2,0,P|472:84|476:108,2,50,0|2|8,0:0|0:0|0:0,0:0:0:0:
420,96,82348,6,0,P|340:156|244:144,2,200,4|4|4,0:0|0:0|0:0,0:0:0:0:
276,60,84411,1,8,0:0:0:0:
180,80,84786,1,0,0:0:0:0:
132,60,84973,6,0,L|84:40,2,50,2|8|4,0:0|0:0|0:0,0:0:0:0:
100,156,85723,2,0,L|52:176,2,50,2|8|4,0:0|0:0|0:0,0:0:0:0:
144,244,86473,1,2,0:0:0:0:
180,280,86661,1,0,0:0:0:0:
224,308,86848,6,0,P|272:312|320:288,2,99.9999999999999,4|4|2,0:0|0:0|0:0,0:0:0:0:
180,280,87786,2,0,L|132:296,3,50,12|4|12|4,0:0|3:0|3:0|0:0,0:0:0:0:
256,192,88536,12,0,93036,0:0:0:0:
