osu file format v12

[General]
AudioFilename: Kami Nomi zo Shiri-tai - Ai no Yokan (TV Size).mp3
AudioLeadIn: 1000
PreviewTime: 57786
Countdown: 0
SampleSet: Soft
StackLeniency: 0.5
Mode: 1
LetterboxInBreaks: 0
WidescreenStoryboard: 0

[Editor]
DistanceSpacing: 0.5
BeatDivisor: 4
GridSize: 32
TimelineZoom: 1

[Metadata]
Title:Ai no Yokan (TV EDIT)
TitleUnicode:アイノヨカン (TV EDIT)
Artist:Kami Nomi zo Shiri-tai
ArtistUnicode:神のみぞ知り隊
Creator:bossandy
Version:Fumika's Taiko Muzukashii
Source:Kami Nomi zo Shiru Sekai II
Tags:boss the world god only knows devil soul game ending qoot8123 spboxer3 Fumika Netsukawa
BeatmapID:209116
BeatmapSetID:60040

[Difficulty]
HPDrainRate:4
CircleSize:5
OverallDifficulty:4
ApproachRate:5
SliderMultiplier:1.5
SliderTickRate:1

[Events]
//Background and Video events
0,0,"BG.jpg",0,85
//Break Periods
//Storyboard Layer 0 (Background)
//Storyboard Layer 1 (Fail)
//Storyboard Layer 2 (Pass)
//Storyboard Layer 3 (Foreground)
//Storyboard Sound Samples
//Background Colour Transformations
3,100,163,162,255

[TimingPoints]
36,375,4,2,0,80,1,0
58536,-100,4,1,0,80,0,1
88348,-100,4,1,0,80,0,0

[Colours]
Combo1 : 255,0,0
Combo2 : 0,0,255

[HitObjects]
256,192,1536,5,8,0:0:0:0:
256,192,3036,1,8,0:0:0:0:
256,192,4536,1,8,0:0:0:0:
256,192,5286,1,8,0:0:0:0:
256,192,6036,1,8,0:0:0:0:
256,192,6411,1,8,0:0:0:0:
256,192,6786,1,8,0:0:0:0:
256,192,7161,1,8,0:0:0:0:
256,192,7536,1,8,0:0:0:0:
256,192,8098,1,8,0:0:0:0:
256,192,8473,1,8,0:0:0:0:
256,192,9036,1,8,0:0:0:0:
256,192,9786,1,8,0:0:0:0:
256,192,10536,2,0,P|96:192|96:320,2,300
256,192,12223,12,0,12973,0:0:0:0:
256,192,13161,5,8,0:0:0:0:
256,192,13536,1,4,0:0:0:0:
256,192,13911,1,8,0:0:0:0:
256,192,14286,1,0,0:0:0:0:
256,192,14473,1,0,0:0:0:0:
256,192,14661,1,8,0:0:0:0:
256,192,14848,1,0,0:0:0:0:
256,192,15223,1,8,0:0:0:0:
256,192,15411,1,0,0:0:0:0:
256,192,15786,1,0,0:0:0:0:
256,192,15973,1,8,0:0:0:0:
256,192,16161,1,8,0:0:0:0:
256,192,16348,1,0,0:0:0:0:
256,192,16536,1,0,0:0:0:0:
256,192,16911,1,8,0:0:0:0:
256,192,17286,1,8,0:0:0:0:
256,192,17473,1,8,0:0:0:0:
256,192,17661,1,0,0:0:0:0:
256,192,17848,1,8,0:0:0:0:
256,192,18223,1,0,0:0:0:0:
256,192,18411,1,8,0:0:0:0:
256,192,18598,1,0,0:0:0:0:
256,192,18973,1,0,0:0:0:0:
256,192,19161,1,8,0:0:0:0:
256,192,19536,1,4,0:0:0:0:
256,192,19723,1,4,0:0:0:0:
256,192,20098,1,4,0:0:0:0:
256,192,20473,1,4,0:0:0:0:
256,192,20848,1,4,0:0:0:0:
256,192,21223,1,12,0:0:0:0:
256,192,21598,1,4,0:0:0:0:
256,192,21973,1,12,0:0:0:0:
256,192,22536,1,4,0:0:0:0:
256,192,22911,1,8,0:0:0:0:
256,192,23286,1,0,0:0:0:0:
256,192,23473,1,0,0:0:0:0:
256,192,23661,1,8,0:0:0:0:
256,192,23848,1,0,0:0:0:0:
256,192,24223,1,0,0:0:0:0:
256,192,24411,1,8,0:0:0:0:
256,192,24786,1,0,0:0:0:0:
256,192,24973,1,0,0:0:0:0:
256,192,25161,1,8,0:0:0:0:
256,192,25536,1,0,0:0:0:0:
256,192,25911,1,8,0:0:0:0:
256,192,26286,1,0,0:0:0:0:
256,192,26473,1,0,0:0:0:0:
256,192,26661,1,8,0:0:0:0:
256,192,27036,1,0,0:0:0:0:
256,192,27223,1,0,0:0:0:0:
256,192,27411,1,8,0:0:0:0:
256,192,27598,1,0,0:0:0:0:
256,192,27973,1,0,0:0:0:0:
256,192,28161,1,8,0:0:0:0:
256,192,28536,1,0,0:0:0:0:
256,192,28911,1,8,0:0:0:0:
256,192,29286,1,0,0:0:0:0:
256,192,29473,1,0,0:0:0:0:
256,192,29661,1,8,0:0:0:0:
256,192,29848,1,0,0:0:0:0:
256,192,30223,1,0,0:0:0:0:
256,192,30411,1,8,0:0:0:0:
256,192,30786,1,0,0:0:0:0:
256,192,30973,1,0,0:0:0:0:
256,192,31161,1,8,0:0:0:0:
256,192,31536,1,0,0:0:0:0:
256,192,31911,1,8,0:0:0:0:
256,192,32098,1,0,0:0:0:0:
256,192,32473,1,0,0:0:0:0:
256,192,32661,1,8,0:0:0:0:
256,192,33036,1,0,0:0:0:0:
256,192,33223,1,0,0:0:0:0:
256,192,33411,1,8,0:0:0:0:
256,192,33598,1,0,0:0:0:0:
256,192,33786,1,0,0:0:0:0:
256,192,33973,1,8,0:0:0:0:
256,192,34536,1,0,0:0:0:0:
256,192,34911,1,8,0:0:0:0:
256,192,35286,1,0,0:0:0:0:
256,192,35473,1,0,0:0:0:0:
256,192,35661,1,8,0:0:0:0:
256,192,35848,1,0,0:0:0:0:
256,192,36223,1,0,0:0:0:0:
256,192,36411,1,8,0:0:0:0:
256,192,36786,1,0,0:0:0:0:
256,192,36973,1,0,0:0:0:0:
256,192,37161,1,8,0:0:0:0:
256,192,37536,1,0,0:0:0:0:
256,192,37911,1,8,0:0:0:0:
256,192,38286,1,0,0:0:0:0:
256,192,38473,1,0,0:0:0:0:
256,192,38661,1,8,0:0:0:0:
256,192,38848,1,8,0:0:0:0:
256,192,39036,1,0,0:0:0:0:
256,192,39411,1,8,0:0:0:0:
256,192,39598,1,0,0:0:0:0:
256,192,39973,1,0,0:0:0:0:
256,192,40161,1,8,0:0:0:0:
256,192,40536,1,0,0:0:0:0:
256,192,40911,1,8,0:0:0:0:
256,192,41286,1,0,0:0:0:0:
256,192,41473,1,0,0:0:0:0:
256,192,41661,1,8,0:0:0:0:
256,192,41848,1,0,0:0:0:0:
256,192,42223,1,0,0:0:0:0:
256,192,42411,1,8,0:0:0:0:
256,192,42598,1,8,0:0:0:0:
256,192,42786,1,0,0:0:0:0:
256,192,42973,1,0,0:0:0:0:
256,192,43161,1,8,0:0:0:0:
256,192,43536,1,0,0:0:0:0:
256,192,43911,1,8,0:0:0:0:
256,192,44098,1,0,0:0:0:0:
256,192,44473,1,0,0:0:0:0:
256,192,44661,1,8,0:0:0:0:
256,192,44848,1,0,0:0:0:0:
256,192,45036,1,0,0:0:0:0:
256,192,45411,1,8,0:0:0:0:
256,192,45598,1,0,0:0:0:0:
256,192,45973,1,0,0:0:0:0:
256,192,46536,1,4,0:0:0:0:
256,192,46911,1,8,0:0:0:0:
256,192,47286,1,0,0:0:0:0:
256,192,47473,1,0,0:0:0:0:
256,192,47661,1,8,0:0:0:0:
256,192,48036,1,0,0:0:0:0:
256,192,48411,1,8,0:0:0:0:
256,192,48786,1,0,0:0:0:0:
256,192,48973,1,0,0:0:0:0:
256,192,49161,1,8,0:0:0:0:
256,192,49536,1,0,0:0:0:0:
256,192,49911,1,8,0:0:0:0:
256,192,50286,1,0,0:0:0:0:
256,192,50473,1,0,0:0:0:0:
256,192,50661,1,8,0:0:0:0:
256,192,51036,1,4,0:0:0:0:
256,192,51411,1,8,0:0:0:0:
256,192,51786,1,0,0:0:0:0:
256,192,51973,1,0,0:0:0:0:
256,192,52161,1,8,0:0:0:0:
256,192,52536,1,4,0:0:0:0:
256,192,53098,1,4,0:0:0:0:
256,192,53661,1,8,0:0:0:0:
256,192,54036,1,4,0:0:0:0:
256,192,54598,1,4,0:0:0:0:
256,192,55161,1,8,0:0:0:0:
256,192,55536,1,4,0:0:0:0:
256,192,55911,1,4,0:0:0:0:
256,192,56286,1,12,0:0:0:0:
256,192,56661,1,12,0:0:0:0:
256,192,56848,1,4,0:0:0:0:
256,192,57223,1,12,0:0:0:0:
256,192,58161,1,8,0:0:0:0:
256,192,58536,1,4,0:0:0:0:
256,192,58911,1,8,0:0:0:0:
256,192,59098,1,0,0:0:0:0:
256,192,59473,1,0,0:0:0:0:
256,192,59661,1,8,0:0:0:0:
256,192,59848,1,0,0:0:0:0:
256,192,60223,1,0,0:0:0:0:
256,192,60411,1,8,0:0:0:0:
256,192,60598,1,8,0:0:0:0:
256,192,60786,1,0,0:0:0:0:
256,192,60973,1,0,0:0:0:0:
256,192,61161,1,8,0:0:0:0:
256,192,61348,1,0,0:0:0:0:
256,192,61536,1,8,0:0:0:0:
256,192,61911,1,8,0:0:0:0:
256,192,62098,1,0,0:0:0:0:
256,192,62286,1,8,0:0:0:0:
256,192,62661,1,8,0:0:0:0:
256,192,62848,1,0,0:0:0:0:
256,192,63223,1,0,0:0:0:0:
256,192,63411,1,8,0:0:0:0:
256,192,63786,1,0,0:0:0:0:
256,192,64161,1,8,0:0:0:0:
256,192,64536,1,4,0:0:0:0:
256,192,64911,1,8,0:0:0:0:
256,192,65098,1,0,0:0:0:0:
256,192,65473,1,0,0:0:0:0:
256,192,65661,1,8,0:0:0:0:
256,192,65848,1,0,0:0:0:0:
256,192,66223,1,0,0:0:0:0:
256,192,66411,1,8,0:0:0:0:
256,192,66786,1,0,0:0:0:0:
256,192,66973,1,0,0:0:0:0:
256,192,67161,1,8,0:0:0:0:
256,192,67348,1,0,0:0:0:0:
256,192,67536,1,8,0:0:0:0:
256,192,67911,1,8,0:0:0:0:
256,192,68098,1,0,0:0:0:0:
256,192,68286,1,0,0:0:0:0:
256,192,68473,1,8,0:0:0:0:
256,192,68661,1,0,0:0:0:0:
256,192,68848,1,8,0:0:0:0:
256,192,69223,1,8,0:0:0:0:
256,192,69411,1,0,0:0:0:0:
256,192,69786,1,8,0:0:0:0:
256,192,69973,1,0,0:0:0:0:
256,192,70161,1,8,0:0:0:0:
256,192,70348,1,0,0:0:0:0:
256,192,70536,1,0,0:0:0:0:
256,192,70911,1,12,0:0:0:0:
256,192,71286,1,0,0:0:0:0:
256,192,71473,1,0,0:0:0:0:
256,192,71661,1,8,0:0:0:0:
256,192,71848,1,0,0:0:0:0:
256,192,72223,1,0,0:0:0:0:
256,192,72411,1,8,0:0:0:0:
256,192,72598,1,8,0:0:0:0:
256,192,72786,1,0,0:0:0:0:
256,192,72973,1,0,0:0:0:0:
256,192,73161,1,8,0:0:0:0:
256,192,73348,1,0,0:0:0:0:
256,192,73536,1,8,0:0:0:0:
256,192,73911,1,8,0:0:0:0:
256,192,74098,1,0,0:0:0:0:
256,192,74286,1,8,0:0:0:0:
256,192,74661,1,8,0:0:0:0:
256,192,74848,1,0,0:0:0:0:
256,192,75036,1,8,0:0:0:0:
256,192,75223,1,8,0:0:0:0:
256,192,75411,1,0,0:0:0:0:
256,192,75786,1,8,0:0:0:0:
256,192,76161,1,8,0:0:0:0:
256,192,76536,1,4,0:0:0:0:
256,192,76911,1,8,0:0:0:0:
256,192,77098,1,0,0:0:0:0:
256,192,77473,1,0,0:0:0:0:
256,192,77661,1,8,0:0:0:0:
256,192,77848,1,0,0:0:0:0:
256,192,78223,1,8,0:0:0:0:
256,192,78411,1,0,0:0:0:0:
256,192,78598,1,0,0:0:0:0:
256,192,78786,1,8,0:0:0:0:
256,192,78973,1,0,0:0:0:0:
256,192,79161,1,8,0:0:0:0:
256,192,79348,1,8,0:0:0:0:
256,192,79536,1,0,0:0:0:0:
256,192,79911,1,12,0:0:0:0:
256,192,80286,1,0,0:0:0:0:
256,192,80473,1,0,0:0:0:0:
256,192,80661,1,8,0:0:0:0:
256,192,80848,1,0,0:0:0:0:
256,192,81223,1,0,0:0:0:0:
256,192,81411,1,8,0:0:0:0:
256,192,81786,1,0,0:0:0:0:
256,192,81973,1,0,0:0:0:0:
256,192,82161,1,8,0:0:0:0:
256,192,82348,1,8,0:0:0:0:
256,192,82536,1,0,0:0:0:0:
256,192,82911,1,8,0:0:0:0:
256,192,83286,1,8,0:0:0:0:
256,192,83473,1,0,0:0:0:0:
256,192,83661,1,0,0:0:0:0:
256,192,83848,1,8,0:0:0:0:
256,192,84223,1,0,0:0:0:0:
256,192,84411,1,8,0:0:0:0:
256,192,84598,1,0,0:0:0:0:
256,192,84973,1,0,0:0:0:0:
256,192,85161,1,8,0:0:0:0:
256,192,85536,1,0,0:0:0:0:
256,192,85723,1,0,0:0:0:0:
256,192,85911,1,8,0:0:0:0:
256,192,86098,1,0,0:0:0:0:
256,192,86473,1,0,0:0:0:0:
256,192,86661,1,8,0:0:0:0:
256,192,86848,1,0,0:0:0:0:
256,192,87223,1,8,0:0:0:0:
256,192,87598,1,0,0:0:0:0:
256,192,87692,1,0,0:0:0:0:
256,192,87786,1,0,0:0:0:0:
256,192,88161,1,8,0:0:0:0:
256,192,88348,1,4,0:0:0:0:
256,192,88536,12,0,91536,0:0:0:0:
