osu file format v14

[General]
AudioFilename: Kami Nomi zo Shiri-tai - Ai no Yokan (TV Size).mp3
AudioLeadIn: 500
PreviewTime: 57786
Countdown: 0
SampleSet: Soft
StackLeniency: 0.7
Mode: 0
LetterboxInBreaks: 0
WidescreenStoryboard: 0

[Editor]
DistanceSpacing: 1
BeatDivisor: 4
GridSize: 4
TimelineZoom: 1

[Metadata]
Title:Ai no Yokan (TV EDIT)
TitleUnicode:アイノヨカン(TV EDIT)
Artist:Kami Nomi zo Shiri-tai
ArtistUnicode:神のみぞ知り隊
Creator:Doyak
Version:Normal
Source:神のみぞ知るセカイⅡ
Tags:Kami Nomi zo Shiru Sekai II The World God Only Knows 2 Itou Kanae Hayami Saori Koshimizu Ami Asumi Kana Toyosaki Aki ending ED Premonition Of Love guineaQ Enon
BeatmapID:746077
BeatmapSetID:336863

[Difficulty]
HPDrainRate:4
CircleSize:3.5
OverallDifficulty:3
ApproachRate:4
SliderMultiplier:1
SliderTickRate:1

[Events]
//Background and Video events
0,0,"elsie-kami-nomi-zo-shiru-sekai-21985491-1920-1080.jpg",0,0
//Break Periods
//Storyboard Layer 0 (Background)
//Storyboard Layer 1 (Fail)
//Storyboard Layer 2 (Pass)
//Storyboard Layer 3 (Foreground)
//Storyboard Sound Samples

[TimingPoints]
36,375,4,2,1,50,1,0
13536,-100,4,2,1,70,0,0
45786,-100,4,3,0,70,0,0
46536,-100,4,2,1,70,0,0
58161,-100,4,3,0,90,0,0
58536,-100,4,2,1,90,0,1
88348,-100,4,2,1,90,0,0
89286,-100,4,2,1,70,0,0
90036,-100,4,2,1,60,0,0
90786,-100,4,2,1,50,0,0
91536,-100,4,2,1,40,0,0
92286,-100,4,2,1,30,0,0
93036,-100,4,2,1,20,0,0

[Colours]
Combo1 : 210,204,83
Combo2 : 64,198,64
Combo3 : 120,109,216
Combo4 : 209,84,97

[HitObjects]
195,298,1536,6,0,P|208:250|244:216,1,100,2|0,0:0|0:0,0:0:0:0:
281,183,2098,2,0,P|332:196|379:182,2,100
233,167,3036,1,2,0:0:0:0:
181,81,3411,2,0,P|144:119|132:167,1,100
94,255,4161,1,0,0:0:0:0:
169,320,4536,6,0,L|323:344,1,150,2|0,0:0|0:0,0:0:0:0:
366,352,5286,1,0,0:0:0:0:
482,189,6036,2,0,L|459:78,1,100,2|0,0:0|0:0,0:0:0:0:
363,71,6786,2,0,L|383:168,1,100
332,255,7536,6,0,L|229:303,1,100,2|0,0:0|0:0,0:0:0:0:
200,325,8098,2,0,P|182:278|182:228,1,100
136,140,8848,2,0,P|209:133|267:179,1,150,2|0,0:0|0:0,0:0:0:0:
332,255,9786,2,0,P|361:210|365:161,1,100
256,192,10536,12,4,12036,0:0:0:0:
144,236,13536,6,0,L|137:339,1,100,4|8,0:0|0:0,0:0:0:0:
233,307,14286,2,0,P|286:311|330:290,1,100,0|8,0:0|0:0,0:0:0:0:
360,255,14848,1,0,0:0:0:0:
338,107,15411,2,0,P|385:104|443:132,2,100,8|0|8,0:0|0:0|0:0,0:0:0:0:
244,71,16536,6,0,L|228:180,1,100,0|8,0:0|0:0,0:0:0:0:
140,215,17286,2,0,L|126:162,1,50,2|0,0:0|0:0,0:0:0:0:
143,68,17848,2,0,P|71:84|30:144,1,150,2|8,0:0|0:0,0:0:0:0:
45,243,18786,1,0,0:0:0:0:
140,215,19161,2,0,P|193:212|237:233,1,100,8|4,0:0|0:0,0:0:0:0:
353,139,20098,5,4,0:0:0:0:
487,287,20848,2,0,L|500:177,2,100,4|0|2,0:0|0:0|0:0,0:0:0:0:
424,365,21973,1,2,0:0:0:0:
334,245,22536,6,0,L|225:231,1,100,4|8,0:0|0:0,0:0:0:0:
135,246,23286,2,0,P|140:196|169:156,1,100,0|8,0:0|0:0,0:0:0:0:
215,135,23848,1,0,0:0:0:0:
337,48,24411,2,0,L|438:31,2,100,8|0|8,0:0|0:0|0:0,0:0:0:0:
320,146,25536,6,0,P|337:192|375:223,1,100,0|8,0:0|0:0,0:0:0:0:
475,221,26286,2,0,L|445:321,1,100,0|8,0:0|0:0,0:0:0:0:
354,356,27036,2,0,P|305:366|257:356,1,100,0|8,0:0|0:0,0:0:0:0:
215,329,27598,1,0,0:0:0:0:
149,194,28161,1,8,0:0:0:0:
54,162,28536,6,0,P|49:211|69:256,2,100,0|8|0,0:0|0:0|0:0,0:0:0:0:
129,95,29661,2,0,L|138:46,1,50,8|0,0:0|0:0,0:0:0:0:
277,103,30411,2,0,P|326:108|371:88,2,100,8|0|8,0:0|0:0|0:0,0:0:0:0:
238,195,31536,6,0,L|264:291,1,100,0|8,0:0|0:0,0:0:0:0:
357,327,32286,1,0,0:0:0:0:
444,278,32661,2,0,L|459:336,2,50,8|0|0,0:0|0:0|0:0,0:0:0:0:
475,183,33411,2,0,L|449:87,1,100,8|0,0:0|0:0,0:0:0:0:
436,38,33973,1,8,0:3:0:0:
300,101,34536,6,0,P|254:121|205:116,1,100,4|8,0:0|0:0,0:0:0:0:
118,67,35286,2,0,L|103:175,1,100,0|8,0:0|0:0,0:0:0:0:
98,215,35848,1,0,0:0:0:0:
123,362,36411,2,0,P|76:365|18:337,2,100,8|0|8,0:0|0:0|0:0,0:0:0:0:
217,328,37536,6,0,L|316:340,1,100,0|8,0:0|0:0,0:0:0:0:
410,373,38286,2,0,P|414:323|394:278,1,100,0|8,0:0|0:0,0:0:0:0:
301,241,39036,2,0,P|296:191|316:146,1,100,0|8,0:0|0:0,0:0:0:0:
343,104,39598,1,0,0:0:0:0:
213,28,40161,1,8,0:0:0:0:
120,67,40536,6,0,L|137:165,1,100,0|8,0:0|0:0,0:0:0:0:
199,243,41286,2,0,P|153:264|104:261,1,100,0|8,0:0|0:0,0:0:0:0:
74,300,41848,1,0,0:0:0:0:
210,361,42411,2,0,L|314:370,1,100,8|0,0:0|0:0,0:0:0:0:
388,307,43161,1,8,0:0:0:0:
408,209,43536,6,0,P|452:231|480:271,2,100,0|8|0,0:0|0:0|0:0,0:0:0:0:
372,115,44661,2,0,L|394:51,2,50,8|0|0,0:0|0:0|0:0,0:0:0:0:
309,193,45411,2,0,P|267:219|218:222,1,100,8|0,0:0|0:0,0:0:0:0:
175,196,45973,1,8,0:0:0:0:
24,195,46536,6,0,L|49:98,1,100,4|8,0:0|0:0,0:0:0:0:
150,99,47286,2,0,L|175:196,1,100,0|8,0:0|0:0,0:0:0:0:
261,247,48036,1,0,0:0:0:0:
329,319,48411,2,0,L|345:376,2,50,8|0|0,0:0|0:0|0:0,0:0:0:0:
357,223,49161,1,8,0:0:0:0:
428,152,49536,6,0,P|386:126|337:123,1,100,0|8,0:0|0:0,0:0:0:0:
267,195,50286,2,0,P|241:153|238:104,1,100,0|8,0:0|0:0,0:0:0:0:
162,37,51036,1,0,0:0:0:0:
66,66,51411,2,0,L|59:15,2,50,8|0|0,0:0|0:0|0:0,0:0:0:0:
82,164,52161,1,8,0:0:0:0:
23,244,52536,6,0,P|117:257|180:172,1,200,2|2,0:0|0:0,0:0:0:0:
229,96,53661,1,0,0:0:0:0:
329,96,54036,2,0,P|417:132|433:227,1,200,2|2,0:0|0:0,0:0:0:0:
337,198,55161,1,0,0:0:0:0:
262,264,55536,6,0,L|266:313,2,50,8|0|8,0:0|0:0|0:0,0:0:0:0:
247,164,56286,2,0,P|201:184|170:223,1,100,8|8,0:0|0:0,0:0:0:0:
135,257,56848,2,0,L|97:162,1,100,4|4,0:0|0:0,0:0:0:0:
325,60,58161,1,8,0:0:0:0:
302,157,58536,6,0,P|353:158|400:124,1,100,4|8,0:0|0:0,0:0:0:0:
423,93,59098,2,0,L|465:244,1,150,0|8,0:0|0:0,0:0:0:0:
424,330,60036,1,0,0:0:0:0:
324,318,60411,2,0,P|274:330|237:375,2,100,8|0|8,0:0|0:0|0:0,0:0:0:0:
424,330,61536,6,0,L|450:233,1,100,0|8,0:0|0:0,0:0:0:0:
500,146,62286,1,0,0:0:0:0:
426,78,62661,2,0,L|381:101,1,50,8|0,0:0|0:0,0:0:0:0:
265,196,63411,2,0,P|237:144|232:95,2,100,8|0|8,0:0|0:0|0:0,0:0:0:0:
359,228,64536,6,0,P|302:290|225:287,1,150,2|2,0:0|0:0,0:0:0:0:
160,353,65473,2,0,L|139:251,1,100,0|2,0:0|0:0,0:0:0:0:
56,199,66223,2,0,L|96:165,1,50
128,72,66786,2,0,L|236:60,1,100,2|8,0:0|0:0,0:0:0:0:
301,128,67536,6,0,P|364:121|401:96,2,100,0|8|0,0:0|0:0|0:0,0:0:0:0:
245,211,68661,2,0,L|259:271,1,50,8|0,0:0|0:0,0:0:0:0:
392,322,69411,2,0,L|417:224,1,100,8|0,0:0|0:0,0:0:0:0:
446,129,70161,1,8,0:0:0:0:
469,31,70536,6,0,P|419:32|376:56,1,100,4|8,0:0|0:0,0:0:0:0:
340,91,71098,2,0,P|268:110|196:91,1,150,0|8,0:0|0:0,0:0:0:0:
105,49,72036,1,0,0:0:0:0:
42,126,72411,2,0,P|34:172|54:227,2,100,8|0|8,0:0|0:0|0:0,0:0:0:0:
133,167,73536,5,0,0:0:0:0:
223,209,73911,2,0,L|279:195,2,50,8|0|0,0:0|0:0|0:0,0:0:0:0:
140,266,74661,1,8,0:0:0:0:
85,349,75036,2,0,P|131:365|180:357,1,100,0|8,0:0|0:0,0:0:0:0:
266,305,75786,2,0,P|314:297|361:313,1,100,0|8,0:0|0:0,0:0:0:0:
445,369,76536,6,0,P|461:296|408:224,1,150,2|2,0:0|0:0,0:0:0:0:
347,169,77473,1,0,0:0:0:0:
269,105,77848,2,0,L|367:57,1,100,2|0,0:0|0:0,0:0:0:0:
403,37,78411,1,0,0:0:0:0:
464,115,78786,2,0,L|512:144,2,50,8|0|8,0:0|0:0|0:0,0:0:0:0:
432,210,79536,6,0,P|396:251|346:264,1,100,4|8,0:0|0:0,0:0:0:0:
276,327,80286,2,0,L|250:226,1,100,0|8,0:0|0:0,0:0:0:0:
238,181,80848,1,0,0:0:0:0:
150,59,81411,2,0,P|204:35|253:34,2,100,8|0|8,0:0|0:0|0:0,0:0:0:0:
85,135,82536,6,0,P|102:181|104:240,1,100,0|8,0:0|0:0,0:0:0:0:
99,281,83098,1,0,0:0:0:0:
228,357,83661,1,8,0:0:0:0:
272,334,83848,2,0,P|323:316|373:330,1,100
415,338,84411,2,0,L|436:279,1,50,8|0,0:0|0:0,0:0:0:0:
466,196,84973,1,0,0:0:0:0:
417,183,85161,6,0,P|400:137|398:78,1,100,8|4,0:0|0:0,0:0:0:0:
357,56,85723,2,0,L|359:3,2,50,0|0|4,0:0|0:0|0:0,0:0:0:0:
314,146,86473,2,0,P|262:163|212:149,1,100,0|4,0:0|0:0,0:0:0:0:
165,238,87223,1,4,0:0:0:0:
277,337,87786,2,0,P|305:294|313:236,1,100,4|0,0:0|0:0,0:0:0:0:
317,197,88348,1,4,0:0:0:0:
256,192,88536,12,0,93036,0:0:0:0:
