osu file format v14

[General]
AudioFilename: Kami Nomi zo Shiri-tai - Ai no Yokan (TV Size).mp3
AudioLeadIn: 500
PreviewTime: 57786
Countdown: 0
SampleSet: Soft
StackLeniency: 0.7
Mode: 0
LetterboxInBreaks: 0
WidescreenStoryboard: 0

[Editor]
DistanceSpacing: 1.4
BeatDivisor: 4
GridSize: 4
TimelineZoom: 1.4

[Metadata]
Title:Ai no Yokan (TV EDIT)
TitleUnicode:アイノヨカン(TV EDIT)
Artist:Kami Nomi zo Shiri-tai
ArtistUnicode:神のみぞ知り隊
Creator:Doyak
Version:Light Insane
Source:神のみぞ知るセカイⅡ
Tags:Kami Nomi zo Shiru Sekai II The World God Only Knows 2 Itou Kanae Hayami Saori Koshimizu Ami Asumi Kana Toyosaki Aki ending ED Premonition Of Love guineaQ Enon
BeatmapID:747652
BeatmapSetID:336863

[Difficulty]
HPDrainRate:6
CircleSize:4
OverallDifficulty:6.5
ApproachRate:8
SliderMultiplier:1.4
SliderTickRate:1

[Events]
//Background and Video events
0,0,"elsie-kami-nomi-zo-shiru-sekai-21985491-1920-1080.jpg",0,0
//Break Periods
//Storyboard Layer 0 (Background)
//Storyboard Layer 1 (Fail)
//Storyboard Layer 2 (Pass)
//Storyboard Layer 3 (Foreground)
//Storyboard Sound Samples

[TimingPoints]
36,375,4,2,1,35,1,0
973,-117.647058823529,4,2,1,35,0,0
12786,-117.647058823529,4,2,1,70,0,0
13536,-100,4,2,1,70,0,0
45598,-100,4,3,0,70,0,0
46348,-100,4,2,1,70,0,0
57786,-86.9565217391304,4,3,0,90,0,0
58348,-86.9565217391304,4,2,1,90,0,0
58536,-86.9565217391304,4,2,1,90,0,1
88348,-86.9565217391304,4,2,1,90,0,0
89286,-86.9565217391304,4,2,1,70,0,0
90036,-86.9565217391304,4,2,1,60,0,0
90786,-86.9565217391304,4,2,1,50,0,0
91536,-86.9565217391304,4,2,1,40,0,0
92286,-86.9565217391304,4,2,1,30,0,0
93036,-86.9565217391304,4,2,1,20,0,0

[Colours]
Combo1 : 210,204,83
Combo2 : 64,198,64
Combo3 : 120,109,216
Combo4 : 209,84,97

[HitObjects]
210,146,973,6,0,L|191:207,1,59.5000011348725
149,287,1348,2,0,L|166:343,2,59.5000011348725,0|2|0,0:0|0:0|0:0,0:0:0:0:
94,215,1911,1,0,0:0:0:0:
94,215,2098,1,0,0:0:0:0:
196,121,2473,2,0,L|178:63,2,59.5000011348725
271,179,3036,1,2,0:0:0:0:
366,178,3223,1,0,0:0:0:0:
449,131,3411,2,0,P|469:109|477:81,1,59.5000011348725
394,33,3786,2,0,P|373:54|365:82,1,59.5000011348725
366,178,4161,2,0,L|357:240,1,59.5000011348725
254,326,4536,6,0,P|193:316|154:273,1,119.000002269745,2|0,0:0|0:0,0:0:0:0:
60,279,5098,1,0,0:0:0:0:
60,279,5286,2,0,L|85:157,1,119.000002269745
277,87,6036,1,2,0:0:0:0:
362,129,6411,1,0,0:0:0:0:
441,269,6786,1,0,0:0:0:0:
444,176,7161,1,0,0:0:0:0:
362,129,7536,6,0,L|337:193,1,59.5000011348725,2|0,0:0|0:0,0:0:0:0:
310,262,7911,1,0,0:0:0:0:
173,324,8098,2,0,P|149:274|156:207,1,119.000002269745
339,60,8848,2,0,P|363:110|356:177,1,119.000002269745,2|0,0:0|0:0,0:0:0:0:
336,321,9411,1,0,0:0:0:0:
336,321,9786,2,0,L|273:311,1,59.5000011348725
176,235,10161,2,0,L|239:225,1,59.5000011348725
256,132,10536,5,2,0:0:0:0:
256,192,10629,12,0,12786,0:0:0:0:
412,327,13536,6,0,P|462:287|464:207,1,140,4|8,0:0|0:0,0:0:0:0:
284,170,14286,2,0,L|270:248,1,70
299,346,14661,1,8,0:0:0:0:
389,245,14848,2,0,P|350:188|275:172,1,140
232,306,15411,2,0,P|169:341|99:332,1,140,8|0,0:0|0:0,0:0:0:0:
39,260,15973,2,0,L|56:180,1,70,0|8,0:0|0:0,0:0:0:0:
170,239,16348,6,0,P|238:197|255:140,1,140
236,45,16911,1,8,0:0:0:0:
497,118,17286,2,0,L|481:194,1,70
444,277,17661,1,8,0:0:0:0:
317,146,17848,2,0,P|250:143|180:167,1,140
87,192,18411,2,0,L|99:108,1,70,8|0,0:0|0:0,0:0:0:0:
287,271,18973,1,0,0:0:0:0:
333,355,19160,1,8,0:0:0:0:
351,196,19348,6,0,P|286:171|222:195,1,140,4|0,0:0|0:0,0:0:0:0:
181,283,19911,1,0,0:0:0:0:
356,318,20098,2,0,P|421:297|465:238,1,140,4|0,0:0|0:0,0:0:0:0:
461,144,20661,1,0,0:0:0:0:
385,81,20848,1,4,0:0:0:0:
178,117,21223,2,0,L|111:136,1,70
127,39,21598,1,2,0:0:0:0:
87,277,21973,2,0,P|145:313|217:306,1,140,2|0,0:0|0:0,0:0:0:0:
283,236,22536,6,0,P|351:230|410:266,1,140,4|8,0:0|0:0,0:0:0:0:
468,344,23098,1,0,0:0:0:0:
503,195,23286,2,0,L|510:121,2,70,0|0|8,0:0|0:0|0:0,0:0:0:0:
443,338,23848,1,0,0:0:0:0:
443,338,24223,1,0,0:0:0:0:
344,343,24411,2,0,L|269:334,1,70,8|0,0:0|0:0,0:0:0:0:
185,292,24786,2,0,P|180:257|189:223,1,70
247,144,25161,1,8,0:0:0:0:
308,340,25536,6,0,B|349:326|349:326|398:352|452:335,1,140,0|8,0:0|0:0,0:0:0:0:
383,171,26286,2,0,B|342:157|342:157|293:183|239:166,1,140,0|8,0:0|0:0,0:0:0:0:
75,76,27036,2,0,L|82:151,1,70
177,166,27411,2,0,L|170:241,1,70,8|0,0:0|0:0,0:0:0:0:
120,319,27786,1,0,0:0:0:0:
120,319,27879,1,0,0:0:0:0:
120,319,27973,2,0,P|145:340|191:345,1,70,0|8,0:0|0:0,0:0:0:0:
408,176,28536,6,0,P|423:109|380:44,1,140,0|8,0:0|0:0,0:0:0:0:
293,25,29098,1,0,0:0:0:0:
207,139,29286,2,0,P|198:172|203:209,1,70
274,274,29661,1,8,0:0:0:0:
335,123,29848,1,0,0:0:0:0:
335,123,30223,1,0,0:0:0:0:
257,62,30411,2,0,L|179:62,1,70,8|0,0:0|0:0,0:0:0:0:
109,185,30786,2,0,L|179:185,1,70
245,257,31161,1,8,0:0:0:0:
438,224,31536,6,0,P|441:295|412:368,2,140,0|8|0,0:0|0:0|0:0,0:0:0:0:
307,66,32661,2,0,P|272:70|242:87,1,70,8|0,0:0|0:0,0:0:0:0:
221,195,33036,2,0,P|255:190|286:173,1,70
125,173,33411,1,0,0:0:0:0:
162,273,33598,1,8,0:0:0:0:
162,273,33692,1,0,0:0:0:0:
162,273,33786,1,0,0:0:0:0:
253,350,33973,2,0,L|269:210,1,140,8|0,0:3|0:0,0:0:0:0:
342,145,34536,6,0,P|275:113|207:135,1,140,4|8,0:0|0:0,0:0:0:0:
98,288,35286,2,0,P|134:289|172:301,1,70
253,350,35661,1,8,0:0:0:0:
145,204,35848,1,0,0:0:0:0:
145,204,36223,1,0,0:0:0:0:
240,226,36411,2,0,P|243:192|232:159,1,70,8|0,0:0|0:0,0:0:0:0:
180,75,36786,2,0,L|111:75,1,70
60,159,37161,1,8,0:0:0:0:
254,255,37536,6,0,B|295:269|295:269|344:243|398:260,1,140,0|8,0:0|0:0,0:0:0:0:
452,58,38286,2,0,B|411:72|411:72|362:46|308:63,1,140,0|8,0:0|0:0,0:0:0:0:
217,272,39036,2,0,L|144:272,1,70
82,198,39411,2,0,L|99:126,1,70,8|0,0:0|0:0,0:0:0:0:
169,62,39786,1,0,0:0:0:0:
169,62,39879,1,0,0:0:0:0:
169,62,39973,2,0,P|206:58|248:29,1,70,0|8,0:0|0:0,0:0:0:0:
410,191,40536,6,0,P|448:250|509:283,2,140,0|8|0,0:0|0:0|0:0,0:0:0:0:
348,116,41473,2,0,P|325:142|314:175,1,70,0|8,0:0|0:0,0:0:0:0:
284,348,41848,1,0,0:0:0:0:
284,348,42223,1,0,0:0:0:0:
190,319,42411,2,0,P|155:312|121:320,1,70,8|0,0:0|0:0,0:0:0:0:
26,344,42786,2,0,L|33:270,1,70
41,176,43161,1,8,0:0:0:0:
226,291,43536,6,0,P|312:301|363:255,1,140,0|8,0:0|0:0,0:0:0:0:
370,175,44098,1,0,0:0:0:0:
279,136,44286,2,0,P|271:169|277:204,2,70,0|0|8,0:0|0:0|0:0,0:0:0:0:
315,44,44848,1,0,0:0:0:0:
218,60,45036,2,0,L|152:87,1,70
78,150,45411,1,8,0:0:0:0:
60,53,45598,2,8,L|67:14,2,35,8|0|0,0:0|0:0|0:0,0:0:0:0:
19,231,45973,2,0,P|93:249|152:215,1,140,8|0,0:0|0:0,0:0:0:0:
215,151,46536,6,0,P|244:212|225:278,1,140,4|8,0:0|0:0,0:0:0:0:
405,354,47286,2,0,P|465:359|455:299,1,140,0|8,0:0|0:0,0:0:0:0:
325,151,48036,2,0,B|312:93|336:49|336:49|378:30,1,140,0|8,0:0|0:0,0:0:0:0:
455,81,48598,1,0,0:0:0:0:
420,172,48786,2,0,L|338:187,1,70
269,259,49161,2,0,L|351:274,1,70,8|0,0:0|0:0,0:0:0:0:
209,334,49536,6,0,P|173:275|185:207,1,140,0|8,0:0|0:0,0:0:0:0:
303,50,50286,2,0,P|338:108|326:176,1,140,0|8,0:0|0:0,0:0:0:0:
209,334,51036,2,0,B|168:348|168:348|119:322|65:339,1,140,0|8,0:0|0:0,0:0:0:0:
24,211,51598,1,0,0:0:0:0:
24,211,51786,2,0,B|68:196|117:222|117:222|158:208,1,140,0|8,0:0|0:0,0:0:0:0:
365,112,52536,6,0,P|397:98|433:99,2,70,2|0|0,0:0|0:0|0:0,0:0:0:0:
291,176,53098,1,0,0:0:0:0:
336,301,53286,2,0,P|350:333|349:369,2,70,2|0|0,0:0|0:0|0:0,0:0:0:0:
272,227,53848,1,0,0:0:0:0:
154,270,54036,6,0,L|78:284,1,70,2|0,0:0|0:0,0:0:0:0:
37,196,54411,2,0,L|105:183,1,70
193,91,54786,2,0,P|203:57|226:31,1,70,2|0,0:0|0:0,0:0:0:0:
320,60,55161,2,0,P|324:94|313:127,1,70
258,248,55536,5,8,0:0:0:0:
143,299,55723,1,0,0:0:0:0:
157,173,55911,1,8,0:0:0:0:
317,349,56286,2,0,P|366:301|379:231,1,140,8|8,0:0|0:0,0:0:0:0:
371,133,56848,1,4,0:0:0:0:
94,274,57223,1,4,0:0:0:0:
51,54,57786,2,0,L|42:7,2,40.2500007677078,4|0|0,0:0|0:0|0:0,0:0:0:0:
4,176,58161,1,0,0:0:0:0:
4,176,58348,6,0,P|84:181|154:132,1,161.000003070831,4|0,0:0|0:0,0:0:0:0:
233,62,58911,1,8,0:0:0:0:
233,62,59098,2,0,B|251:182|251:182|288:209,1,161.000003070831
371,133,59661,1,8,0:0:0:0:
429,258,59848,2,0,P|490:205|506:121,1,161.000003070831
296,101,60411,2,0,L|369:132,1,80.5000015354157,8|0,0:0|0:0,0:0:0:0:
334,257,60786,1,0,0:0:0:0:
226,227,60973,1,0,0:0:0:0:
134,294,61161,2,0,P|115:258|112:218,1,80.5000015354157,8|0,0:0|0:0,0:0:0:0:
75,90,61536,6,0,P|154:89|218:135,1,161.000003070831,0|8,0:0|0:0,0:0:0:0:
255,292,62098,1,0,0:0:0:0:
255,292,62286,2,0,L|218:135,1,161.000003070831,0|8,0:0|0:0,0:0:0:0:
328,159,62848,2,0,P|394:178|349:229,1,161.000003070831
255,292,63411,2,0,P|320:340|402:331,2,161.000003070831,8|0|8,0:0|0:0|0:0,0:0:0:0:
354,42,64536,6,0,L|344:127,1,80.5000015354157
237,86,64911,1,8,0:0:0:0:
312,230,65098,2,0,P|392:224|449:165,1,161.000003070831
307,150,65661,1,8,0:0:0:0:
307,150,65848,2,0,L|317:317,1,161.000003070831
412,371,66411,1,8,0:0:0:0:
462,142,66786,2,0,P|422:134|383:141,1,80.5000015354157
311,230,67161,2,0,P|272:237|233:230,1,80.5000015354157,8|0,0:0|0:0,0:0:0:0:
134,174,67536,6,0,P|122:253|170:320,2,161.000003070831,0|8|0,0:0|0:0|0:0,0:0:0:0:
199,83,68473,1,0,0:0:0:0:
86,70,68661,1,8,0:0:0:0:
44,245,68848,2,0,B|93:269|150:228|201:248,1,161.000003070831,2|0,0:0|0:0,0:0:0:0:
327,287,69411,1,2,0:0:0:0:
350,259,69504,1,0,0:0:0:0:
359,223,69598,1,0,0:0:0:0:
358,186,69692,1,0,0:0:0:0:
347,151,69786,2,0,L|389:144,3,40.2500007677078,2|0|0|0,0:0|0:0|0:0|0:0,0:0:0:0:
420,156,70161,2,0,P|456:146|493:115,1,80.5000015354157,2|0,0:0|0:0,0:0:0:0:
467,242,70536,6,0,P|474:281|466:320,1,80.5000015354157,4|0,0:0|0:0,0:0:0:0:
314,339,70911,1,8,0:0:0:0:
314,339,71098,2,0,B|193:327|193:327|178:277,1,161.000003070831
212,131,71661,1,8,0:0:0:0:
212,131,71848,2,0,L|181:298,1,161.000003070831
115,380,72411,1,8,0:0:0:0:
8,345,72598,1,0,0:0:0:0:
8,232,72786,2,0,P|43:213|83:208,1,80.5000015354157
181,289,73161,2,0,P|216:307|256:312,1,80.5000015354157,8|0,0:0|0:0,0:0:0:0:
384,375,73536,6,0,L|413:216,1,161.000003070831,0|8,0:0|0:0,0:0:0:0:
502,149,74098,1,0,0:0:0:0:
502,149,74286,2,0,P|434:104|353:119,1,161.000003070831,0|8,0:0|0:0,0:0:0:0:
249,139,74848,1,0,0:0:0:0:
176,53,75036,1,0,0:0:0:0:
117,271,75411,1,8,0:0:0:0:
335,330,75786,1,0,0:0:0:0:
394,112,76161,1,8,0:0:0:0:
186,233,76536,6,0,P|148:245|116:269,1,80.5000015354157,2|0,0:0|0:0,0:0:0:0:
202,345,76911,1,0,0:0:0:0:
263,219,77098,2,0,B|264:188|234:160|202:153|202:153|218:87,1,161.000003070831,2|0,0:0|0:0,0:0:0:0:
418,192,77848,2,0,B|433:254|433:254|401:261|371:289|372:320,1,161.000003070831,2|0,0:0|0:0,0:0:0:0:
272,265,78411,1,2,0:0:0:0:
272,265,78786,2,0,L|192:265,1,80.5000015354157,8|0,0:0|0:0,0:0:0:0:
98,200,79161,2,0,P|91:160|98:120,1,80.5000015354157,8|0,0:0|0:0,0:0:0:0:
253,72,79536,6,0,P|329:50|406:71,1,161.000003070831,4|8,0:0|0:0,0:0:0:0:
463,230,80098,2,0,P|386:251|309:230,1,161.000003070831
211,173,80661,1,8,0:0:0:0:
211,173,80848,2,0,L|233:344,1,161.000003070831
339,369,81411,2,0,P|378:375|418:368,1,80.5000015354157,8|0,0:0|0:0,0:0:0:0:
509,301,81786,2,0,L|498:221,1,80.5000015354157
407,72,82161,1,8,0:0:0:0:
407,72,82348,6,0,B|352:65|352:65|312:104|254:89,1,161.000003070831
153,141,82911,1,8,0:0:0:0:
153,141,83098,2,0,B|168:173|190:189|218:198|218:198|205:269,1,161.000003070831
114,336,83661,1,8,0:0:0:0:
114,336,83848,2,0,P|179:379|268:361,1,161.000003070831
427,290,84411,2,0,L|346:297,1,80.5000015354157,8|0,0:0|0:0,0:0:0:0:
346,296,84973,1,0,0:0:0:0:
276,207,85161,1,0,0:0:0:0:
295,96,85348,6,0,P|355:62|359:130,1,161.000003070831,4|0,0:0|0:3,0:3:0:0:
276,207,85911,1,0,0:0:0:0:
194,285,86098,2,0,P|202:352|260:317,1,161.000003070831,4|0,0:0|0:3,0:3:0:0:
276,207,86661,2,0,P|243:183|205:172,1,80.5000015354157,0|4,0:0|0:0,0:0:0:0:
6,277,87223,1,4,0:0:0:0:
65,180,87411,1,0,0:0:0:0:
78,146,87504,1,0,0:0:0:0:
91,112,87598,2,0,L|82:66,2,40.2500007677078,0|0|4,0:0|0:0|0:0,0:0:0:0:
202,94,87973,2,0,P|242:91|280:102,1,80.5000015354157
231,204,88348,1,4,0:0:0:0:
256,192,88442,12,0,93036,0:0:0:0:
