osu file format v9

[General]
AudioFilename: Ai no Yokan .mp3
AudioLeadIn: 3000
PreviewTime: 69764
Countdown: 0
SampleSet: Soft
StackLeniency: 0.7
Mode: 0
LetterboxInBreaks: 1

[Editor]
DistanceSpacing: 1.2
BeatDivisor: 4
GridSize: 8

[Metadata]
Title:Ai no Yokan
Artist:Kami Nomi zo Shiri-tai
Creator:Neptunus
Version:Hard
Source:Kami Nomi zo Shiru Sekai II
Tags:

[Difficulty]
HPDrainRate:5
CircleSize:4
OverallDifficulty:5
ApproachRate:7
SliderMultiplier:1.3
SliderTickRate:1

[Events]
//Background and Video events
0,0,"BG HD.jpg"
//Break Periods
2,13327,21427
2,104277,105427
2,163527,176864
//Storyboard Layer 0 (Background)
//Storyboard Layer 1 (Fail)
//Storyboard Layer 2 (Pass)
//Storyboard Layer 3 (Foreground)
//Storyboard Sound Samples
//Background Colour Transformations
3,100,0,0,0

[TimingPoints]
-173,375,4,2,1,60,1,0
764,-200,4,2,1,60,0,0
13327,-100,4,2,1,60,0,1
13328,-100,4,2,1,60,0,0
47077,-200,4,2,1,60,0,0
58327,-100,4,2,1,60,0,0
64327,-100,4,1,0,60,0,0
70139,-100,4,1,1,70,0,1
91327,-200,4,2,1,70,0,0
94327,-100,4,2,1,60,0,0
119077,-200,4,2,1,60,0,0
129952,-100,4,2,1,60,0,0
136327,-100,4,1,0,60,0,0
142139,-100,4,1,1,70,0,1
163327,-100,4,1,1,70,0,0
177764,-100,4,2,1,60,0,0
187327,-100,4,1,1,70,0,0
190139,-100,4,1,1,70,0,1
207483,-100,4,2,1,5,0,1
207577,-100,4,1,1,70,0,1
207858,-100,4,2,1,5,0,1
207952,-100,4,1,1,70,0,1
238139,-100,4,1,1,50,0,1
239264,-100,4,1,1,40,0,1
240389,-100,4,1,1,30,0,1
241514,-100,4,1,1,20,0,1
242264,-100,4,1,1,10,0,1
242827,-100,4,2,1,5,0,0

[Colours]
Combo1 : 255,166,32
Combo2 : 255,128,255
Combo3 : 111,221,0
Combo4 : 255,255,0

[HitObjects]
96,104,764,5,0
152,80,952,1,0
216,88,1139,1,2
224,216,1514,1,0
288,232,1702,1,0
352,216,1889,1,2
400,336,2264,1,0
456,296,2452,1,0
472,232,2639,1,2
440,104,3014,5,0
376,88,3202,1,2
376,88,3389,1,0
312,88,3577,1,2
312,88,3764,1,0
256,120,3952,1,2
256,120,4139,1,0
208,160,4327,2,0,B|152:184|80:160,1,130,2|2
152,304,5827,5,2
280,280,6202,1,2
392,208,6577,1,2
400,80,6952,1,2
400,80,7327,6,0,B|360:56|336:64,1,65,2|0
296,112,7889,2,0,B|256:128|224:112,1,65,2|0
272,240,8639,2,0,B|200:232|168:256,1,97.5,0|2
112,288,9577,2,0,B|124:318,3,32.5,2|0|0|0
160,336,10327,6,0,B|288:360|416:312,1,260,2|0
256,88,22327,6,0,B|192:72|128:88,1,130,0|4
96,160,22889,1,0
96,160,23077,2,0,B|144:192|160:208,2,65,0|0|4
72,232,23639,2,0,B|96:296|168:320,1,130
200,248,24202,1,4
200,248,24389,2,0,B|248:248|272:280,2,65
232,176,24952,1,4
352,72,25327,6,0,B|288:64|272:80|216:72,1,130,0|4
176,136,25889,1,0
176,136,26077,2,0,B|126:143|110:127|46:135,1,130,0|4
72,208,26639,1,0
112,272,26827,2,0,B|168:304|256:272,3,130,0|4|0|4
352,176,28327,6,0,B|416:144|432:72,1,130,0|4
352,72,28889,1,0
280,104,29077,2,0,B|208:128|192:208,1,130,0|4
264,224,29639,2,0,B|280:328|136:368,1,195
136,288,30389,1,0
168,216,30577,2,0,B|112:216|88:208,1,65,0|0
136,136,30952,2,0,B|144:64|208:32,1,130,4|0
280,56,31514,1,0
280,56,31702,2,0,B|344:56,2,65,4|0|0
280,136,32264,2,0,B|312:184|336:192,1,65,0|4
400,208,32639,1,0
400,208,32827,6,0,B|400:280|336:328,1,130,0|4
296,264,33389,2,0,B|368:256|432:280,1,130,0|0
464,208,33952,1,4
464,208,34045,1,0
464,208,34139,1,0
464,128,34327,6,0,B|432:72|360:48,1,130,0|4
288,72,34889,2,0,B|256:72|224:80,1,65
272,144,35264,2,0,B|216:160|200:152,1,65,0|4
136,176,35639,2,0,B|160:240|232:264,1,130
304,256,36202,1,4
384,256,36389,1,0
416,328,36577,2,0,B|352:344|312:320|280:336,1,130,0|4
128,320,37327,5,0
88,256,37514,1,0
104,184,37702,2,0,B|120:120|192:88,2,130,4|0|4
176,208,38639,1,0
176,208,38827,2,0,B|216:248|240:264,1,65,0|0
288,296,39202,1,4
288,296,39389,2,0,B|352:312|416:288,1,130
456,216,39952,2,0,B|448:176|424:152,1,65,4|0
368,200,40327,5,0
296,168,40514,1,0
344,104,40702,2,0,B|288:64|216:56,1,130,4|0
152,80,41264,1,0
208,136,41452,1,4
136,152,41639,2,0,B|80:184|56:256,1,130
120,296,42202,2,0,B|160:312|184:304,1,65,4|0
160,232,42577,2,0,B|200:224|232:240,1,65
264,304,42952,2,0,B|320:320|352:304|400:320,2,130,4|0|4
264,304,44077,2,0,B|256:232|216:200|208:160,1,130,0|4
192,112,44639,5,0
248,56,44827,1,4
320,72,45014,1,0
320,152,45202,1,4
288,224,45389,1,0
280,304,45577,1,4
280,304,45764,2,0,B|200:368|88:352,1,195,2|2
136,80,47077,5,2
176,88,47264,1,0
216,72,47452,1,2
256,80,47639,1,0
280,112,47827,2,0,B|336:160|400:168,1,130,2|10
288,280,49327,6,0,B|224:296,1,65,2|0
152,272,50077,2,0,B|208:232,1,65,2|0
280,216,50827,2,0,B|256:152|192:120,1,130,2|10
40,104,52327,5,2
40,104,52702,1,2
120,96,53077,1,2
120,96,53452,1,2
176,152,53827,2,0,B|208:176|248:176,3,65,2|2|10|2
176,152,55327,6,0,B|208:96|272:64,1,130,2|2
368,128,56639,1,0
368,128,56827,2,0,B|392:200,1,65,2|10
376,224,57389,2,0,B|360:288|336:320,1,97.5,0|10
184,304,58327,6,0,B|136:256|112:192,1,130,0|4
224,88,59077,2,0,B|272:136|296:200,1,130,0|4
184,304,59827,2,0,B|248:336|320:328,1,130,0|4
384,312,60389,1,0
440,264,60577,1,0
440,184,60764,1,0
400,120,60952,1,4
400,120,61139,1,0
400,120,61327,6,0,B|336:160|264:144,1,130,0|4
120,160,62077,2,0,B|168:112|240:112,1,130,0|4
256,184,62639,1,0
208,248,62827,2,0,B|168:296|176:312,1,65
256,304,63202,2,0,B|288:336|320:344,1,65,4|0
360,280,63577,2,0,B|392:272|416:248,1,65
432,176,63952,1,4
200,88,64327,6,0,B|264:96|320:72|352:80,1,130,0|4
360,152,64889,1,0
320,216,65077,1,0
240,216,65264,1,0
280,152,65452,1,0
360,152,65639,1,0
320,216,65827,6,0,B|336:280|392:328,1,130,0|4
456,288,66389,1,0
456,208,66577,1,0
392,168,66764,1,0
336,224,66952,1,0
368,296,67139,1,0
368,296,67327,6,2,B|304:320|240:320,1,130
168,288,67889,1,0
104,240,68077,2,2,B|80:168|120:112,1,130
192,96,68639,1,2
408,88,69014,1,2
152,272,69764,5,0
128,200,69952,1,0
208,216,70139,2,2,B|272:216|336:176,1,130
320,104,70702,1,8
248,88,70889,2,2,B|216:160|264:232,1,130
312,256,71452,1,8
392,272,71639,1,0
336,328,71827,1,0
256,328,72014,6,0,B|200:320|176:328,1,65,0|8
168,248,72389,1,0
112,192,72577,1,8
48,232,72764,1,0
104,288,72952,1,8
168,248,73139,1,0
112,192,73327,6,2,B|64:136|80:64,1,130
152,104,73889,1,8
192,176,74077,2,2,B|240:120|224:48,1,130
304,64,74639,1,0
400,280,75202,6,2,B|336:304|272:296,2,130,2|2|2
440,216,76139,1,0
432,136,76327,2,0,B|400:104|376:88,1,65
352,168,76702,1,8
352,168,76889,2,2,B|296:208|224:208,1,130
248,128,77452,1,8
216,56,77639,2,2,B|152:64|104:120,1,130
72,192,78202,1,8
112,256,78389,1,0
192,272,78577,5,8
224,344,78764,1,0
304,328,78952,1,8
272,256,79139,1,0
192,272,79327,2,2,B|176:208|208:144,1,130
264,88,79889,2,0,B|304:72,2,32.5
304,152,80264,1,0
376,176,80452,2,0,B|416:192,2,32.5
360,248,80827,5,0
312,312,81014,1,0
232,304,81202,1,0
152,296,81389,2,0,B|96:320,2,32.5
136,216,81764,5,0
216,216,81952,1,0
296,232,82139,2,2,B|352:192|384:128,1,130
328,80,82702,1,8
248,72,82889,2,2,B|256:144|320:176,1,130
392,208,83452,1,8
400,288,83639,1,0
328,312,83827,1,0
248,328,84014,5,0
248,248,84202,1,8
176,216,84389,1,0
104,192,84577,2,0,B|40:168,1,65,8|0
104,192,84952,2,0,B|104:264,1,65,8|0
104,192,85327,6,2,B|108:129|172:81,1,130
208,152,85889,1,8
248,224,86077,2,2,B|312:208|352:152,1,130
216,64,86827,5,2
386,221,87202,1,2
165,290,87577,1,2
165,290,87952,2,2,B|128:248|128:216|96:168,1,130
112,96,88514,2,0,B|160:56|184:56,1,65
248,64,88889,2,2,B|320:64|384:96,1,130
400,160,89452,1,8
400,160,89639,2,2,B|392:232|352:288,1,130
356,281,90202,1,8
200,296,90577,6,0,B|160:320|136:336,1,65
200,296,90952,2,0,B|240:320|256:336,1,65
200,296,91327,2,0,B|160:224|200:144|152:40,1,260,2|0
256,192,94327,6,0,B|120:192,2,130,0|0|8
336,192,95264,1,0
408,152,95452,1,0
432,80,95639,2,0,B|368:48|296:80,2,130
408,152,96577,1,8
440,224,96764,1,0
400,288,96952,1,0
432,360,97139,1,0
400,288,97327,6,0,B|352:288|328:304|272:304,1,130
120,264,98077,2,0,B|160:256|200:272|256:256,1,130,8|0
176,120,98827,1,8
240,160,99014,1,0
288,96,99202,2,0,B|320:80|360:96,1,65
328,168,99577,2,0,B|360:176|392:160,2,65,0|0|8
168,256,100327,6,0,B|232:272|312:256,2,130,0|0|8
112,200,101264,1,0
152,128,101452,1,8
120,56,101639,2,0,B|192:48|232:64|264:48,2,130
72,120,102577,1,8
64,200,102764,1,0
72,280,102952,1,8
136,328,103139,1,0
216,336,103327,5,2
151,85,103702,1,2
400,154,104077,1,2
400,280,106327,6,0,B|336:288|264:288,1,130,0|4
200,152,107077,2,0,B|160:152|136:160,1,65
176,232,107452,1,4
176,232,107639,2,0,B|232:224|256:232|312:224,1,130
360,168,108202,1,4
336,96,108389,1,0
416,104,108577,1,0
336,96,108764,1,0
272,144,108952,1,4
208,104,109139,1,0
136,72,109327,6,0,B|104:136|112:208,2,130,0|4|0
232,192,110452,2,0,B|288:224|344:280,1,130,4|0
296,336,111014,2,0,B|272:368,2,32.5,0|0|4
336,272,111389,2,0,B|384:224|408:160,1,130
406,163,111952,1,4
406,163,112139,1,0
384,88,112327,6,0,B|320:64|256:88,2,130,0|4|0
344,152,113264,1,0
320,224,113452,1,4
264,280,113639,2,0,B|200:304|136:304,1,130
88,240,114202,2,0,B|72:192|64:176,1,65,4|0
144,176,114577,2,0,B|128:136|144:112,1,65
216,136,114952,2,0,B|264:88|336:72,1,130,4|0
408,80,115514,1,0
408,160,115702,2,0,B|408:296,2,130,4|0|0
328,168,116639,5,0
248,184,116827,1,4
328,168,117014,1,0
304,240,117202,1,0
232,256,117389,1,0
160,240,117577,1,4
88,216,117764,2,0,B|80:136|128:72|200:56,1,195,2|2
376,288,119077,6,0,B|320:280|288:296|240:288,1,130,2|2
136,96,120577,2,0,B|192:104|224:88|272:96,1,130,10|2
352,312,122077,2,0,B|344:256|360:224|352:176,1,130,10|2
160,72,123577,2,0,B|168:128|152:160|160:208,1,130,10|2
144,280,124702,1,0
208,320,125077,1,10
288,312,125452,1,2
352,264,125827,2,0,B|392:216|392:200,1,65,2|2
360,136,126577,2,0,B|344:88|328:80,1,65,10|0
256,64,127327,2,0,B|184:80|136:128,1,130,2|10
112,240,128639,5,0
192,224,128827,2,0,B|256:208,1,65,2|10
296,208,129389,2,0,B|360:192,1,65
392,176,129952,2,0,B|424:168,2,32.5,10|0|0
384,96,130327,6,0,B|328:64|256:72,1,130,0|4
216,136,130889,1,0
208,216,131077,2,0,B|158:181|86:173,1,130,0|4
192,56,131827,2,0,B|128:64|80:128,1,130,0|4
152,168,132389,1,0
224,144,132577,2,0,B|208:80|160:32,1,130,0|4
80,288,133327,6,0,B|80:224|72:192|80:136,1,130,0|4
128,96,133889,1,0
208,96,134077,2,0,B|264:96|288:80|344:96,1,130,0|4
208,96,134827,2,0,B|216:136|200:192|216:232,1,130,0|4
160,280,135389,1,0
88,248,135577,2,0,B|128:192|208:184,1,130,0|4
466,107,136327,6,0,B|408:144|344:144,1,130,4|4
280,96,136889,2,0,B|216:96|157:132,1,130,4|0
112,192,137452,1,0
88,264,137639,1,0
152,312,137827,6,0,B|210:275|274:275,1,130,4|0
338,324,138390,2,0,B|401:323|460:287,1,130,4|0
432,216,138952,1,0
448,144,139139,1,0
448,144,139327,6,2,B|416:80|352:64,1,130
272,64,139889,1,0
192,72,140077,2,0,B|144:88,2,32.5
224,144,140452,1,0
272,208,140639,2,2,B|272:272|208:336,1,130
448,80,141764,5,0
368,80,141952,1,0
328,152,142139,2,2,B|312:224|360:288,1,130
432,288,142702,1,8
464,216,142889,2,2,B|400:192|328:232,1,130
296,296,143452,1,8
336,360,143639,2,2,B|400:320|400:240,1,130
368,184,144202,1,8
312,128,144389,1,0
232,120,144577,5,8
224,200,144764,1,0
152,224,144952,1,8
160,144,145139,1,0
232,120,145327,2,2,B|184:64|120:48,1,130
80,112,145889,1,8
72,192,146077,2,2,B|64:256|88:288|80:320,1,130
160,320,146639,1,0
352,112,147202,6,0,B|312:112|272:120,1,65,2|0
248,48,147577,2,2,B|192:104|232:176,1,130
272,320,148327,1,0
192,304,148514,1,0
160,232,148702,1,8
216,176,148889,2,2,B|240:256|272:280|264:320,1,130
192,304,149452,1,8
112,296,149639,2,2,B|80:248|72:160,1,130
120,112,150202,1,8
120,112,150389,1,0
192,88,150577,6,0,B|264:80,1,65,8|0
248,160,150952,2,0,B|320:168,1,65,8|0
304,88,151327,2,2,B|376:96|400:176,1,130
384,248,151889,2,0,B|432:272,2,32.5
336,312,152264,2,0,B|328:352,2,32.5
296,240,152639,2,2,B|240:232|208:256|160:240,1,130
104,200,153202,1,0
88,128,153389,1,0
128,64,153577,1,0
208,56,153764,6,0,B|240:48|272:64,1,65
232,136,154139,2,2,B|296:144|360:112,1,130
328,40,154702,1,8
248,48,154889,2,2,B|224:120|272:184,1,130
344,160,155452,1,8
368,88,155639,2,2,B|304:88|240:128,1,130
168,120,156202,5,8
168,120,156389,1,0
104,168,156577,1,8
104,168,156764,1,0
64,232,156952,1,8
96,304,157139,1,0
176,312,157327,2,2,B|248:320|312:304,1,130
368,264,157889,2,0,B|416:272,2,32.5
304,216,158264,1,0
336,144,158452,1,8
304,72,158639,1,0
224,64,158827,5,2
224,296,159202,1,2
224,176,159577,1,2
400,176,159952,1,2
224,176,160327,6,2,B|160:168|136:184|88:176,1,130,2|0
96,96,160889,2,2,B|176:88|200:104|232:88,1,130,2|0
296,128,161452,1,0
376,112,161639,2,2,B|432:200|432:304,1,195
272,304,162577,5,0
192,296,162764,1,0
120,256,162952,1,0
96,184,163139,1,0
128,112,163327,1,0
256,72,177764,6,0,B|216:120|200:144,1,65
168,184,178139,2,0,B|136:256|144:328,1,130,2|0
224,320,178702,1,2
224,320,178889,1,0
360,248,179264,1,0
360,248,179452,1,2
360,248,179639,1,0
384,96,180014,6,0,B|344:80|304:80,1,65,0|2
320,160,180389,2,0,B|272:144|240:144,1,65,0|2
240,72,180764,2,0,B|208:64|168:72,2,65,0|2|0
216,144,181327,2,0,B|104:184|104:304,1,195,2|0
168,328,182077,2,0,B|328:312|304:144,1,260,2|0
152,128,183202,5,2
144,280,183577,1,2
152,128,183952,1,2
288,200,184327,2,0,B|336:208|352:208,2,65,2|0|0
320,128,184889,2,0,B|368:96|408:88|464:104,1,130,2|0
424,256,185639,2,0,B|352:336|232:336,1,195,2|2
152,112,187327,5,8
224,128,187514,1,0
288,88,187702,1,8
200,312,188077,1,4
256,256,188264,1,4
312,312,188452,2,0,B|384:320|440:288,1,130,8|0
432,208,189014,1,0
448,128,189202,2,0,B|480:112,4,32.5
368,128,189764,5,0
288,144,189952,1,8
216,128,190139,2,2,B|152:120|80:128,1,130
96,208,190702,1,8
152,256,190889,2,2,B|192:200|160:120,1,130
88,120,191452,1,8
32,176,191639,2,2,B|56:240|128:264,1,130
192,296,192202,6,0,B|224:296|264:304,1,65,8|0
208,240,192577,2,0,B|176:208|168:176,1,65,8|0
248,184,192952,2,0,B|280:168|312:160,1,65,8|0
320,240,193327,2,2,B|296:304|224:336,3,130
112,232,194827,5,2
293,47,195202,1,2
362,296,195577,1,2
248,192,195952,2,0,B|176:184|144:216|104:176,1,130,2|0
64,128,196514,1,0
112,64,196702,1,8
192,48,196889,2,2,B|240:32|288:56|328:40,1,130
328,120,197452,1,8
328,120,197639,2,2,B|280:104|232:128|199:114,1,130
128,152,198202,2,0,B|96:176|96:216,1,65,8|0
88,288,198577,5,2
168,288,198764,1,0
216,224,198952,2,0,B|256:200|288:192,1,65,2|0
256,192,199327,12,0,201577
256,104,201764,5,0
176,104,201952,1,0
120,160,202139,2,2,B|96:224|136:288,1,130
56,272,202702,1,8
56,272,202889,2,2,B|112:224|176:224,1,130
128,160,203452,1,8
128,160,203639,2,2,B|128:232|160:288,1,130
232,304,204202,5,8
296,344,204389,1,0
360,296,204577,1,8
328,224,204764,1,0
248,216,204952,2,0,B|240:184|248:144,1,65,8|0
328,152,205327,2,2,B|344:80|296:24,1,130
232,64,205889,1,0
160,88,206077,2,0,B|120:96,2,32.5
176,168,206452,1,8
104,200,206639,2,2,B|88:272|144:336,1,130
208,312,207202,6,0,B|256:304|312:304,1,97.5,2|0
344,312,207577,2,0,B|408:320|448:304,1,97.5,2|0
480,288,207952,2,0,B|504:216|464:144,1,130,2|0
456,88,208514,5,0
384,56,208702,1,8
384,136,208889,2,2,B|320:104|240:120,1,130
256,40,209452,1,8
336,40,209639,2,2,B|352:112|320:176,1,130
280,232,210202,2,0,B|248:256|216:264,1,65,8|0
152,224,210577,5,8
88,176,210764,1,0
112,104,210952,1,8
88,176,211139,1,0
152,224,211327,2,2,B|136:296|80:344,1,130
64,264,211889,2,0,B|24:240,2,32.5
136,288,212264,1,0
216,304,212452,1,8
296,304,212639,2,2,B|344:320|400:288|432:304,2,130
392,112,213764,5,0
312,112,213952,1,0
344,184,214139,2,2,B|416:160|424:88,1,130
344,80,214702,1,8
344,80,214889,2,2,B|376:144|448:176,1,130
480,104,215452,1,8
480,104,215639,2,2,B|400:120|352:160,1,130
288,176,216202,5,8
224,136,216389,1,0
144,120,216577,1,8
136,200,216764,2,0,B|88:224|72:256,1,65,0|8
64,312,217139,1,0
64,312,217327,2,2,B|144:312|208:272,3,130
368,96,218827,5,2
283,336,219202,1,2
116,143,219577,1,2
264,208,219952,1,2
120,264,220327,6,4,B|80:288,2,32.5
184,224,220702,1,0
248,184,220889,2,2,B|360:112,2,130
112,104,222014,2,0,B|168:144,1,65
208,80,222389,2,0,B|248:96|288:120,1,65
304,40,222764,2,2,B|376:72|416:120,1,130
408,192,223327,6,4,B|448:240,2,32.5
336,168,223702,1,0
256,160,223889,2,2,B|192:176|144:224,2,130
376,256,225014,1,0
376,256,225202,1,0
376,256,225389,1,0
312,304,225577,2,4,B|272:296|240:320,1,65
184,272,225952,2,4,B|144:288|112:272,1,65
56,240,226327,6,2,B|40:160|48:96|112:136|160:176|160:48,1,260
280,152,227452,1,4
280,152,227639,2,2,B|336:72|448:88|504:160|472:248|456:264|432:280,1,325
288,280,228952,5,4
224,320,229139,2,2,B|200:272|224:208|272:208,1,130
288,280,229702,1,4
224,320,229889,2,2,B|168:336|128:328|88:304,1,130
128,240,230452,1,4
128,240,230639,2,2,B|192:192|240:128|232:72|160:40|96:112|152:176|240:200|312:208|368:216|472:208,1,520
384,72,232514,5,2
304,72,232702,1,2
232,96,232889,1,2
168,240,233264,1,2
216,296,233452,1,2
296,296,233639,2,2,B|368:272|440:304,2,130
384,168,234764,5,2
304,176,234952,1,2
224,160,235139,2,2,B|168:128|88:144,1,130
112,216,235702,1,2
184,248,235889,2,2,B|144:312|64:328,1,130
160,328,236452,1,2
240,320,236639,2,2,B|304:336|376:288,1,130
392,144,237389,6,4,B|440:160,2,32.5
312,136,237764,1,4
232,144,237952,1,4
256,192,238139,12,0,242827
