osu file format v12

[General]
AudioFilename: Ai no Yokan(TV Size).mp3
AudioLeadIn: 0
PreviewTime: 57723
Countdown: 1
SampleSet: Soft
StackLeniency: 0.7
Mode: 0
LetterboxInBreaks: 1
WidescreenStoryboard: 1

[Editor]
Bookmarks: 2635
DistanceSpacing: 1
BeatDivisor: 1
GridSize: 8

[Metadata]
Title:Ai No Yokan ( TV Size )
TitleUnicode:Ai No Yokan ( TV Size )
Artist:Kami Nomi zo Shiri-tai
ArtistUnicode:Kami Nomi zo Shiri-tai
Creator:leonardlucky
Version:Easy
Source:Kami Nomi zo Shiru Sekai
Tags:
BeatmapID:340781
BeatmapSetID:130076

[Difficulty]
HPDrainRate:4
CircleSize:2
OverallDifficulty:4
ApproachRate:4
SliderMultiplier:1
SliderTickRate:1

[Events]
//Background and Video events
0,0,"BG NOR.jpg",0,0
Video,0,"Kami nomi zo Shiru Sekai II ED.avi"
//Break Periods
2,13617,21097
//Storyboard Layer 0 (Background)
//Storyboard Layer 1 (Fail)
//Storyboard Layer 2 (Pass)
//Storyboard Layer 3 (Foreground)
//Storyboard Sound Samples
//Background Colour Transformations
3,100,163,162,255

[TimingPoints]
-83,375,4,2,1,80,1,0
57854,-100,4,2,1,100,0,1
90023,-100,4,2,1,100,0,0

[HitObjects]
256,192,1042,1,2,0:0:0:0:
256,192,1417,2,0,P|328:216|424:136,2,200,2|2|0,0:0|0:0|0:0,0:0:0:0:
272,96,3292,2,0,P|184:112|168:144,2,100,2|2|2,0:0|0:0|0:0,0:0:0:0:
296,192,4417,2,0,P|376:240|424:352,1,200,2|2,0:0|0:0,0:0:0:0:
320,336,5542,1,4,0:0:0:0:
400,280,5917,6,0,P|344:224|240:280,1,200,2|0,0:0|0:0,0:0:0:0:
232,368,7042,2,0,P|160:320|160:208,1,200,4|0,0:0|0:0,0:0:0:0:
72,160,8167,2,0,P|168:120|272:184,1,200,2|0,0:0|0:0,0:0:0:0:
296,240,9292,1,2,0:0:0:0:
336,336,9667,1,0,0:0:0:0:
408,272,10042,1,2,0:0:0:0:
256,192,10417,12,0,13417,0:0:0:0:
144,240,22417,6,0,P|120:136|200:80,1,200,6|0,0:0|0:0,0:0:0:0:
280,88,23542,1,0,0:0:0:0:
376,88,23917,2,0,B|376:224|376:224|304:248|320:288,1,200,6|0,0:0|0:0,0:0:0:0:
224,256,25042,1,0,0:0:0:0:
128,256,25417,2,0,P|160:176|288:184,2,200,8|0|8,0:0|0:0|0:0,0:0:0:0:
232,256,27292,2,0,L|320:328,2,100
152,200,28417,6,0,P|240:160|336:240,1,200,10|0,0:0|0:0,0:0:0:0:
328,312,29542,2,0,B|416:272|416:272|424:160,1,200
424,64,30667,2,0,P|352:72|304:88,1,100
336,176,31417,6,0,P|272:224|128:216,2,200,4|0|4,0:0|0:0|0:0,0:0:0:0:
432,136,33292,1,0,0:0:0:0:
432,136,33667,2,0,P|424:224|400:264,1,100
408,336,34417,6,0,B|280:336|280:336|232:272|232:272|120:272,1,300
136,368,35917,2,0,P|40:264|160:176,1,300
152,272,37417,2,0,P|232:136|96:80,1,300
232,136,39292,5,0,0:0:0:0:
136,136,39667,2,0,B|24:136,1,100
48,232,40417,6,0,L|104:328,1,100
200,320,41167,2,0,L|256:224,1,100
168,176,41917,2,0,P|272:144|352:240,1,200
392,280,43042,1,0,0:0:0:0:
488,288,43417,6,0,P|472:192|296:304,1,400
96,192,46417,6,0,P|120:128|248:120,1,200
200,208,47542,1,0,0:0:0:0:
296,208,47917,2,0,B|408:208|408:208|448:112,1,200
344,112,49042,1,0,0:0:0:0:
304,24,49417,6,0,P|248:88|288:208,1,200
360,232,50542,2,0,L|152:240,1,200
64,208,51667,2,0,L|40:312,1,100
136,280,52417,6,0,P|224:328|328:280,2,200
240,224,54292,2,0,L|232:96,2,100
256,192,55417,12,0,57292,0:0:0:0:
256,192,58042,5,0,0:0:0:0:
256,192,58417,6,0,P|184:128|128:200,2,200
208,280,60292,2,0,P|336:256|344:168,1,200
432,144,61417,2,0,P|320:96|272:176,2,200
464,240,63292,6,0,P|432:296|376:312,2,100
440,144,64417,1,0,0:0:0:0:
344,136,64792,2,0,P|344:192|472:240,1,200
440,144,65917,5,0,0:0:0:0:
384,56,66292,2,0,P|312:56|248:160,2,200
360,152,68167,6,0,L|472:272,1,150
312,232,69292,6,0,P|264:144|336:56,1,200
376,144,70417,6,0,P|416:216|368:328,2,200
320,224,72292,2,0,L|192:224,2,100
416,208,73417,2,0,P|368:312|256:304,1,200
312,224,74542,1,0,0:0:0:0:
352,128,74917,6,0,P|280:128|232:168,1,100
200,224,75667,2,0,P|224:296|256:320,1,100
336,336,76417,2,0,P|424:288|432:184,2,200
352,240,78292,5,0,0:0:0:0:
352,240,78667,2,0,L|256:152,1,100
216,248,79417,6,0,P|184:136|272:80,1,200
288,176,80542,2,0,P|320:288|232:344,1,200,0|0,0:0|0:0,0:0:0:0:
216,256,81667,2,0,L|136:176,1,100
64,240,82417,6,0,P|56:120|152:96,2,200
144,184,84292,2,0,L|248:248,1,100
288,160,85042,2,0,P|320:256|256:328,1,200
216,240,86542,2,0,P|184:136|256:64,1,200
256,192,87667,12,0,88792,0:0:0:0:
