osu file format v5

[General]
AudioFilename: Kamelot - The Haunting.mp3
AudioLeadIn: 0
PreviewTime: -1
Countdown: 1
SampleSet: None
StackLeniency: 0.7
Mode: 0

[Metadata]
Title:The Haunting
Artist:Kamelot
Creator:Hybreed
Version:Varies
Source:
Tags:

[Difficulty]
HPDrainRate:3
CircleSize:4
OverallDifficulty:3
SliderMultiplier:0.7
SliderTickRate:1

[Events]
//Background and Video events
0,0,"kamelot.jpg"
//Break Periods
2,46631,62691
2,88540,96681
2,159999,167048
2,178353,195963
2,218016,242707
//Storyboard Layer 0 (Background)
//Storyboard Layer 1 (Failing)
//Storyboard Layer 2 (Passing)
//Storyboard Layer 3 (Foreground)
//Storyboard Sound Samples
//Background Colour Transformations
3,100,163,162,255

[TimingPoints]
16170,333.3,4,0,0,100

[Colours]
Combo1 : 62,62,62
Combo2 : 55,0,0
Combo3 : 0,0,51
Combo4 : 0,45,15
Combo5 : 64,0,64

[HitObjects]
192,192,16071,1,0
320,192,16401,1,0
256,128,18051,5,0
256,256,18381,1,0
192,128,20169,5,0
320,256,20502,1,0
320,128,22169,5,0
192,256,22502,1,0
256,192,24169,5,0
256,192,24502,1,0
192,192,26169,5,0
320,192,26502,1,0
256,128,28168,5,0
256,256,28502,1,0
192,64,30168,5,0
320,64,30501,1,0
192,192,32168,5,0
320,192,32501,1,0
256,128,33168,1,0
448,128,34168,5,0
384,64,34501,1,0
64,256,36168,5,0
128,320,36501,1,0
160,224,37167,1,0
256,96,38167,5,0
256,288,38501,1,0
160,192,40167,5,0
352,192,40500,1,0
160,192,41167,1,0
256,288,42167,5,0
256,288,42500,1,0
160,288,44167,5,0
352,288,44500,1,0
448,224,45167,1,0
352,192,46167,5,0
256,192,46500,1,0
64,192,64165,5,0
160,192,64498,1,0
256,192,64831,1,0
352,192,65165,1,0
448,192,65498,1,0
448,288,65831,5,0
352,288,66165,1,0
256,288,66498,1,0
160,288,66831,1,0
64,288,67165,1,0
64,192,67498,5,0
160,192,67831,6,0,B|384:192,1,210
256,96,69164,5,0
256,256,69498,1,0
128,160,69831,6,0,B|416:160,1,280
128,192,71830,5,0
224,192,72163,1,0
320,192,72497,1,0
416,192,72830,1,0
416,288,73163,1,0
320,288,73497,1,0
224,288,73830,1,0
128,288,74163,1,0
128,192,74496,6,0,B|320:32|320:32|320:224|320:224|320:192,1,420
256,192,77163,12,0,79473
64,64,80830,5,0
64,128,81163,1,0
64,192,81496,1,0
64,256,81829,1,0
64,320,82163,1,0
128,64,82496,5,0
128,128,82829,1,0
128,192,83081,1,0
128,256,83414,1,0
128,320,83747,1,0
224,192,84163,6,0,B|448:192,1,210
256,160,85414,1,0
256,256,85747,1,0
256,352,86081,1,0
320,352,86414,1,0
384,352,86747,1,0
384,288,87080,2,0,B|96:288|64:288,1,280
256,64,98161,6,0,B|256:160,1,70
256,192,100161,1,0
256,192,100495,1,0
256,192,102161,1,0
256,192,102495,1,0
64,64,104161,5,0
64,128,104494,1,0
448,64,104828,1,0
448,128,105161,1,0
256,160,105494,1,0
256,224,105828,2,0,B|256:320,1,70
256,64,107160,5,0
256,64,107494,2,0,B|256:160,1,70
256,192,108161,2,0,B|256:288,2,70
224,320,109827,6,0,B|320:320,2,70
32,352,112160,6,0,B|416:32,1,490
416,32,115160,2,0,B|128:256,1,350
448,320,118159,1,0
448,320,118492,1,0
448,320,118825,1,0
384,256,120159,5,0
320,192,120492,1,0
256,128,120826,1,0
192,192,121159,1,0
128,256,121492,1,0
224,320,121826,1,0
288,320,122159,1,0
256,64,123492,6,0,B|256:288|256:288|256:0,1,490
256,21,126158,1,0
128,64,128158,5,0
384,64,128491,1,0
128,128,128825,1,0
384,128,129158,1,0
256,64,129491,1,0
256,64,129824,1,0
256,64,130158,1,0
256,64,131825,1,0
256,64,132158,1,0
256,160,133824,6,0,B|256:256|256:224,4,70
256,192,136409,12,0,140369
64,320,141157,5,0
128,256,141490,1,0
384,256,141823,1,0
448,320,142157,2,0,B|224:352,1,210
64,192,144157,5,0
160,192,144490,1,0
256,192,144823,1,0
352,192,145157,1,0
448,192,145490,1,0
448,288,145823,5,0
352,288,146157,1,0
256,288,146490,1,0
160,288,146823,1,0
64,288,147156,1,0
64,192,147490,5,0
160,192,147823,6,0,B|384:192,1,210
256,96,149156,5,0
256,256,149490,1,0
128,160,149823,2,0,B|416:160,1,280
128,192,152156,5,0
224,192,152489,1,0
320,192,152823,1,0
416,192,153156,1,0
416,288,153489,1,0
320,288,153822,1,0
224,288,154156,1,0
128,288,154489,1,0
128,192,154822,6,0,B|320:32|320:32|320:224|320:224|320:192,1,420
256,192,157489,12,0,159799
448,192,168488,1,0
448,128,168821,1,0
384,128,169154,1,0
384,192,169488,1,0
384,256,169821,1,0
448,256,170154,1,0
448,192,170487,1,0
448,192,170821,2,0,B|320:128|192:224|160:288|0:96|0:64,1,490
256,64,174154,6,0,B|256:224,1,140
256,256,175154,1,0
256,320,175487,1,0
256,256,175820,1,0
256,204,176154,1,0
256,204,176487,5,0
256,128,176820,1,0
256,64,177153,1,0
352,64,177487,1,0
352,128,177820,1,0
352,192,178153,1,0
256,192,196485,6,0,B|256:32|32:64|64:224|288:352,1,490
274,344,199151,2,2,B|594:52|297:32|224:224,1,490
256,192,202151,5,0
256,288,202484,1,0
256,96,202818,1,0
160,96,203484,1,0
352,288,203818,1,0
256,192,204818,5,0
256,128,205151,1,0
256,256,206151,1,0
320,192,206484,1,0
256,192,207151,1,0
192,192,207484,1,0
256,128,207817,1,0
256,192,209484,12,0,211794
64,192,212483,1,0
160,192,212816,1,0
160,96,213150,1,0
256,96,213484,1,0
256,192,213817,1,0
352,192,214151,1,0
352,256,214484,5,0
256,256,214817,1,0
160,256,215150,1,0
64,256,215483,1,0
128,192,215816,1,0
288,192,216149,1,0
160,128,216483,1,0
256,128,216816,1,0
256,64,217149,5,0
320,64,217483,1,0
384,64,217816,1,0
64,192,244147,5,0
160,192,244480,1,0
256,192,244813,1,0
352,192,245146,1,0
448,192,245480,1,0
448,288,245814,5,0
352,288,246147,1,0
256,288,246481,1,0
160,288,246814,1,0
64,288,247147,1,0
64,192,247480,5,0
160,192,247813,6,0,B|384:192,1,210
256,96,249480,5,0
256,256,249813,1,0
128,160,250146,2,0,B|416:160,1,280
128,192,252146,5,0
224,192,252479,1,0
320,192,252812,1,0
416,192,253146,1,0
416,288,253479,1,0
320,288,253812,1,0
224,288,254146,1,0
128,288,254479,1,0
128,192,254812,6,0,B|320:32|320:32|320:224|320:224|320:192,1,420
256,192,257812,12,0,260122
256,64,261145,5,0
320,32,261478,1,0
384,32,261811,1,0
448,96,262145,1,0
448,160,262478,1,0
416,224,262811,1,0
352,288,263145,1,0
288,352,263478,1,0
224,352,264145,2,0,B|128:224|160:192,1,140
160,160,265144,2,0,B|160:64|256:32,1,140
448,64,266144,6,0,B|128:288,1,350
160,320,268811,1,0
96,256,269144,1,0
32,352,269477,5,0
96,352,269811,1,0
160,352,270144,1,0
480,352,270477,1,0
416,352,270811,1,0
352,352,271144,1,0
288,288,271477,1,0
224,288,271810,1,0
256,224,272144,1,0
256,288,273477,6,0,B|65:161|254:28|434:162|224:320,1,420
274,273,275810,1,0
274,273,276143,1,0
274,273,276476,1,0
