osu file format v14

[General]
AudioFilename: 09. - (Backslash).mp3
AudioLeadIn: 0
PreviewTime: 150982
Countdown: 1
SampleSet: Normal
StackLeniency: 0.7
Mode: 0
LetterboxInBreaks: 1
WidescreenStoryboard: 0

[Editor]
DistanceSpacing: 1.5
BeatDivisor: 4
GridSize: 8
TimelineZoom: 1

[Metadata]
Title:/ (Backslash)
TitleUnicode:\ (Backslash)
Artist:KamelCamellia
ArtistUnicode:KamelCamellia
Creator:Zeil
Version:Insane
Source:
Tags:
BeatmapID:720579
BeatmapSetID:324295

[Difficulty]
HPDrainRate:7
CircleSize:4
OverallDifficulty:8
ApproachRate:9
SliderMultiplier:1.99999990463257
SliderTickRate:2

[Events]
//Background and Video events
0,0,"wallhaven-201035.jpg",0,0
//Break Periods
2,31182,45382
//Storyboard Layer 0 (Background)
//Storyboard Layer 1 (Fail)
//Storyboard Layer 2 (Pass)
//Storyboard Layer 3 (Foreground)
//Storyboard Sound Samples

[TimingPoints]
1000,468.75,4,1,0,50,1,0
90531,-50,4,1,0,50,0,0

[HitObjects]
200,320,982,5,0,0:0:0:0:
72,48,1450,1,0,0:0:0:0:
272,272,1919,5,0,0:0:0:0:
192,104,2388,1,0,0:0:0:0:
392,328,2857,6,0,P|432:224|392:104,1,199.999990463257
128,64,3794,2,0,P|64:176|80:272,1,199.999990463257
216,280,4497,1,0,0:0:0:0:
360,240,4732,2,0,L|256:64,1,199.999990463257
56,288,5669,2,0,L|256:328,1,199.999990463257
416,72,6607,1,0,0:0:0:0:
264,72,6841,1,0,0:0:0:0:
344,200,7075,1,0,0:0:0:0:
264,328,7310,1,0,0:0:0:0:
120,304,7544,2,0,P|64:192|88:96,1,199.999990463257
224,96,8247,1,0,0:0:0:0:
376,96,8482,2,0,P|384:232|336:304,1,199.999990463257
56,320,9419,1,0,0:0:0:0:
336,208,9888,1,0,0:0:0:0:
80,56,10357,1,0,0:0:0:0:
224,104,10591,1,0,0:0:0:0:
271,120,10708,1,0,0:0:0:0:
318,137,10825,1,0,0:0:0:0:
376,272,11060,1,0,0:0:0:0:
232,304,11294,1,0,0:0:0:0:
56,64,11763,1,0,0:0:0:0:
352,72,12232,1,0,0:0:0:0:
424,208,12466,2,0,L|304:248,1,99.9999952316283
192,296,12935,1,0,0:0:0:0:
104,176,13169,2,0,L|192:88,1,99.9999952316283
312,168,13638,1,0,0:0:0:0:
248,280,13890,1,0,0:0:0:0:
218,280,14007,1,0,0:0:0:0:
190,269,14124,1,0,0:0:0:0:
170,247,14241,1,0,0:0:0:0:
160,219,14358,1,0,0:0:0:0:
162,190,14475,1,0,0:0:0:0:
168,170,14593,1,0,0:0:0:0:
175,153,14710,1,0,0:0:0:0:
182,136,14827,1,0,0:0:0:0:
188,120,14944,1,0,0:0:0:0:
195,103,15061,1,0,0:0:0:0:
202,86,15179,1,0,0:0:0:0:
208,72,15278,2,0,L|248:40,5,49.9999976158142
80,112,16450,1,0,0:0:0:0:
56,328,16919,1,0,0:0:0:0:
352,304,17388,1,0,0:0:0:0:
288,168,17622,1,0,0:0:0:0:
160,96,17857,2,0,P|72:168|80:256,1,199.999990463257
352,224,18560,1,0,0:0:0:0:
360,208,18677,1,0,0:0:0:0:
368,192,18794,2,0,P|296:104|192:88,1,199.999990463257
120,200,19497,1,0,0:0:0:0:
240,288,19732,2,0,L|376:272,1,99.9999952316283
280,216,20200,2,0,L|320:120,1,99.9999952316283
232,160,20669,2,0,L|160:72,1,99.9999952316283
80,208,21138,1,0,0:0:0:0:
240,48,21372,1,0,0:0:0:0:
264,56,21489,1,0,0:0:0:0:
288,64,21607,2,0,L|392:112,1,99.9999952316283
296,136,22075,2,0,L|336:240,1,99.9999952316283
248,200,22544,2,0,L|208:296,1,99.9999952316283
96,192,23013,1,0,0:0:0:0:
128,154,23130,1,0,0:0:0:0:
161,116,23247,1,0,0:0:0:0:
194,79,23364,1,0,0:0:0:0:
224,56,23482,2,0,L|336:48,1,99.9999952316283
384,96,23950,2,0,L|424:208,1,99.9999952316283
368,264,24419,2,0,L|272:328,1,99.9999952316283
152,256,24888,2,0,P|144:128|240:88,1,199.999990463257
256,192,25474,12,0,30982,0:0:0:0:
112,144,45982,5,0,0:0:0:0:
240,64,46216,1,0,0:0:0:0:
112,144,46450,5,0,0:0:0:0:
240,192,46685,1,0,0:0:0:0:
384,240,46919,5,0,0:0:0:0:
360,88,47153,1,0,0:0:0:0:
240,192,47388,1,0,0:0:0:0:
160,64,47622,1,0,0:0:0:0:
132,105,47739,1,0,0:0:0:0:
104,147,47856,1,0,0:0:0:0:
168,280,48091,1,0,0:0:0:0:
312,320,48325,1,0,0:0:0:0:
280,176,48560,1,0,0:0:0:0:
128,184,48794,1,0,0:0:0:0:
232,80,49028,1,0,0:0:0:0:
128,184,49263,1,0,0:0:0:0:
272,224,49497,1,0,0:0:0:0:
376,120,49732,1,0,0:0:0:0:
224,112,49966,1,0,0:0:0:0:
184,142,50083,1,0,0:0:0:0:
145,173,50200,1,0,0:0:0:0:
56,296,50435,1,0,0:0:0:0:
106,296,50552,1,0,0:0:0:0:
156,296,50669,1,0,0:0:0:0:
206,296,50786,1,0,0:0:0:0:
400,200,51021,1,0,0:0:0:0:
304,88,51255,2,0,L|216:104,1,49.9999976158142
120,168,51607,1,0,0:0:0:0:
192,296,51841,1,0,0:0:0:0:
241,298,51958,1,0,0:0:0:0:
290,290,52075,1,0,0:0:0:0:
337,271,52192,1,0,0:0:0:0:
377,242,52309,1,0,0:0:0:0:
410,204,52426,1,0,0:0:0:0:
433,160,52544,1,0,0:0:0:0:
446,112,52661,1,0,0:0:0:0:
224,88,52896,1,0,0:0:0:0:
376,96,53130,2,0,L|352:144,1,49.9999976158142
240,240,53482,1,0,0:0:0:0:
144,120,53716,1,0,0:0:0:0:
96,264,53950,1,0,0:0:0:0:
240,240,54185,1,0,0:0:0:0:
296,104,54419,1,0,0:0:0:0:
144,120,54653,1,0,0:0:0:0:
240,240,54888,1,0,0:0:0:0:
392,224,55122,1,0,0:0:0:0:
401,174,55239,1,0,0:0:0:0:
410,125,55356,1,0,0:0:0:0:
264,120,55591,1,0,0:0:0:0:
120,160,55825,1,0,0:0:0:0:
128,312,56060,2,0,L|320:200,1,199.999990463257
216,88,56763,1,0,0:0:0:0:
368,104,56997,1,0,0:0:0:0:
368,256,57232,1,0,0:0:0:0:
232,320,57466,1,0,0:0:0:0:
183,308,57583,1,0,0:0:0:0:
146,276,57700,1,0,0:0:0:0:
127,230,57817,1,0,0:0:0:0:
132,181,57934,1,0,0:0:0:0:
159,139,58051,1,0,0:0:0:0:
202,115,58169,1,0,0:0:0:0:
252,113,58286,1,0,0:0:0:0:
400,144,58521,1,0,0:0:0:0:
344,280,58755,2,0,L|280:336,1,49.9999976158142
200,208,59107,1,0,0:0:0:0:
152,64,59341,1,0,0:0:0:0:
304,88,59575,1,0,0:0:0:0:
336,112,59692,1,0,0:0:0:0:
264,240,59927,1,0,0:0:0:0:
120,272,60161,2,0,L|48:128,1,149.999992847443
184,208,60747,2,0,L|304:184,1,99.9999952316283
456,312,61450,1,0,0:0:0:0:
152,312,61919,1,0,0:0:0:0:
352,88,62388,1,0,0:0:0:0:
440,264,62857,2,0,L|341:89,1,199.999990463257
140,265,63794,2,0,L|48:88,1,199.999990463257
192,88,64497,1,0,0:0:0:0:
128,224,64732,2,0,L|344:320,1,199.999990463257
408,128,65669,2,0,L|225:46,1,199.999990463257
48,144,66607,1,0,0:0:0:0:
288,320,67075,1,0,0:0:0:0:
416,48,67544,1,0,0:0:0:0:
120,112,68013,1,0,0:0:0:0:
160,280,68265,1,0,0:0:0:0:
209,273,68382,1,0,0:0:0:0:
259,267,68499,1,0,0:0:0:0:
408,104,68968,1,0,0:0:0:0:
136,232,69437,1,0,0:0:0:0:
424,320,69906,1,0,0:0:0:0:
344,192,70140,1,0,0:0:0:0:
316,150,70257,1,0,0:0:0:0:
288,108,70374,1,0,0:0:0:0:
72,312,70843,1,0,0:0:0:0:
192,32,71312,1,0,0:0:0:0:
328,88,71546,1,0,0:0:0:0:
144,176,71781,1,0,0:0:0:0:
280,232,72015,1,0,0:0:0:0:
312,256,72132,1,0,0:0:0:0:
344,280,72249,1,0,0:0:0:0:
432,152,72484,1,0,0:0:0:0:
408,128,72601,1,0,0:0:0:0:
232,112,72835,1,0,0:0:0:0:
184,136,72953,1,0,0:0:0:0:
136,160,73070,1,0,0:0:0:0:
384,248,73304,2,0,L|440:184,2,49.9999976158142
144,208,73773,2,0,L|72:168,2,49.9999976158143
176,280,74359,2,0,L|240:272,1,49.9999976158142
362,84,74711,2,0,L|408:104,3,49.9999976158142
344,80,75180,1,0,0:0:0:0:
324,85,75297,1,0,0:0:0:0:
306,93,75414,1,0,0:0:0:0:
290,105,75531,1,0,0:0:0:0:
277,120,75648,1,0,0:0:0:0:
266,137,75765,1,0,0:0:0:0:
259,156,75883,1,0,0:0:0:0:
256,176,76000,1,0,0:0:0:0:
80,296,76468,1,0,0:0:0:0:
200,88,76937,1,0,0:0:0:0:
200,288,77406,1,0,0:0:0:0:
400,288,77757,1,0,0:0:0:0:
400,256,77874,1,0,0:0:0:0:
256,80,78343,1,0,0:0:0:0:
120,152,78578,1,0,0:0:0:0:
131,200,78695,1,0,0:0:0:0:
142,249,78812,1,0,0:0:0:0:
320,272,79046,1,0,0:0:0:0:
384,144,79281,1,0,0:0:0:0:
272,120,79515,1,0,0:0:0:0:
253,166,79632,1,0,0:0:0:0:
234,212,79749,1,0,0:0:0:0:
112,312,79984,1,0,0:0:0:0:
80,152,80218,1,0,0:0:0:0:
192,80,80453,2,0,L|264:64,2,49.9999976158142
368,200,80921,1,0,0:0:0:0:
224,288,81156,1,0,0:0:0:0:
144,144,81390,1,0,0:0:0:0:
186,117,81507,1,0,0:0:0:0:
229,91,81624,1,0,0:0:0:0:
416,80,81859,1,0,0:0:0:0:
328,304,82093,1,0,0:0:0:0:
104,248,82328,2,0,L|88:168,2,49.9999976158142
256,136,82796,1,0,0:0:0:0:
400,192,83031,1,0,0:0:0:0:
176,232,83265,2,0,L|88:208,5,49.9999976158142
192,232,83968,1,0,0:0:0:0:
219,215,84085,1,0,0:0:0:0:
238,188,84202,1,0,0:0:0:0:
255,159,84319,1,0,0:0:0:0:
264,136,84437,2,0,L|328:88,3,49.9999976158142
240,136,84906,1,0,0:0:0:0:
232,150,85023,1,0,0:0:0:0:
233,169,85140,1,0,0:0:0:0:
235,187,85257,1,0,0:0:0:0:
240,208,85375,1,0,0:0:0:0:
277,240,85492,1,0,0:0:0:0:
326,247,85609,1,0,0:0:0:0:
370,226,85726,1,0,0:0:0:0:
384,208,85843,1,0,0:0:0:0:
384,191,85960,1,0,0:0:0:0:
384,174,86077,1,0,0:0:0:0:
384,158,86194,1,0,0:0:0:0:
384,136,86312,2,0,L|432:80,3,49.9999976158142
360,136,86781,1,0,0:0:0:0:
326,138,86898,1,0,0:0:0:0:
293,140,87015,1,0,0:0:0:0:
260,142,87132,1,0,0:0:0:0:
224,144,87250,2,0,L|200:80,3,49.9999976158142
208,160,87718,2,0,L|136:192,3,49.9999976158142
240,176,88187,2,0,L|264:232,3,49.9999976158142
256,144,88656,2,0,L|304:120,3,49.9999976158142
408,72,89125,1,0,0:0:0:0:
360,256,89476,1,0,0:0:0:0:
192,152,89828,1,0,0:0:0:0:
320,120,90062,1,0,0:0:0:0:
224,288,90296,1,0,0:0:0:0:
72,248,90531,2,0,B|120:240|120:240|24:224|168:200,1,149.999992847443
328,304,91000,1,0,0:0:0:0:
384,96,91468,1,0,0:0:0:0:
272,296,91702,2,0,L|168:280,1,99.9999952316283
160,272,91937,1,0,0:0:0:0:
96,136,92289,1,0,0:0:0:0:
328,224,92640,1,0,0:0:0:0:
340,202,92757,1,0,0:0:0:0:
352,180,92874,1,0,0:0:0:0:
168,96,93109,2,0,L|288:64,1,99.9999952316283
160,296,93578,1,0,0:0:0:0:
184,256,93812,1,0,0:0:0:0:
192,96,94046,2,0,B|240:120|240:120|216:128|216:128|248:136|248:136|224:152,1,99.9999952316283
368,264,94515,2,0,B|320:240|320:240|344:232|344:232|312:224|312:224|336:208,1,99.9999952316283
328,200,94749,1,0,0:0:0:0:
112,216,95218,1,0,0:0:0:0:
288,96,95453,1,0,0:0:0:0:
360,280,95687,1,0,0:0:0:0:
152,136,96039,1,0,0:0:0:0:
376,80,96390,1,0,0:0:0:0:
368,224,96625,1,0,0:0:0:0:
120,80,96976,1,0,0:0:0:0:
312,152,97328,1,0,0:0:0:0:
104,232,97562,2,0,B|192:160|176:112|176:112|280:112,1,199.999990463257
264,112,98031,2,0,B|316:112|316:112|300:160|388:232,1,199.999990463257
96,312,98500,2,0,B|232:232|40:136|40:136|216:64,1,399.999980926514
400,80,99203,1,0,0:0:0:0:
296,320,99437,1,0,0:0:0:0:
192,168,99671,1,0,0:0:0:0:
88,80,100140,1,0,0:0:0:0:
192,320,100374,1,0,0:0:0:0:
296,168,100608,1,0,0:0:0:0:
160,104,101078,1,0,0:0:0:0:
352,104,101312,1,0,0:0:0:0:
216,256,101546,1,0,0:0:0:0:
352,248,101781,2,0,B|264:176|320:112|320:112|72:144,1,399.999980926514
192,272,102484,2,0,L|312:352,1,99.9999952316285
376,176,102952,1,0,0:0:0:0:
376,136,103070,1,0,0:0:0:0:
144,112,103421,2,0,B|280:128|240:184|240:184|368:152|368:152|368:280|288:288|288:288|160:256,1,499.999976158143
224,272,104125,1,0,0:0:0:0:
204,267,104242,1,0,0:0:0:0:
185,260,104359,1,0,0:0:0:0:
167,252,104476,1,0,0:0:0:0:
150,242,104593,1,0,0:0:0:0:
134,230,104710,1,0,0:0:0:0:
120,216,104828,1,0,0:0:0:0:
108,199,104945,1,0,0:0:0:0:
100,181,105062,1,0,0:0:0:0:
94,162,105179,1,0,0:0:0:0:
91,143,105296,1,0,0:0:0:0:
111,147,105414,1,0,0:0:0:0:
131,150,105531,1,0,0:0:0:0:
150,153,105648,1,0,0:0:0:0:
170,157,105765,1,0,0:0:0:0:
190,160,105882,1,0,0:0:0:0:
216,168,106000,2,0,B|280:216|392:48|392:48|416:248,1,399.999980926514
368,328,106703,2,0,L|216:328,1,99.9999952316285
200,248,106937,1,0,0:0:0:0:
368,120,107289,1,0,0:0:0:0:
280,304,107640,1,0,0:0:0:0:
144,224,107875,1,0,0:0:0:0:
168,112,108109,2,0,L|280:96,1,99.9999952316285
376,176,108460,1,0,0:0:0:0:
360,192,108578,1,0,0:0:0:0:
120,280,108812,1,0,0:0:0:0:
304,136,109046,1,0,0:0:0:0:
128,120,109281,2,0,B|248:152|248:152|176:232|328:248,1,299.999985694885
432,272,109750,2,0,B|488:200|456:112|456:112|416:48|392:144|344:136|344:136|200:80,1,399.999980926514
104,280,110453,1,0,0:0:0:0:
312,288,110687,1,0,0:0:0:0:
