osu file format v12

[General]
AudioFilename: FZ OP.mp3
AudioLeadIn: 2000
PreviewTime: 56035
Countdown: 0
SampleSet: Soft
StackLeniency: 0.7
Mode: 0
LetterboxInBreaks: 0

[Editor]
Bookmarks: 349,8192,20741,33290,45839,52113,56035,62589,68584,81133,85447
DistanceSpacing: 0.8
BeatDivisor: 2
GridSize: 4

[Metadata]
Title:to the beginning (TV Size)
TitleUnicode:to the beginning (TV Size)
Artist:Kalafina
ArtistUnicode:Kalafina
Creator:nanda2009
Version:Normal
Source:Fate/Zero
Tags:taiko type-moon Fate Zero Kajiura Yuki opening
BeatmapID:158895
BeatmapSetID:51906

[Difficulty]
HPDrainRate:4
CircleSize:4
OverallDifficulty:4
ApproachRate:5
SliderMultiplier:1.2
SliderTickRate:1

[Events]
//Background and Video events
Video,619,"FZ OP.avi"
0,0,"BG.jpg",0,0
//Break Periods
//Storyboard Layer 0 (Background)
//Storyboard Layer 1 (Fail)
//Storyboard Layer 2 (Pass)
//Storyboard Layer 3 (Foreground)
//Storyboard Sound Samples
//Background Colour Transformations
3,100,163,162,255

[TimingPoints]
629,392.156862745098,4,2,1,80,1,0
1021,-100,4,2,1,5,0,0
1217,-100,4,2,1,80,0,0
1413,-100,4,2,1,5,0,0
1805,-100,4,2,1,80,0,0
2589,-100,4,2,1,5,0,0
2981,-100,4,2,1,80,0,0
4158,-100,4,2,1,5,0,0
4354,-100,4,2,1,80,0,0
4550,-100,4,2,1,5,0,0
4942,-100,4,2,1,80,0,0
8472,-100,4,1,1,80,0,0
15138,-100,4,1,2,80,0,0
15334,-100,4,1,1,80,0,0
16707,-100,4,1,2,80,0,0
16903,-100,4,1,1,80,0,0
18276,-100,4,1,2,80,0,0
18472,-100,4,1,1,80,0,0
21021,-100,4,2,1,80,0,0
23962,-100,4,1,1,80,0,0
24060,-100,4,2,1,80,0,0
26903,-100,4,1,1,80,0,0
27001,-100,4,2,1,80,0,0
30236,-100,4,1,1,80,0,0
30334,-100,4,2,1,80,0,0
31217,-100,4,1,1,80,0,0
31315,-100,4,2,1,80,0,0
31805,-100,4,1,1,80,0,0
31903,-100,4,2,1,80,0,0
32393,-100,4,1,1,80,0,0
32491,-100,4,2,1,80,0,0
33570,-100,4,1,1,80,0,0
55530,-100,4,1,1,35,0,0
56315,392.156862745098,4,1,1,80,1,1
56707,-100,4,1,2,100,0,1
56903,-100,4,1,1,80,0,1
57491,-100,4,1,2,100,0,1
57687,-100,4,1,1,80,0,1
59844,-100,4,1,2,100,0,1
60040,-100,4,1,1,80,0,1
60628,-100,4,1,2,100,0,1
60825,-100,4,1,1,80,0,1
64550,-100,4,1,2,100,0,1
64746,-100,4,1,1,80,0,1
66119,-100,4,1,2,100,0,1
66315,-100,4,1,1,80,0,1
69256,-100,4,1,2,100,0,1
69452,-100,4,1,1,80,0,1
72393,-100,4,1,2,100,0,1
72589,-100,4,1,1,80,0,1
75530,-100,4,1,2,100,0,1
75727,-100,4,1,1,80,0,1
77099,-100,4,1,2,100,0,1
77295,-100,4,1,1,80,0,1
78667,-100,4,1,2,100,0,1
78864,-100,4,1,1,80,0,1
81805,-100,4,1,2,100,0,1
82001,-100,4,1,1,80,0,1
83374,-100,4,1,2,100,0,1
83570,-100,4,1,1,80,0,1
84158,-100,4,1,2,100,0,1
84354,-100,4,1,1,80,0,1
85727,-100,4,1,1,80,0,0
87687,-100,4,2,1,25,0,0

[Colours]
Combo1 : 166,166,166
Combo2 : 154,78,78
Combo3 : 255,74,74

[HitObjects]
16,192,629,2,0,B|67:99|160:104,2,180,2|0|0,0:0|0:0|0:0,0:0:0:0:
24,288,2197,2,0,B|144:288|144:288|232:144,1,240,2|0,0:0|0:0,0:0:0:0:
256,104,3374,1,0,0:0:0:0:
352,104,3766,2,0,B|445:99|496:192,2,180,2|0|0,0:0|0:0|0:0,0:0:0:0:
256,104,5334,1,2,0:0:0:0:
256,192,5530,12,4,8472,0:0:0:0:
352,176,9648,5,8,0:0:0:0:
256,208,10040,1,0,0:0:0:0:
160,176,10432,2,8,B|192:112|256:96|320:112|352:176,1,240
392,264,11609,5,2,0:2:0:0:
256,368,12393,1,2,0:2:0:0:
120,264,13177,1,2,0:2:0:0:
256,128,13962,1,2,0:2:0:0:
216,40,14354,1,8,0:0:0:0:
120,56,14746,6,0,P|24:184|144:304,1,360,4|8,0:0|0:0,0:0:0:0:
240,320,16315,2,0,B|296:327|346:257|329:197|329:197|312:136|368:73|442:88,1,360,2|8,0:2|0:0,0:0:0:0:
376,16,17883,2,0,P|296:64|256:144,1,180,2|2,0:2|0:2,0:0:0:0:
248,232,18864,1,0,0:0:0:0:
200,312,19256,6,0,P|106:365|48:272,1,240,4|0,0:0|0:0,0:0:0:0:
64,176,20432,2,0,P|88:184|120:208,2,60,8|0|8,0:0|0:0|0:0,0:0:0:0:
72,128,21021,6,0,B|96:64|160:56,1,120,4|2,0:0|0:0,0:0:0:0:
256,48,21805,1,0,0:0:0:0:
352,56,22197,2,0,B|416:64|440:128,2,120,2|0|2,0:0|0:0|0:0,0:0:0:0:
344,152,23374,1,0,0:0:0:0:
440,128,23766,2,0,B|507:111,2,60,2|8|0,0:0|1:0|0:0,0:0:0:0:
416,224,24550,5,2,0:0:0:0:
320,248,24942,2,0,B|256:232|224:168|256:104,2,180,0|2|0,0:0|0:0|0:0,0:0:0:0:
352,336,26511,1,2,0:0:0:0:
256,320,26903,1,8,0:0:0:0:
160,312,27295,6,0,B|96:304|72:240,1,120,4|2,0:0|0:0,0:0:0:0:
72,144,28079,2,0,B|96:80|160:72,1,120,0|2,0:0|0:0,0:0:0:0:
256,64,28864,1,0,0:0:0:0:
352,72,29256,2,0,B|416:80|440:144,1,120,2|0,0:0|0:0,0:0:0:0:
456,240,30040,6,0,B|464:272|456:304,2,60,2|8|0,0:0|0:0|0:0,0:0:0:0:
368,272,30825,2,0,B|360:240|368:208,2,60,2|0|8,0:0|0:0|0:0,0:0:0:0:
272,264,31609,2,0,B|280:296|272:328,1,60,0|4,0:0|0:0,0:0:0:0:
184,296,32197,2,0,B|177:269|185:237,1,60,0|4,0:0|0:0,0:0:0:0:
256,64,33178,1,2,0:0:0:0:
256,64,33570,6,0,B|440:64,1,180,4|2,0:0|0:2,0:0:0:0:
496,192,34746,1,8,0:0:0:0:
496,192,35138,2,0,B|316:192,1,180,2|0,0:2|0:0,0:0:0:0:
256,320,36315,1,8,0:0:0:0:
256,320,36707,6,0,B|72:320,1,180,4|0,0:0|0:1,0:0:0:0:
16,192,37883,1,8,0:0:0:0:
16,192,38276,2,0,B|196:192,1,180,2|2,0:2|0:2,0:0:0:0:
336,192,39452,1,8,0:0:0:0:
392,272,39844,6,0,B|440:224|440:160|392:112,1,180,4|2,0:0|0:2,0:0:0:0:
256,80,41021,1,8,0:0:0:0:
152,88,41413,6,0,B|32:97,1,120,0|2,0:0|0:2,0:0:0:0:
24,192,42197,2,0,B|143:198,1,120,0|8,0:0|0:1,0:0:0:0:
152,296,42981,2,0,B|32:305,2,120,2|0|0,0:2|0:0|0:0,0:0:0:0:
360,296,44550,6,0,B|479:305,2,120,0|2|0,0:0|0:2|0:0,0:0:0:0:
288,232,45727,1,8,0:0:0:0:
256,320,46119,6,0,B|72:320,1,180,4|2,0:0|0:2,0:0:0:0:
16,192,47295,1,8,0:0:0:0:
16,192,47687,2,0,B|196:192,1,180,2|0,0:2|0:0,0:0:0:0:
256,64,48864,1,8,0:0:0:0:
256,64,49256,6,0,B|440:64,1,180,4|0,0:0|0:1,0:0:0:0:
496,192,50432,1,8,0:0:0:0:
496,192,50825,2,0,B|316:192,1,180,2|2,0:2|0:2,0:0:0:0:
176,192,52001,1,8,0:0:0:0:
112,112,52393,6,0,B|64:160|64:224|112:272,1,180,4|2,0:0|0:0,0:0:0:0:
200,320,53374,2,0,P|232:336|312:320,1,120,0|6,0:0|0:0,0:0:0:0:
280,232,54158,1,0,0:0:0:0:
232,232,54354,1,0,0:0:0:0:
192,200,54550,2,2,P|176:136|276:72,1,180,6|2,0:0|0:0,0:0:0:0:
352,60,55530,5,8,0:0:0:0:
308,148,55923,1,0,0:0:0:0:
408,136,56315,6,0,B|456:176|472:216|464:280|440:320|376:352,2,240,4|2|0,0:0|0:2|0:0,0:0:0:0:
312,112,58275,1,8,0:0:0:0:
256,192,58667,1,2,0:2:0:0:
200,272,59060,1,8,0:0:0:0:
104,248,59452,6,0,B|56:208|40:168|48:104|72:64|136:32,2,240,4|2|0,0:0|0:2|0:0,0:0:0:0:
200,272,61413,2,0,B|256:312|312:272,1,120,8|2,0:0|0:2,0:0:0:0:
312,176,62197,2,0,B|256:136|200:176,1,120,8|4,0:0|0:0,0:0:0:0:
176,320,63177,6,0,P|259:355|336:320,1,180,0|8,0:0|0:0,0:0:0:0:
360,224,64158,2,0,B|320:176|256:152|192:176|152:224,1,240,2|0,0:2|0:0,0:0:0:0:
72,280,65334,1,8,0:0:0:0:
152,328,65726,6,0,B|224:328|256:376|256:376|284:328|360:328,1,240,4|2,0:1|0:2,0:0:0:0:
384,232,66903,1,8,0:0:0:0:
392,136,67295,2,0,B|368:72|304:64,1,120,4|8,0:0|0:0,0:0:0:0:
208,64,68079,2,0,B|144:72|120:136,1,120,4|8,0:0|0:0,0:0:0:0:
168,220,68864,6,0,B|256:252|344:220,1,180,4|2,0:0|0:2,0:0:0:0:
416,96,70040,2,0,B|368:56|304:56,1,120,8|2,0:0|0:2,0:0:0:0:
208,56,70824,2,0,B|144:56|96:96,1,120,8|0,0:0|0:0,0:0:0:0:
72,184,71609,1,8,0:1:0:0:
168,220,72001,6,0,B|256:252|344:220,1,180,4|2,0:0|0:2,0:0:0:0:
312,80,73177,2,0,P|232:64|200:80,1,120,8|2,0:0|0:2,0:0:0:0:
256,160,73962,1,8,0:0:0:0:
200,240,74354,2,0,P|232:256|312:240,1,120,2|8,0:2|0:0,0:0:0:0:
344,152,75138,6,0,B|256:120|168:152,2,180,4|2|8,0:0|0:2|0:0,0:0:0:0:
424,208,76707,2,0,P|416:312|304:368,1,240,2|2,0:2|0:2,0:0:0:0:
256,288,77883,1,0,0:0:0:0:
208,368,78275,2,0,P|96:312|88:208,1,240,4|2,0:1|0:2,0:0:0:0:
183,184,79452,1,0,0:0:0:0:
121,112,79844,6,0,B|145:48|209:40,1,120,4|8,0:0|0:0,0:0:0:0:
305,40,80628,2,0,B|369:48|393:112,1,120,4|8,0:0|0:0,0:0:0:0:
328,184,81413,6,0,P|249:229|184:184,1,180,4|2,0:0|0:2,0:0:0:0:
168,136,82197,1,0,0:0:0:0:
256,96,82589,1,8,0:1:0:0:
344,56,82981,6,0,B|400:24|464:40|464:40|488:104|456:168,2,240,2|0|4,0:2|0:1|0:0,0:2:0:0:
360,152,84942,2,0,P|328:152|300:145,1,60,2|4,0:2|0:1,0:0:0:0:
211,145,85530,2,0,P|184:152|152:152,1,60,0|4,0:0|0:0,0:0:0:0:
256,192,85922,12,0,87687,0:0:0:0:
