osu file format v12

[General]
AudioFilename: FZ OP.mp3
AudioLeadIn: 2000
PreviewTime: 56035
Countdown: 0
SampleSet: Normal
StackLeniency: 0.7
Mode: 1
LetterboxInBreaks: 0

[Editor]
Bookmarks: 349,8192,20741,33290,45839,52113,68584,81133,85447
DistanceSpacing: 0.8
BeatDivisor: 2
GridSize: 8

[Metadata]
Title:to the beginning (TV Size)
TitleUnicode:to the beginning (TV Size)
Artist:Kalafina
ArtistUnicode:Kalafina
Creator:nanda2009
Version:Muzukashii
Source:Fate/Zero
Tags:taiko type-moon Fate Zero Kajiura Yuki opening
BeatmapID:244784
BeatmapSetID:51906

[Difficulty]
HPDrainRate:5
CircleSize:5
OverallDifficulty:5
ApproachRate:5
SliderMultiplier:1.4
SliderTickRate:1

[Events]
//Background and Video events
0,0,"BG.jpg",0,0
//Break Periods
//Storyboard Layer 0 (Background)
//Storyboard Layer 1 (Fail)
//Storyboard Layer 2 (Pass)
//Storyboard Layer 3 (Foreground)
//Storyboard Sound Samples
//Background Colour Transformations
3,100,163,162,255

[TimingPoints]
629,392.156862745098,4,1,0,50,1,0
6903,-100,4,1,0,100,0,0
56315,392.156862745098,4,1,0,100,1,1
85727,-100,4,1,0,100,0,0

[Colours]
Combo1 : 166,166,166
Combo2 : 154,78,78
Combo3 : 255,74,74

[HitObjects]
80,160,629,1,0,0:0:0:0:
160,136,1021,1,0,0:0:0:0:
160,136,1217,1,8,0:0:0:0:
160,136,1609,1,8,0:0:0:0:
160,136,1805,1,0,0:0:0:0:
216,184,2197,1,8,0:0:0:0:
224,176,2589,1,0,0:0:0:0:
160,136,2981,1,0,0:0:0:0:
160,136,3374,1,0,0:0:0:0:
160,136,3766,1,8,0:0:0:0:
160,136,4158,1,0,0:0:0:0:
160,136,4354,1,8,0:0:0:0:
160,136,4746,1,8,0:0:0:0:
160,136,4942,1,8,0:0:0:0:
256,192,5334,12,0,6511,0:0:0:0:
160,200,6903,5,0,0:0:0:0:
160,200,7295,1,8,0:0:0:0:
208,120,7687,1,0,0:0:0:0:
136,80,7785,1,0,0:0:0:0:
88,240,7883,1,0,0:0:0:0:
128,224,8079,1,8,0:0:0:0:
64,120,8276,1,0,0:0:0:0:
360,184,8472,1,4,0:0:0:0:
256,176,8864,1,8,0:0:0:0:
256,176,9060,1,0,0:0:0:0:
256,176,9452,1,8,0:0:0:0:
256,176,9648,1,0,0:0:0:0:
136,128,9844,1,8,0:0:0:0:
256,176,10236,1,0,0:0:0:0:
256,176,10432,1,8,0:0:0:0:
256,176,10629,1,0,0:0:0:0:
136,176,11021,1,0,0:0:0:0:
256,176,11217,1,8,0:0:0:0:
272,72,11413,1,0,0:0:0:0:
256,176,11609,1,8,0:0:0:0:
256,176,11805,1,0,0:0:0:0:
256,176,12001,1,0,0:0:0:0:
256,176,12197,1,8,0:0:0:0:
256,176,12589,1,8,0:0:0:0:
80,144,12785,1,0,0:0:0:0:
256,176,12981,1,8,0:0:0:0:
256,176,13374,1,0,0:0:0:0:
256,176,13766,1,8,0:0:0:0:
256,176,14158,1,8,0:0:0:0:
256,176,14354,1,8,0:0:0:0:
256,176,14746,1,4,0:0:0:0:
256,176,15138,1,0,0:0:0:0:
256,176,15334,1,8,0:0:0:0:
256,176,15727,1,8,0:0:0:0:
192,128,15923,1,0,0:0:0:0:
256,176,16119,1,8,0:0:0:0:
248,224,16511,1,0,0:0:0:0:
256,176,16707,1,8,0:0:0:0:
256,176,16903,5,0,0:0:0:0:
184,160,17295,1,0,0:0:0:0:
256,176,17491,1,8,0:0:0:0:
256,176,17883,1,0,0:0:0:0:
256,176,18079,1,0,0:0:0:0:
256,176,18276,1,8,0:0:0:0:
256,176,18472,1,8,0:0:0:0:
256,176,18864,1,0,0:0:0:0:
176,80,19060,1,0,0:0:0:0:
256,176,19256,1,4,0:0:0:0:
256,176,19648,1,0,0:0:0:0:
256,176,19844,1,8,0:0:0:0:
256,176,20040,1,0,0:0:0:0:
256,176,20432,1,8,0:0:0:0:
256,176,20629,1,0,0:0:0:0:
256,176,20825,1,8,0:0:0:0:
256,176,21021,1,4,0:0:0:0:
256,176,21413,1,0,0:0:0:0:
256,176,21609,1,0,0:0:0:0:
256,176,21805,1,0,0:0:0:0:
256,176,22197,1,8,0:0:0:0:
256,176,22589,1,0,0:0:0:0:
256,176,22981,1,0,0:0:0:0:
256,176,23178,1,0,0:0:0:0:
256,176,23374,1,0,0:0:0:0:
256,176,23766,1,8,0:0:0:0:
256,176,23962,1,0,0:0:0:0:
256,176,24158,1,2,0:0:0:0:
256,176,24550,1,8,0:0:0:0:
256,176,24942,1,0,0:0:0:0:
96,144,25334,1,8,0:0:0:0:
256,176,25530,1,0,0:0:0:0:
96,144,25923,1,0,0:0:0:0:
96,144,26119,1,8,0:0:0:0:
96,144,26511,1,0,0:0:0:0:
96,144,26707,1,0,0:0:0:0:
96,144,26903,1,2,0:0:0:0:
96,144,27295,1,4,0:0:0:0:
96,144,27687,1,0,0:0:0:0:
96,144,27883,1,0,0:0:0:0:
96,144,28079,1,0,0:0:0:0:
96,144,28472,1,8,0:0:0:0:
152,152,28864,1,0,0:0:0:0:
96,144,29256,1,8,0:0:0:0:
96,144,29452,1,0,0:0:0:0:
152,152,29648,1,0,0:0:0:0:
152,152,30040,1,0,0:0:0:0:
152,152,30236,1,8,0:0:0:0:
152,152,30432,1,0,0:0:0:0:
152,152,30825,1,0,0:0:0:0:
152,152,31217,1,8,0:0:0:0:
152,152,31609,1,0,0:0:0:0:
152,152,31805,1,4,0:0:0:0:
192,136,32197,1,8,0:0:0:0:
152,152,32393,1,12,0:0:0:0:
192,136,32785,1,0,0:0:0:0:
192,136,32981,1,8,0:0:0:0:
176,80,33079,1,8,0:0:0:0:
192,136,33178,1,8,0:0:0:0:
192,136,33374,1,0,0:0:0:0:
192,136,33570,1,4,0:0:0:0:
192,136,33962,1,8,0:0:0:0:
192,136,34158,1,8,0:0:0:0:
456,200,34550,1,0,0:0:0:0:
456,200,34746,1,8,0:0:0:0:
192,136,35138,1,0,0:0:0:0:
192,136,35530,1,8,0:0:0:0:
192,136,35727,1,0,0:0:0:0:
456,200,36119,1,0,0:0:0:0:
192,136,36315,1,8,0:0:0:0:
272,232,36511,1,0,0:0:0:0:
192,136,36707,1,0,0:0:0:0:
192,136,37099,1,8,0:0:0:0:
192,136,37295,1,8,0:0:0:0:
456,200,37687,1,0,0:0:0:0:
456,200,37883,1,8,0:0:0:0:
192,136,38275,1,0,0:0:0:0:
192,136,38667,1,8,0:0:0:0:
192,136,38864,1,0,0:0:0:0:
456,200,39256,1,0,0:0:0:0:
192,136,39452,1,8,0:0:0:0:
264,200,39648,1,0,0:0:0:0:
192,136,39844,1,0,0:0:0:0:
192,136,40236,1,8,0:0:0:0:
192,136,40432,1,0,0:0:0:0:
456,200,40824,1,0,0:0:0:0:
456,200,41020,1,8,0:0:0:0:
192,136,41412,1,0,0:0:0:0:
192,136,41804,1,8,0:0:0:0:
256,200,42197,1,0,0:0:0:0:
456,200,42393,1,0,0:0:0:0:
192,136,42589,1,8,0:0:0:0:
336,144,42981,1,0,0:0:0:0:
336,144,43374,1,8,0:0:0:0:208
208,208,43766,1,0,0:0:0:0:
208,208,44158,1,8,0:0:0:0:
208,208,44550,1,0,0:0:0:0:
208,208,44942,1,8,0:0:0:0:
208,208,45334,1,8,0:0:0:0:
208,208,45530,1,0,0:0:0:0:
208,208,45727,1,8,0:0:0:0:
192,136,46119,1,4,0:0:0:0:
192,136,46511,1,0,0:0:0:0:
192,136,46707,1,8,0:0:0:0:
456,200,47099,1,0,0:0:0:0:
456,200,47295,1,8,0:0:0:0:
192,136,47687,1,0,0:0:0:0:
192,136,48079,1,8,0:0:0:0:
192,136,48276,1,0,0:0:0:0:
456,200,48668,1,0,0:0:0:0:
192,136,48864,1,8,0:0:0:0:
96,128,49060,1,0,0:0:0:0:
192,136,49256,1,0,0:0:0:0:
192,136,49648,1,8,0:0:0:0:
192,136,49844,1,8,0:0:0:0:
456,200,50236,1,0,0:0:0:0:
456,200,50432,1,8,0:0:0:0:
192,136,50824,1,0,0:0:0:0:
192,136,51216,1,8,0:0:0:0:
192,136,51413,1,0,0:0:0:0:
456,200,51805,1,0,0:0:0:0:
192,136,52001,1,8,0:0:0:0:
336,160,52393,5,4,0:0:0:0:
248,152,52785,1,0,0:0:0:0:
336,160,52981,1,2,0:0:0:0:
336,160,53374,1,0,0:0:0:0:
224,120,53472,1,0,0:0:0:0:
320,176,53570,1,0,0:0:0:0:
320,176,53766,1,4,0:0:0:0:
248,152,54158,1,8,0:0:0:0:
312,184,54354,1,8,0:0:0:0:
312,184,54550,1,0,0:0:0:0:
208,208,54942,1,0,0:0:0:0:
304,208,55138,1,6,0:0:0:0:
152,304,55530,2,0,B|192:320|224:304|224:304|256:320|288:304|288:304|320:320|360:304,1,210
288,72,56315,1,4,0:0:0:0:
200,200,56707,1,8,0:0:0:0:
200,200,56903,1,0,0:0:0:0:
88,136,57001,1,0,0:0:0:0:
88,40,57099,1,0,0:0:0:0:
200,200,57295,1,8,0:0:0:0:
200,200,57491,1,0,0:0:0:0:
200,200,57687,1,0,0:0:0:0:
200,200,57883,1,8,0:0:0:0:
200,200,58275,1,8,0:0:0:0:
200,200,58471,1,0,0:0:0:0:
296,192,58667,1,8,0:0:0:0:
200,200,58864,1,0,0:0:0:0:
288,72,58962,1,0,0:0:0:0:
200,200,59060,1,0,0:0:0:0:
288,72,59452,1,8,0:0:0:0:
200,200,59844,1,8,0:0:0:0:
200,200,60040,1,0,0:0:0:0:
88,136,60138,1,0,0:0:0:0:
88,40,60236,1,0,0:0:0:0:
200,200,60432,1,8,0:0:0:0:
200,200,60628,1,0,0:0:0:0:
200,200,60824,1,0,0:0:0:0:
200,200,61020,1,8,0:0:0:0:
200,200,61412,1,0,0:0:0:0:
200,200,61608,1,8,0:0:0:0:
248,168,61805,1,0,0:0:0:0:
200,200,62001,1,8,0:0:0:0:
288,72,62099,1,8,0:0:0:0:
200,200,62197,1,8,0:0:0:0:
288,72,62589,1,0,0:0:0:0:
200,200,62981,1,8,0:0:0:0:
200,200,63177,1,0,0:0:0:0:
88,136,63275,1,0,0:0:0:0:
88,40,63373,1,0,0:0:0:0:
200,200,63569,1,8,0:0:0:0:
200,200,63765,1,0,0:0:0:0:
200,200,63961,1,0,0:0:0:0:
200,200,64157,1,8,0:0:0:0:
200,200,64549,1,0,0:0:0:0:
200,200,64745,1,8,0:0:0:0:
136,152,64942,1,0,0:0:0:0:
200,200,65138,1,0,0:0:0:0:
288,72,65236,1,0,0:0:0:0:
200,200,65334,1,0,0:0:0:0:
288,72,65726,1,0,0:0:0:0:
200,200,66118,1,8,0:0:0:0:
200,200,66314,1,0,0:0:0:0:
88,40,66510,1,0,0:0:0:0:
200,200,66902,1,8,0:0:0:0:
200,200,67099,1,0,0:0:0:0:
160,168,67295,1,4,0:0:0:0:
160,168,67687,1,2,0:0:0:0:
160,168,68079,1,6,0:0:0:0:
160,168,68471,1,0,0:0:0:0:
288,72,68864,1,4,0:0:0:0:
200,200,69256,1,8,0:0:0:0:
200,200,69452,1,0,0:0:0:0:
200,200,69844,1,8,0:0:0:0:
200,200,70040,1,0,0:0:0:0:
200,200,70236,1,0,0:0:0:0:
200,200,70432,1,8,0:0:0:0:
200,200,70824,1,0,0:0:0:0:
200,200,71020,1,0,0:0:0:0:
184,128,71216,1,8,0:0:0:0:
200,200,71413,1,0,0:0:0:0:
288,72,71511,1,0,0:0:0:0:
200,200,71609,1,0,0:0:0:0:
288,72,72001,1,0,0:0:0:0:
200,200,72393,1,8,0:0:0:0:
200,200,72589,1,0,0:0:0:0:
88,136,72687,1,0,0:0:0:0:
88,40,72785,1,0,0:0:0:0:
200,200,72981,1,8,0:0:0:0:
200,200,73177,1,0,0:0:0:0:
200,200,73373,1,0,0:0:0:0:
200,200,73569,1,8,0:0:0:0:
200,200,73961,1,0,0:0:0:0:
200,200,74157,1,8,0:0:0:0:
184,128,74354,1,0,0:0:0:0:
200,200,74550,1,8,0:0:0:0:
288,72,74648,1,8,0:0:0:0:
200,200,74746,1,8,0:0:0:0:
288,72,75138,1,0,0:0:0:0:
200,200,75530,1,8,0:0:0:0:
200,200,75726,1,0,0:0:0:0:
88,136,75824,1,0,0:0:0:0:
88,40,75922,1,0,0:0:0:0:
200,200,76118,1,8,0:0:0:0:
200,200,76314,1,0,0:0:0:0:
200,200,76510,1,0,0:0:0:0:
200,200,76706,1,8,0:0:0:0:
200,200,77098,1,0,0:0:0:0:
200,200,77294,1,0,0:0:0:0:
184,128,77491,1,8,0:0:0:0:
200,200,77687,1,0,0:0:0:0:
288,72,77785,1,0,0:0:0:0:
200,200,77883,1,0,0:0:0:0:
288,72,78275,1,8,0:0:0:0:
200,200,78667,1,0,0:0:0:0:
200,200,78863,1,8,0:0:0:0:
88,40,79059,1,8,0:0:0:0:
200,200,79451,1,8,0:0:0:0:
200,200,79647,1,0,0:0:0:0:
160,112,79844,1,4,0:0:0:0:
128,176,80236,1,2,0:0:0:0:
128,176,80628,1,4,0:0:0:0:
128,176,81020,1,2,0:0:0:0:
96,128,81413,1,4,0:0:0:0:
344,104,81805,1,8,0:0:0:0:
344,104,82001,1,0,0:0:0:0:
192,136,82099,1,0,0:0:0:0:
344,104,82197,1,0,0:0:0:0:
344,104,82589,1,8,0:0:0:0:
192,136,82785,1,0,0:0:0:0:
344,104,82981,1,0,0:0:0:0:
344,104,83373,1,8,0:0:0:0:
344,104,83569,1,0,0:0:0:0:
192,136,83667,1,0,0:0:0:0:
192,136,83765,1,0,0:0:0:0:
344,104,83962,1,0,0:0:0:0:
344,104,84158,1,8,0:0:0:0:
344,104,84550,1,4,0:0:0:0:
344,104,84942,1,0,0:0:0:0:
344,104,85138,1,4,0:0:0:0:
344,104,85530,1,8,0:0:0:0:
344,104,85726,1,6,0:0:0:0:
